<?xml version="1.0" standalone="no"?>
<!DOCTYPE svg PUBLIC "-//W3C//DTD SVG 1.1//EN" "http://www.w3.org/Graphics/SVG/1.1/DTD/svg11.dtd" >
<svg xmlns="http://www.w3.org/2000/svg" xmlns:xlink="http://www.w3.org/1999/xlink" version="1.1">
<metadata>
Created by FontForge 20170731 at Fri May  5 14:19:03 2017
 By Aleksey,,,
Copyright (c) 2009-2011 by Accademia di Belle Arti di Urbino and students of MA course of Visual design. Some rights reserved.
</metadata>
<defs>
<font id="TitilliumWeb-SemiBoldItalic" horiz-adv-x="560" >
  <font-face 
    font-family="Titillium Web SemiBold"
    font-weight="600"
    font-style="italic"
    font-stretch="normal"
    units-per-em="1000"
    panose-1="0 0 7 0 0 0 0 0 0 0"
    ascent="800"
    descent="-200"
    x-height="500"
    cap-height="685"
    bbox="-156 -298 1097 1112"
    underline-thickness="30"
    underline-position="-130"
    slope="-13"
    unicode-range="U+0020-F6C3"
  />
<missing-glyph horiz-adv-x="223" 
 />
    <glyph glyph-name=".notdef" horiz-adv-x="223" 
 />
    <glyph glyph-name=".null" horiz-adv-x="0" 
 />
    <glyph glyph-name="nonmarkingreturn" horiz-adv-x="333" 
 />
    <glyph glyph-name="space" unicode=" " horiz-adv-x="220" 
 />
    <glyph glyph-name="exclam" unicode="!" horiz-adv-x="174" 
d="M92 246l100 454h114l-113 -454h-101zM33 0l31 135h110l-31 -135h-110z" />
    <glyph glyph-name="quotedbl" unicode="&#x22;" horiz-adv-x="309" 
d="M346 450h-182l56 241h189z" />
    <glyph glyph-name="numbersign" unicode="#" 
d="M577 171h-102l-43 -171h-95l42 171h-125l-43 -171h-95l42 171h-102l23 92h102l34 137h-102l23 91h102l43 172h95l-43 -172h126l43 172h95l-43 -172h102l-22 -91h-103l-34 -137h103zM402 263l34 137h-126l-34 -137h126z" />
    <glyph glyph-name="dollar" unicode="$" 
d="M533 218q0 -109 -66 -169t-179 -60q-14 0 -40 2l-46 -110h-71l50 119l-90 23l18 78q54 -9 109 -14l91 215q-65 28 -93 62t-28 95q0 95 61.5 154t165.5 59q25 0 50 -3l45 107h73l-50 -117l75 -19l-20 -77q-43 7 -90 12l-86 -200q70 -31 95.5 -63.5t25.5 -93.5zM423 206
q0 26 -10.5 40.5t-42.5 29.5l-82 -193h1q134 0 134 123zM297 470q0 -26 11 -40.5t43 -29.5l76 181h-11q-56 0 -87.5 -29.5t-31.5 -81.5z" />
    <glyph glyph-name="percent" unicode="%" 
d="M253 483q20 0 31.5 17.5t20.5 53t9 53.5q0 27 -23 27q-19 0 -31 -17.5t-21 -52t-9 -52.5q0 -29 23 -29zM128 6l396 709l67 -23l-396 -709zM156 559q35 142 152 142q88 0 88 -83q0 -26 -8 -59q-36 -144 -151 -144q-56 0 -77 36q-12 20 -12 47.5t8 60.5zM415 0
q-88 0 -88 85q0 26 8 59q35 142 151 142q88 0 88 -83q0 -26 -8 -59q-36 -144 -151 -144zM492 192q0 27 -23 27q-19 0 -31 -17.5t-21 -53t-9 -53.5q0 -27 23 -27q19 0 31 18t21 53t9 53z" />
    <glyph glyph-name="ampersand" unicode="&#x26;" horiz-adv-x="638" 
d="M435 696q162 0 162 -138q0 -73 -41.5 -119t-143.5 -86l91 -124q14 20 30.5 59t23.5 68h101q-12 -46 -42 -105t-56 -93l86 -104l-75 -65l-79 101q-96 -101 -225 -101q-109 0 -154 44.5t-45 130t48.5 143.5t151.5 98q-28 51 -28 103q0 93 53.5 140.5t141.5 47.5zM287 82
q40 0 82.5 21.5t68.5 53.5l-130 183q-71 -30 -99 -71.5t-28 -99.5q0 -87 106 -87zM370.5 577.5q-21.5 -27.5 -21.5 -78t24 -85.5q67 31 91 60.5t24 74.5q0 56 -55 56q-41 0 -62.5 -27.5z" />
    <glyph glyph-name="quotesingle" unicode="'" horiz-adv-x="148" 
d="M222 450h-94l56 241h101z" />
    <glyph glyph-name="parenleft" unicode="(" horiz-adv-x="231" 
d="M201 302q-24 -96 -24 -168q0 -135 12 -226l4 -31h-103q-26 92 -26 247q0 90 24 187t58 172q71 156 126 232l24 33h101q-27 -40 -70.5 -123.5t-72.5 -155t-53 -167.5z" />
    <glyph glyph-name="parenright" unicode=")" horiz-adv-x="232" 
d="M176 328q24 96 24 168q0 135 -12 226l-4 31h103q26 -92 26 -247q0 -90 -24 -187t-58 -172q-71 -156 -126 -232l-24 -33h-101q27 40 70.5 123.5t72.5 155t53 167.5z" />
    <glyph glyph-name="asterisk" unicode="*" horiz-adv-x="419" 
d="M503 504h-127l39 -122l-62 -19l-41 123l-105 -79l-40 51l106 79l-103 74l39 54l103 -75l40 123l64 -21l-39 -124h126v-64z" />
    <glyph glyph-name="plus" unicode="+" 
d="M110 202v98h177v179h98v-179h180v-98h-180v-181h-98v181h-177z" />
    <glyph glyph-name="comma" unicode="," horiz-adv-x="179" 
d="M54 -130h-89l109 265h119z" />
    <glyph glyph-name="hyphen" unicode="-" horiz-adv-x="297" 
d="M72 217l25 98h250l-24 -98h-251z" />
    <glyph glyph-name="period" unicode="." horiz-adv-x="159" 
d="M25 0l30 135h110l-30 -135h-110z" />
    <glyph glyph-name="slash" unicode="/" horiz-adv-x="447" 
d="M141 -18l-102 36l430 695l101 -36z" />
    <glyph glyph-name="zero" unicode="0" 
d="M405 671q209 0 209 -205t-86.5 -341t-221.5 -136q-208 0 -208 203q0 133 38 242t108.5 173t160.5 64zM477.5 545.5q-22.5 30.5 -77.5 30.5t-100.5 -62.5t-66.5 -145t-21 -153.5t22.5 -100.5t77 -29.5t100 60.5t67 143t21.5 154.5t-22.5 102.5z" />
    <glyph glyph-name="one" unicode="1" 
d="M210 520l248 140h97l-152 -660h-111l122 528l-174 -96z" />
    <glyph glyph-name="two" unicode="2" 
d="M446.5 410.5q40.5 46.5 40.5 88t-25 59.5t-71 18q-78 0 -156 -14l-26 -4l14 82q98 32 191 32q187 0 187 -150q0 -79 -42.5 -137t-132.5 -128l-208 -161h294l-23 -96h-424l22 91l223 191q96 82 136.5 128.5z" />
    <glyph glyph-name="three" unicode="3" 
d="M216 635q92 36 190.5 36t144.5 -34t46 -104t-30.5 -112t-96.5 -72q38 -20 54 -47.5t16 -80.5q0 -105 -77 -168.5t-200 -63.5q-44 0 -93.5 8.5t-77.5 17.5l-28 9l24 78q112 -17 180.5 -17t113.5 35t45 96q0 36 -23 53.5t-76 18.5l-128 1l21 84l129 5q45 1 89 38t44 86
q0 74 -100 74q-74 0 -152 -12l-26 -4z" />
    <glyph glyph-name="four" unicode="4" 
d="M338 -4l28 121h-293l19 82l293 461h121l-295 -450h176l45 194h110l-45 -194h69l-22 -93h-68l-28 -121h-110z" />
    <glyph glyph-name="five" unicode="5" 
d="M385 416q173 0 173 -154q0 -118 -76.5 -195.5t-191.5 -77.5q-49 0 -105 9.5t-87 19.5l-32 10l25 86q114 -29 186.5 -29t119.5 45.5t47 109.5q0 80 -93 80q-53 0 -109 -22l-18 -8l-82 18l108 353h386l-22 -96h-297l-65 -185q80 36 133 36z" />
    <glyph glyph-name="six" unicode="6" 
d="M445 576q-138 0 -201 -194q85 38 154 38q179 0 179 -168q0 -118 -70.5 -190.5t-198.5 -72.5q-96 0 -149.5 58t-53.5 173q0 74 24 151.5t68 145.5t116 111t158 43q63 0 141 -16l25 -5l-34 -90q-79 16 -158 16zM463 239q0 85 -89 85q-72 0 -128 -24l-18 -7q-9 -38 -9 -85.5
t23.5 -85t71.5 -37.5q73 0 111 41t38 113z" />
    <glyph glyph-name="seven" unicode="7" 
d="M205 564l22 96h406l-34 -148l-368 -528l-101 31l362 510l8 39h-295z" />
    <glyph glyph-name="eight" unicode="8" 
d="M441 672q96 0 146.5 -37t50.5 -96q0 -131 -132 -197q67 -39 67 -127t-82.5 -158t-221.5 -70q-204 0 -204 158q0 65 43 115t102 82q-35 28 -45 50.5t-10 54.5q0 90 75.5 157.5t210.5 67.5zM212 103q26 -20 91 -20t109 40.5t44 87.5q0 32 -14.5 49t-50.5 29h-93
q-48 -15 -80 -46.5t-32 -75.5t26 -64zM416 576q-67 0 -107 -36t-40 -82q0 -27 11 -43.5t41 -32.5h93q40 17 72.5 48.5t32.5 67.5q0 78 -103 78z" />
    <glyph glyph-name="nine" unicode="9" 
d="M113 107q65 -16 141.5 -16t133 48t78.5 135q-108 -31 -164 -31q-168 0 -168 160q0 112 79.5 190t208.5 78q99 0 142 -72q34 -57 34 -153q0 -24 -2 -51q-6 -100 -37.5 -178.5t-81.5 -127.5q-102 -100 -246 -100q-66 0 -131 17l-21 5zM499 447q0 123 -102 123
q-59 0 -103.5 -37t-49.5 -97q-1 -11 -1 -20q0 -35 20 -54t73 -19t128 17l25 5q10 45 10 82z" />
    <glyph glyph-name="colon" unicode=":" horiz-adv-x="163" 
d="M99 311l30 135h110l-30 -135h-110zM26 0l30 135h110l-30 -135h-110z" />
    <glyph glyph-name="semicolon" unicode=";" horiz-adv-x="186" 
d="M-31 -130l109 265h119l-139 -265h-89zM116 311l30 135h110l-30 -135h-110z" />
    <glyph glyph-name="less" unicode="&#x3c;" 
d="M521 377l-295 -124l295 -130v-112l-410 195v90l410 192v-111z" />
    <glyph glyph-name="equal" unicode="=" 
d="M119 301v98h438v-98h-438zM119 103v98h438v-98h-438z" />
    <glyph glyph-name="greater" unicode="&#x3e;" 
d="M448 253l-295 124v111l410 -192v-90l-410 -195v112z" />
    <glyph glyph-name="question" unicode="?" horiz-adv-x="424" 
d="M514 551q0 -70 -32 -113t-125 -111q-60 -45 -68 -84l-9 -40h-102q0 42 7 78q10 54 97 118q68 50 92.5 78t24.5 63t-21 47t-57 12q-70 0 -129 -11l-22 -4l11 86q89 26 158 26q175 0 175 -145zM129 0l33 146h110l-33 -146h-110z" />
    <glyph glyph-name="at" unicode="@" horiz-adv-x="948" 
d="M637 724q283 0 348 -178q19 -51 19 -108q0 -64 -20 -142q-43 -172 -99 -239t-144.5 -67t-110.5 49q-35 -18 -91.5 -34t-101.5 -16t-76.5 23t-41.5 59q-12 44 -12 85.5t8 74.5q54 280 253 280q53 0 223 -29q-13 -52 -44.5 -193.5t-31.5 -161t11 -27t35 -7.5q38 0 66.5 46
t57.5 168q18 76 18 116.5t-10 79t-41 67.5q-66 62 -237 62t-271.5 -89.5t-144.5 -274.5q-16 -66 -16 -119.5t15.5 -101t49.5 -83.5q72 -76 232 -76l137 9l-20 -92q-97 -9 -159.5 -9t-127 18.5t-107.5 51.5q-122 95 -122 273q0 63 16 129q58 244 187.5 350t352.5 106z
M415 166q0 -83 53 -84q60 0 139 44q4 46 59 278q-60 15 -100 15q-57 0 -90 -50t-52 -139q-9 -35 -9 -64z" />
    <glyph glyph-name="A" unicode="A" horiz-adv-x="552" 
d="M423 0v143h-224l-69 -143h-112l323 685h199l-6 -685h-111zM406 588l-164 -347h184l5 347h-25z" />
    <glyph glyph-name="B" unicode="B" horiz-adv-x="575" 
d="M459 685q173 0 173 -142q0 -125 -120 -190q41 -20 57 -47.5t16 -70.5q0 -104 -68.5 -169.5t-197.5 -65.5h-249l158 685h231zM384 300h-133l-47 -204h137q60 0 94.5 37t34.5 99q0 68 -86 68zM441 589h-123l-46 -195h125q52 0 86.5 36t34.5 92q0 35 -18.5 51t-58.5 16z" />
    <glyph glyph-name="C" unicode="C" horiz-adv-x="498" 
d="M305 -11q-200 0 -200 197q0 145 50 271q27 68 66.5 120.5t99.5 85.5t133 33q67 0 144 -20l25 -7l-26 -84q-68 14 -143 14t-129 -62t-79.5 -153t-25.5 -190q0 -108 99 -108q63 0 139 12l23 3l-8 -88q-91 -24 -168 -24z" />
    <glyph glyph-name="D" unicode="D" horiz-adv-x="606" 
d="M313 0h-243l159 685h217q210 0 210 -206q0 -177 -82 -321q-40 -71 -108 -114.5t-153 -43.5zM528 359q13 63 13 120.5t-28.5 83t-88.5 25.5h-107l-112 -491h119q54 0 98 39.5t68.5 99.5t37.5 123z" />
    <glyph glyph-name="E" unicode="E" horiz-adv-x="500" 
d="M70 0l158 685h393l-23 -97h-281l-44 -194h226l-23 -98h-225l-46 -199h282l-23 -97h-394z" />
    <glyph glyph-name="F" unicode="F" horiz-adv-x="479" 
d="M70 0l159 685h385l-23 -97h-274l-53 -235h230l-24 -97h-229l-59 -256h-112z" />
    <glyph glyph-name="G" unicode="G" horiz-adv-x="570" 
d="M325 -11q-218 0 -218 206q0 159 55 285q61 136 172 188q61 28 120 28q107 0 190 -27l27 -9l-26 -81q-100 20 -189 20q-60 0 -106.5 -39t-73.5 -101q-54 -124 -54 -265q0 -108 116 -108q40 0 76 8l12 2l42 181h-81l22 93h192l-83 -355q-76 -26 -193 -26z" />
    <glyph glyph-name="H" unicode="H" horiz-adv-x="622" 
d="M440 0l68 300h-257l-69 -300h-112l159 685h111l-66 -288h257l67 288h111l-158 -685h-111z" />
    <glyph glyph-name="I" unicode="I" horiz-adv-x="252" 
d="M70 0l159 685h111l-158 -685h-112z" />
    <glyph glyph-name="J" unicode="J" horiz-adv-x="275" 
d="M366 685l-129 -557q-29 -131 -68 -164.5t-163 -33.5l19 98q51 1 68.5 17.5t32.5 84.5l129 555h111z" />
    <glyph glyph-name="K" unicode="K" horiz-adv-x="532" 
d="M401 0l-68 288l-86 -6l-65 -282h-112l159 685h111l-71 -305l76 6l206 299h123l-240 -344l84 -341h-117z" />
    <glyph glyph-name="L" unicode="L" horiz-adv-x="427" 
d="M422 0h-352l159 685h111l-135 -588h239z" />
    <glyph glyph-name="M" unicode="M" horiz-adv-x="785" 
d="M70 0l159 685h177l20 -534l267 534h180l-158 -685h-112l137 588h-8l-279 -560h-108l-21 560h-7l-135 -588h-112z" />
    <glyph glyph-name="N" unicode="N" horiz-adv-x="642" 
d="M70 0l159 685h183l66 -568h15l129 568h108l-158 -685h-175l-72 575h-15l-134 -575h-106z" />
    <glyph glyph-name="O" unicode="O" horiz-adv-x="620" 
d="M247 113.5q26 -27.5 86 -27.5t102 37q56 50 88 153t32 203q0 64 -26 92t-85.5 28t-96.5 -33q-58 -53 -92 -159.5t-34 -186t26 -107zM506 48q-76 -59 -184 -59t-162 50t-54 157q0 130 40.5 247t117.5 184q77 69 188 69q218 0 218 -207q0 -136 -41.5 -256t-122.5 -185z" />
    <glyph glyph-name="P" unicode="P" horiz-adv-x="547" 
d="M344 212h-113l-49 -212h-112l159 685h205q101 0 147 -43t46 -137q0 -138 -75 -215.5t-208 -77.5zM360 309q73 0 113 53t40 142q0 43 -20.5 63.5t-67.5 20.5h-108l-64 -279h107z" />
    <glyph glyph-name="Q" unicode="Q" horiz-adv-x="620" 
d="M320 -11q-106 0 -160 50t-54 157q0 130 40.5 247t117.5 184q77 69 188 69q218 0 218 -207q0 -136 -41.5 -256t-122.5 -185q-15 -13 -40 -25l48 -138l-105 -35l-44 142q-23 -3 -45 -3zM247 113.5q26 -27.5 86 -27.5t102 37q56 50 88 153t32 203q0 64 -26 92t-85.5 28
t-96.5 -33q-58 -53 -92 -159.5t-34 -186t26 -107z" />
    <glyph glyph-name="R" unicode="R" horiz-adv-x="561" 
d="M432 685q100 0 148 -43t48 -140.5t-47.5 -163t-115.5 -88.5l64 -250h-111l-56 235h-126l-54 -235h-112l159 685h203zM475 379q38 48 38 108.5t-20 81t-69 20.5h-106l-60 -258h115q64 0 102 48z" />
    <glyph glyph-name="S" unicode="S" horiz-adv-x="497" 
d="M568 583q-108 18 -172 18t-97 -30t-33 -84q0 -34 19.5 -50.5t94 -46.5t103 -64t28.5 -100q0 -113 -68.5 -175t-185.5 -62q-45 0 -96 8.5t-79 17.5l-29 9l18 81q115 -19 187 -19q139 0 139 127q0 35 -19 51.5t-90.5 45.5t-103 64.5t-31.5 100.5q0 99 64 160t172 61
q45 0 94.5 -8t76.5 -16l28 -9z" />
    <glyph glyph-name="T" unicode="T" horiz-adv-x="461" 
d="M145 588l23 97h442l-23 -97h-166l-136 -588h-111l135 588h-164z" />
    <glyph glyph-name="U" unicode="U" horiz-adv-x="594" 
d="M227 225q-9 -40 -9 -74q0 -65 102 -65q69 0 100.5 32t48.5 104l107 463h112l-107 -463q-28 -122 -91.5 -177.5t-169.5 -55.5q-213 0 -213 150q0 42 12 102l103 444h112z" />
    <glyph glyph-name="V" unicode="V" horiz-adv-x="551" 
d="M578 685h112l-317 -685h-202l4 685h111l-12 -588h38z" />
    <glyph glyph-name="W" unicode="W" horiz-adv-x="849" 
d="M179 685h112l-38 -582h20l245 572h122l-27 -572h19l241 582h111l-294 -685h-171l27 527l-220 -527h-176z" />
    <glyph glyph-name="X" unicode="X" horiz-adv-x="517" 
d="M291 685l66 -260l190 260h119l-262 -342l102 -343h-116l-71 262l-194 -262h-119l266 345l-99 340h118z" />
    <glyph glyph-name="Y" unicode="Y" horiz-adv-x="499" 
d="M652 685l-285 -394l-69 -291h-104l69 298l-100 387h113l62 -290l196 290h118z" />
    <glyph glyph-name="Z" unicode="Z" horiz-adv-x="492" 
d="M173 588l23 97h417l-28 -123l-395 -440l-6 -25h293l-23 -97h-417l27 121l393 442l6 25h-290z" />
    <glyph glyph-name="bracketleft" unicode="[" horiz-adv-x="259" 
d="M205 747h214l-22 -93h-102l-159 -683h101l-23 -93h-212z" />
    <glyph glyph-name="backslash" unicode="\" horiz-adv-x="459" 
d="M432 4l-113 -4l-132 698l114 4z" />
    <glyph glyph-name="bracketright" unicode="]" horiz-adv-x="258" 
d="M198 -122h-214l22 93h102l159 683h-101l23 93h212z" />
    <glyph glyph-name="asciicircum" unicode="^" 
d="M444 316l-124 238l-124 -238h-114l190 344h94l192 -344h-114z" />
    <glyph glyph-name="underscore" unicode="_" horiz-adv-x="521" 
d="M18 -80h448l-23 -102h-448z" />
    <glyph glyph-name="grave" unicode="`" horiz-adv-x="518" 
d="M312 759l205 -92l-46 -79l-211 83z" />
    <glyph glyph-name="a" unicode="a" horiz-adv-x="516" 
d="M219 -11q-69 0 -102 44.5t-33 112t15.5 127.5t44.5 114.5t79.5 89t113.5 34.5q56 0 188 -22l42 -7l-75 -324l-27 -156l-107 -4q11 72 15 91q-47 -62 -107 -89q-24 -11 -47 -11zM443 404q-68 15 -108 15t-75 -45q-66 -83 -66 -218q0 -37 13.5 -55.5t42 -18.5t62.5 26.5
t57 53.5l23 27z" />
    <glyph glyph-name="b" unicode="b" horiz-adv-x="515" 
d="M403 511q143 0 143 -158q0 -92 -28 -173t-88 -135.5t-142 -54.5q-90 0 -190 22l-35 7l158 689h109l-60 -259q23 23 63 42.5t70 19.5zM188 93q55 -11 96.5 -11t72 29.5t46.5 72.5q32 88 32 158q0 35 -13 55.5t-43.5 20.5t-61.5 -16t-50 -32l-19 -17z" />
    <glyph glyph-name="c" unicode="c" horiz-adv-x="407" 
d="M348 511q57 0 118 -19l21 -7l-28 -80q-72 12 -115 12q-71 0 -109 -72.5t-38 -167t87 -94.5q43 0 91 8l18 3l-8 -82q-71 -23 -142.5 -23t-114 43t-42.5 121q0 154 68 256t194 102z" />
    <glyph glyph-name="d" unicode="d" horiz-adv-x="516" 
d="M220 -11q-67 0 -101.5 42t-34.5 125t27.5 162.5t86.5 135.5t137 56q39 0 105 -14l21 -5l50 217h109l-164 -708h-105l13 68q-7 -9 -20 -22t-51 -35t-73 -22zM441 404q-61 14 -105 14t-77.5 -45t-49 -104.5t-15.5 -115.5q0 -72 61 -72q22 0 55.5 23t55.5 46l22 23z" />
    <glyph glyph-name="e" unicode="e" horiz-adv-x="470" 
d="M217 101q23 -19 57 -19q72 0 142 12l26 5l-11 -82q-91 -28 -184 -28q-162 0 -162 162q0 142 63 245q32 52 86 83t123 31q164 0 164 -137q0 -92 -65.5 -128t-213.5 -36h-42q-6 -22 -6 -55.5t23 -52.5zM260 291q84 0 119 18t35 63q0 50 -62 50q-104 0 -139 -131h47z" />
    <glyph glyph-name="f" unicode="f" horiz-adv-x="320" 
d="M379 719q41 0 77 -14l13 -5l-20 -81q-37 7 -67 7t-44.5 -23t-27.5 -74l-7 -29h118l-23 -93h-115l-95 -407l-62 -216h-97l145 622h-50l22 94h49l7 30q24 104 62.5 146.5t114.5 42.5z" />
    <glyph glyph-name="g" unicode="g" horiz-adv-x="477" 
d="M392 -178q-66 -54 -170 -54q-209 0 -209 134q0 49 35 82t91 61q-18 18 -18 43.5t14.5 49.5t28.5 38l15 14q-69 37 -69 121t56 142t149 58q40 0 93 -13l17 -4l147 6l-21 -89h-71q9 -23 9 -59q0 -76 -58 -133t-152 -57l-38 5q-22 -29 -22 -46t18.5 -23.5t81.5 -15t101 -36
t38 -86.5q0 -84 -66 -138zM136.5 -25q-23.5 -24 -23.5 -51t24.5 -46t79.5 -19t96.5 22t41.5 67q0 24 -18 33.5t-74.5 18t-74.5 13.5q-28 -14 -51.5 -38zM287 251q46 0 74 32t28 71q0 68 -79 68q-44 0 -71.5 -31.5t-27.5 -72.5q0 -67 76 -67z" />
    <glyph glyph-name="h" unicode="h" horiz-adv-x="507" 
d="M410 511q61 0 90.5 -36.5t29.5 -88t-21 -138.5l-57 -248h-108l56 241q18 72 18 108t-11.5 52t-36 16t-55 -20.5t-50.5 -41.5l-20 -21l-77 -334h-108l163 708h108l-62 -273q8 9 21 21.5t50 33.5t70 21z" />
    <glyph glyph-name="i" unicode="i" horiz-adv-x="227" 
d="M60 0l115 500h108l-115 -500h-108zM191 574l27 117h110l-27 -117h-110z" />
    <glyph glyph-name="j" unicode="j" horiz-adv-x="227" 
d="M60 0l115 500h108l-115 -500q-18 -76 -35 -110t-41 -50q-52 -36 -135 -72l-35 87q83 42 103.5 64t34.5 81zM190 569l27 116h109l-26 -116h-110z" />
    <glyph glyph-name="k" unicode="k" horiz-adv-x="458" 
d="M168 0h-108l163 708h108l-93 -402l47 5l151 188h121l-191 -236l79 -263h-112l-64 221l-51 -4z" />
    <glyph glyph-name="l" unicode="l" horiz-adv-x="231" 
d="M61 0l164 708h108l-163 -708h-109z" />
    <glyph glyph-name="m" unicode="m" horiz-adv-x="775" 
d="M417 352q0 65 -53 65q-20 0 -50 -20.5t-50 -41.5l-19 -21l-77 -334h-108l115 500h104l-11 -65q3 3 7.5 8t20 18.5t32.5 23.5q42 26 83.5 26t68 -19.5t32.5 -39.5l7 -20q9 9 24.5 22t57.5 35t78 22q61 0 90 -36.5t29 -86.5t-19 -140l-57 -248h-109l58 241q18 84 18 108
q0 68 -50 68q-21 0 -50 -18t-47 -36l-18 -18q-5 -54 -16 -97l-57 -248h-108l56 241q18 84 18 111z" />
    <glyph glyph-name="n" unicode="n" horiz-adv-x="506" 
d="M410 511q61 0 90.5 -36.5t29.5 -89t-21 -136.5l-57 -249h-108l56 241q18 84 18 114t-11.5 46t-37 16t-55.5 -20.5t-50 -41.5l-19 -21l-77 -334h-108l115 500h104l-11 -66q8 9 21 21.5t50.5 34t70.5 21.5z" />
    <glyph glyph-name="o" unicode="o" horiz-adv-x="495" 
d="M337 510q187 0 187 -180q0 -86 -28 -162.5t-87.5 -127.5t-138.5 -51q-185 0 -185 178q0 86 30 163.5t89 128.5t133 51zM270 81q65 0 105.5 76t40.5 174q0 41 -20 64t-59 23q-64 0 -104 -77t-40 -175q0 -85 77 -85z" />
    <glyph glyph-name="p" unicode="p" horiz-adv-x="515" 
d="M408 511q70 0 104.5 -43t34.5 -123.5t-27.5 -161t-86.5 -137t-137 -56.5q-51 0 -107 14l-20 5l-52 -224h-107l165 715h106l-14 -68q8 9 21 22t50.5 35t69.5 22zM375 418q-21 0 -54.5 -23t-56.5 -45l-22 -23l-52 -230q61 -15 105 -15t77.5 45.5t49 104t15.5 113.5
q0 73 -62 73z" />
    <glyph glyph-name="q" unicode="q" horiz-adv-x="514" 
d="M221 -11q-67 0 -102 42.5t-35 125t28 162.5t87 135.5t136 55.5q76 0 191 -22l40 -7l-159 -694h-108l65 282q-3 -3 -7.5 -8.5t-20 -19.5t-31.5 -25q-42 -27 -84 -27zM441 404q-61 14 -104.5 14t-76.5 -43.5t-49.5 -103t-16.5 -116.5q0 -73 61 -73q22 0 55 22.5t56 45.5
l22 23z" />
    <glyph glyph-name="r" unicode="r" horiz-adv-x="326" 
d="M60 0l115 500h107l-17 -73q34 27 82.5 52.5t84.5 31.5l-31 -112q-45 -13 -129 -53l-26 -12l-78 -334h-108z" />
    <glyph glyph-name="s" unicode="s" horiz-adv-x="431" 
d="M306 418q-39 0 -61.5 -20t-22.5 -45t16 -35t59 -22.5t63 -20.5t40 -21q36 -23 36 -79q0 -91 -61 -138.5t-160 -47.5q-76 0 -145 22l-22 7l20 81q95 -18 151 -18q107 0 107 73q0 19 -16 28t-73.5 24t-90.5 40.5t-33 74.5q0 87 59 138t145 51q83 0 151 -20l22 -6l-20 -81
q-99 15 -164 15z" />
    <glyph glyph-name="t" unicode="t" horiz-adv-x="324" 
d="M217 118q0 -37 39 -37l72 6l-9 -79q-52 -19 -104.5 -19t-81 28t-28.5 71.5t15 105.5l50 213h-58l24 93h57l31 137h109l-32 -137h120l-23 -93h-119l-52 -222q-10 -42 -10 -67z" />
    <glyph glyph-name="u" unicode="u" horiz-adv-x="506" 
d="M212 -11q-61 0 -90.5 36.5t-29.5 97.5q0 37 20 128l57 249h108l-55 -241q-18 -72 -18 -111q0 -65 52 -65q21 0 51 20.5t50 41.5l20 21l77 334h108l-115 -500h-104l11 66q-8 -9 -21 -21.5t-50.5 -34t-70.5 -21.5z" />
    <glyph glyph-name="v" unicode="v" horiz-adv-x="459" 
d="M131 500h107l-5 -410h24l191 410h110l-243 -500h-180z" />
    <glyph glyph-name="w" unicode="w" horiz-adv-x="748" 
d="M139 500h109l-22 -407h21l179 397h124l-9 -397h21l169 407h110l-214 -500h-184l9 346l-152 -346h-181z" />
    <glyph glyph-name="x" unicode="x" horiz-adv-x="425" 
d="M129 500h111l51 -172l127 172h111l-202 -258l84 -242h-111l-50 167l-125 -167h-114l201 250z" />
    <glyph glyph-name="y" unicode="y" horiz-adv-x="460" 
d="M131 500h107l-5 -410h22l193 410h110l-346 -715h-109l108 215h-76z" />
    <glyph glyph-name="z" unicode="z" horiz-adv-x="416" 
d="M129 407l23 93h344l-22 -90l-291 -317h220l-24 -93h-343l19 91l290 316h-216z" />
    <glyph glyph-name="braceleft" unicode="{" horiz-adv-x="299" 
d="M188 312q62 -31 62 -84q0 -26 -23 -105.5t-23 -101.5q0 -57 71 -57l-26 -94q-72 1 -112 32t-40 88q0 25 22 106t22 100q0 51 -69 83l19 80q63 16 84 36.5t31 62.5q4 15 15.5 77t12.5 66q25 82 76.5 116.5t148.5 38.5l-18 -94q-51 -4 -75.5 -26.5t-34.5 -64.5l-23 -123
q-14 -59 -40.5 -88.5t-79.5 -47.5z" />
    <glyph glyph-name="bar" unicode="|" horiz-adv-x="325" 
d="M165 -215v923h108v-923h-108z" />
    <glyph glyph-name="braceright" unicode="}" horiz-adv-x="298" 
d="M254 311q-62 31 -62 83q0 27 23 106.5t23 101.5q0 57 -71 57l26 94q72 -1 112 -32t40 -88q0 -25 -22 -106t-22 -100q0 -51 69 -83l-19 -80q-63 -16 -84 -36.5t-31 -62.5q-4 -15 -15.5 -77t-12.5 -66q-25 -82 -76.5 -116.5t-148.5 -38.5l18 94q51 4 75.5 26.5t34.5 64.5
l23 123q14 59 40.5 88.5t79.5 47.5z" />
    <glyph glyph-name="asciitilde" unicode="~" 
d="M440.5 181q-27.5 0 -105 25.5t-96.5 25.5t-45.5 -10.5t-43.5 -21.5l-17 -10l-10 88q63 52 120 52q29 0 104 -25.5t95 -25.5q34 0 87 31l17 10l9 -87q-18 -18 -52.5 -35t-62 -17z" />
    <glyph glyph-name="uni00A0" unicode="&#xa0;" horiz-adv-x="220" 
 />
    <glyph glyph-name="exclamdown" unicode="&#xa1;" horiz-adv-x="168" 
d="M195 254l-100 -454h-114l113 454h101zM254 500l-31 -135h-110l31 135h110z" />
    <glyph glyph-name="cent" unicode="&#xa2;" 
d="M162.5 104.5q-10.5 30.5 -11.5 52t-1 40.5t10 52q26 103 83.5 157.5t138.5 59.5l25 109h88l-27 -111l79 -10l-27 -92q-76 5 -112 5q-62 0 -95 -28.5t-48 -89.5q-7 -27 -7 -50t10 -38q18 -28 87 -28l115 5l-18 -92q-46 -6 -85 -8l-26 -115h-87l24 109q-45 2 -75 22
t-40.5 50.5z" />
    <glyph glyph-name="sterling" unicode="&#xa3;" 
d="M592 575q-66 8 -99 8t-48.5 -7.5t-26.5 -26.5q-16 -29 -29 -86l-7 -30h173l-22 -93h-172l-57 -247h112l71 17l-2 -93l-76 -17h-332l21 93h96l56 247h-78l22 93h77l11 43q27 110 68.5 156.5t127.5 46.5q40 0 116 -16l23 -5z" />
    <glyph glyph-name="currency" unicode="&#xa4;" 
d="M338.5 62q-48.5 0 -91.5 24l-71 -72l-75 75l71 71q-23 43 -23 92t23 91l-71 72l75 75l71 -72q43 23 91.5 23t91.5 -23l71 72l75 -75l-72 -72q23 -42 23 -91t-23 -92l72 -71l-75 -75l-71 72q-43 -24 -91.5 -24zM338.5 162q37.5 0 63.5 26t26 64t-26 64t-63.5 26t-63.5 -26
t-26 -64t26 -64t63.5 -26z" />
    <glyph glyph-name="yen" unicode="&#xa5;" 
d="M140 291l21 95h94l-110 274h120l104 -252l201 252h144l-225 -274h93l-22 -95h-144l-11 -14l-10 -41h153l-22 -96h-153l-33 -140h-111l34 140h-159l23 96h157l10 42l-4 13h-150z" />
    <glyph glyph-name="brokenbar" unicode="&#xa6;" horiz-adv-x="327" 
d="M166 708h109v-373h-109v373zM166 164h109v-379h-109v379z" />
    <glyph glyph-name="section" unicode="&#xa7;" horiz-adv-x="480" 
d="M534 530q-102 15 -153.5 15t-82.5 -22.5t-31 -62.5q0 -20 15 -32.5t34 -18.5t39 -10t24 -5q120 -26 120 -120q0 -71 -83 -164q17 -26 17 -52.5t-4.5 -51t-20.5 -57.5t-40.5 -58.5t-71 -43.5t-90.5 -18q-72 0 -154 15l-28 5l31 91q99 -14 151.5 -14t86 25t33.5 55t-17 40
q-19 12 -91.5 31t-100.5 47.5t-28 70.5t19 79q29 55 73 87q-20 20 -20 66t15.5 80.5t44 65.5t76.5 50.5t91 19.5q68 0 146 -16l25 -5zM216 280.5q-16 -30.5 -16 -52t14.5 -31.5t49.5 -19q58 -18 81 -28q10 10 26 43t16 55t-17 34t-66.5 22.5t-60.5 18.5q-11 -12 -27 -42.5z
" />
    <glyph glyph-name="dieresis" unicode="&#xa8;" horiz-adv-x="586" 
d="M227 609l27 117h89l-27 -117h-89zM416 609l26 117h90l-28 -117h-88z" />
    <glyph glyph-name="copyright" unicode="&#xa9;" horiz-adv-x="642" 
d="M228 235.5q-77 80.5 -77 199.5t77 198.5t195 79.5t193.5 -81t75.5 -199.5t-75.5 -198t-193.5 -79.5t-195 80.5zM205 434q0 -94 61.5 -160t154 -66t154.5 65.5t62 160t-62 161t-154 66.5t-154 -66.5t-62 -160.5zM430 595q38 0 79 -13l-6 -72q-36 7 -65.5 7t-39 -17.5
t-9.5 -63t10 -65.5t36 -20l68 6l6 -69q-32 -16 -90.5 -16t-86.5 36.5t-28 125.5t29 125t97 36z" />
    <glyph glyph-name="ordfeminine" unicode="&#xaa;" horiz-adv-x="335" 
d="M294 362q-55 -29 -102.5 -29t-66.5 27q-12 18 -12 38q0 72 45 106q31 22 92 25l74 4l6 23q3 13 -6 19.5t-32 6.5l-126 -7l11 63q76 21 141 21t92 -23q19 -16 19 -40t-5 -45l-32 -140q6 -9 20 -11l-17 -68q-55 0 -73.5 7t-27.5 23zM208 428q0 -22 28 -22q23 0 53 12l10 4
l12 52l-58 -4q-37 -3 -44 -33q-1 -5 -1 -9z" />
    <glyph glyph-name="guillemotleft" unicode="&#xab;" horiz-adv-x="466" 
d="M542 424l-31 -107l-121 -75l84 -85l-27 -98l-158 161l19 50zM318 424l-31 -107l-121 -75l84 -85l-27 -98l-158 161l19 50z" />
    <glyph glyph-name="logicalnot" unicode="&#xac;" 
d="M117 351h433v-241h-98v144h-335v97z" />
    <glyph glyph-name="registered" unicode="&#xae;" horiz-adv-x="642" 
d="M228 235.5q-77 80.5 -77 199.5t76.5 198.5t195 79.5t194 -81t75.5 -199.5t-75.5 -198t-193.5 -79.5t-195 80.5zM205 434q0 -94 62.5 -160t154.5 -66t153.5 65.5t61.5 160t-62 161t-153.5 66.5t-154 -66.5t-62.5 -160.5zM385 378v-99h-80v309h125q114 0 114 -100
q0 -38 -9.5 -59.5t-33.5 -37.5l47 -112h-84l-37 99h-42zM384 527v-89h42q41 0 41 44.5t-47 44.5h-36z" />
    <glyph glyph-name="macron" unicode="&#xaf;" horiz-adv-x="452" 
d="M222 632l20 88h295l-21 -88h-294z" />
    <glyph glyph-name="degree" unicode="&#xb0;" 
d="M260 550q0 65 41 105.5t106 40.5t105.5 -40.5t40.5 -105.5t-40.5 -105t-105.5 -40t-106 40t-41 105zM325 550q0 -37 22.5 -60t59.5 -23t60.5 23t23.5 60t-23.5 60.5t-60.5 23.5t-59.5 -23.5t-22.5 -60.5z" />
    <glyph glyph-name="plusminus" unicode="&#xb1;" 
d="M101 280v98h177v115h98v-115h180v-98h-180v-112h-98v112h-177zM101 125h455v-98h-455v98z" />
    <glyph glyph-name="twosuperior" unicode="&#xb2;" horiz-adv-x="280" 
d="M216 790q70 10 120 10q81 0 81 -59q0 -83 -89 -142l-59 -42h108l-19 -79h-221l18 75l97 71q59 41 65 68q4 13 -5.5 18.5t-30.5 5.5l-82 -7z" />
    <glyph glyph-name="threesuperior" unicode="&#xb3;" horiz-adv-x="280" 
d="M215 791q66 9 116 9t69 -17.5t19 -35.5q0 -76 -55 -105q26 -12 26 -45q0 -13 -4 -30q-25 -99 -138 -99q-44 0 -98 6l-18 2l25 77q58 -6 95.5 -6t44.5 27q1 4 1 8q0 18 -30 18h-66l18 72h64q28 0 35 26q3 12 -4 17.5t-25 5.5l-89 -6z" />
    <glyph glyph-name="acute" unicode="&#xb4;" horiz-adv-x="553" 
d="M265 585l-9 86l248 92l9 -97z" />
    <glyph glyph-name="mu" unicode="&#xb5;" 
d="M233 148q0 -65 52 -65q21 0 51 20.5t50 41.5l20 21l77 334h108l-115 -500h-104l11 66q-8 -9 -21 -21.5t-50.5 -34t-68.5 -21.5t-52 9l-49 -213h-108l101 442l63 273h108l-63 -276q-10 -45 -10 -76z" />
    <glyph glyph-name="paragraph" unicode="&#xb6;" horiz-adv-x="561" 
d="M142 465q0 91 64.5 163t161.5 72h312l-21 -88h-49l-146 -612h-88l146 612h-80l-146 -612h-89l76 317q-73 1 -107 43t-34 105z" />
    <glyph glyph-name="periodcentered" unicode="&#xb7;" horiz-adv-x="159" 
d="M76 223l33 147h110l-33 -147h-110z" />
    <glyph glyph-name="cedilla" unicode="&#xb8;" horiz-adv-x="791" 
d="M383 -221q-32 0 -71 7l-11 2l17 68q33 -2 53 -2q38 0 45 29q4 16 -4.5 21t-27.5 5h-29l22 96h46l-12 -43h6q89 0 89 -61q0 -11 -3 -25q-23 -97 -120 -97z" />
    <glyph glyph-name="onesuperior" unicode="&#xb9;" horiz-adv-x="280" 
d="M195 717l121 73h81l-77 -312h-88l53 215l-65 -38z" />
    <glyph glyph-name="ordmasculine" unicode="&#xba;" horiz-adv-x="342" 
d="M321 659q47 0 82 -17.5t41 -53.5q3 -15 3 -36.5t-8 -52.5q-21 -91 -66.5 -129t-128.5 -38q-59 0 -89.5 29.5t-30.5 79.5q0 3 1 17t8 44q20 85 65.5 121t122.5 36zM229 422q10 -10 38 -10t46.5 19t28 54.5t9.5 54.5q0 42 -47 42q-31 0 -49 -17.5t-27 -54t-9 -57.5t10 -31z
" />
    <glyph glyph-name="guillemotright" unicode="&#xbb;" horiz-adv-x="477" 
d="M271 59l31 107l121 75l-84 85l27 98l158 -161l-19 -50zM38 59l31 107l121 75l-84 85l27 98l158 -161l-19 -50z" />
    <glyph glyph-name="onequarter" unicode="&#xbc;" horiz-adv-x="617" 
d="M167 717l121 73h81l-77 -312h-88l53 215l-65 -38zM207 -18l-102 36l430 695l101 -36zM502 0l10 41h-138l18 73l104 198h97l-108 -192h47l33 89h76l-22 -89h17l-19 -79h-18l-10 -41h-87z" />
    <glyph glyph-name="onehalf" unicode="&#xbd;" horiz-adv-x="634" 
d="M167 717l121 73h81l-77 -312h-88l53 215l-65 -38zM207 -18l-102 36l430 695l101 -36zM477 312q70 10 121 10q80 0 80 -59q0 -83 -89 -142l-59 -42h108l-19 -79h-221l18 75l97 71q59 41 65 68q4 13 -5.5 18.5t-30.5 5.5l-82 -7z" />
    <glyph glyph-name="threequarters" unicode="&#xbe;" horiz-adv-x="621" 
d="M202 791q66 9 116 9t69 -17.5t19 -35.5q0 -76 -55 -105q26 -12 26 -45q0 -13 -4 -30q-25 -99 -138 -99q-44 0 -98 6l-18 2l25 77q58 -6 95 -6t45 27q4 14 -3.5 20t-25.5 6h-66l18 72h64q12 0 22 7t13 19t-4 17.5t-25 5.5l-89 -6zM212 -18l-102 36l430 695l101 -36zM507 0
l10 41h-138l18 73l104 198h97l-108 -192h47l33 89h76l-22 -89h17l-19 -79h-18l-10 -41h-87z" />
    <glyph glyph-name="questiondown" unicode="&#xbf;" horiz-adv-x="421" 
d="M25 -51q0 70 32 113t125 111q60 45 68 84l9 40h102q0 -42 -7 -78q-10 -54 -97 -118q-68 -50 -92.5 -78t-24.5 -63t21 -47t57 -12q70 0 130 11l21 4l-11 -86q-89 -26 -158 -26q-175 0 -175 145zM410 500l-33 -146h-110l33 146h110z" />
    <glyph glyph-name="Agrave" unicode="&#xc0;" horiz-adv-x="552" 
d="M374 941l206 -92l-49 -84l-210 81zM423 0v143h-224l-69 -143h-112l323 685h199l-6 -685h-111zM406 588l-164 -347h184l5 347h-25z" />
    <glyph glyph-name="Aacute" unicode="&#xc1;" horiz-adv-x="552" 
d="M369 774l-9 85l248 92l10 -97zM423 0v143h-224l-69 -143h-112l323 685h199l-6 -685h-111zM406 588l-164 -347h184l5 347h-25z" />
    <glyph glyph-name="Acircumflex" unicode="&#xc2;" horiz-adv-x="552" 
d="M287 785l170 146h63l96 -146h-99l-38 66l-77 -66h-115zM423 0v143h-224l-69 -143h-112l323 685h199l-6 -685h-111zM406 588l-164 -347h184l5 347h-25z" />
    <glyph glyph-name="Atilde" unicode="&#xc3;" horiz-adv-x="552" 
d="M524 790q-25 0 -77.5 24t-65.5 24q-22 0 -72 -32l-16 -11l-3 76q67 63 111 63q31 0 82.5 -24t61.5 -24t31.5 10t37.5 20l16 11l2 -76q-63 -61 -108 -61zM423 0v143h-224l-69 -143h-112l323 685h199l-6 -685h-111zM406 588l-164 -347h184l5 347h-25z" />
    <glyph glyph-name="Adieresis" unicode="&#xc4;" horiz-adv-x="552" 
d="M322 799l27 117h90l-28 -117h-89zM516 799l27 117h90l-29 -117h-88zM423 0v143h-224l-69 -143h-112l323 685h199l-6 -685h-111zM406 588l-164 -347h184l5 347h-25z" />
    <glyph glyph-name="Aring" unicode="&#xc5;" horiz-adv-x="552" 
d="M326 694q0 16 5 33q14 55 52.5 82.5t92.5 27.5t80 -27q18 -18 18 -41q0 -61 -34 -103l-6 -666h-111v143h-224l-69 -143h-112l313 665q-5 13 -5 29zM406 588l-164 -347h184l5 347h-25zM400 720q0 -31 45 -31t54 38q1 5 1 13t-11 17t-30 9q-47 0 -58 -39q-1 -4 -1 -7z" />
    <glyph glyph-name="AE" unicode="&#xc6;" horiz-adv-x="765" 
d="M328 0l34 144h-168l-69 -144h-106l324 693h546l-23 -106l-294 2l-46 -194h237l-23 -101h-238l-45 -189h293l-23 -105h-399zM399 588l-158 -341h146l80 341h-68z" />
    <glyph glyph-name="Ccedilla" unicode="&#xc7;" horiz-adv-x="498" 
d="M305 -11h-9l-7 -27h6q89 0 89 -61q0 -11 -3 -25q-23 -97 -120 -97q-32 0 -71 7l-11 2l17 68q33 -2 53 -2q38 0 45 29q4 16 -4.5 21t-27.5 5h-29l19 84q-147 24 -147 193q0 145 50 271q27 68 66.5 120.5t99.5 85.5t133 33q67 0 144 -20l25 -7l-26 -84q-68 14 -143 14
t-129 -62t-79.5 -153t-25.5 -190q0 -108 99 -108q63 0 139 12l23 3l-8 -88q-91 -24 -168 -24z" />
    <glyph glyph-name="Egrave" unicode="&#xc8;" horiz-adv-x="500" 
d="M350 941l206 -92l-49 -84l-210 81zM70 0l158 685h393l-23 -97h-281l-44 -194h226l-23 -98h-225l-46 -199h282l-23 -97h-394z" />
    <glyph glyph-name="Eacute" unicode="&#xc9;" horiz-adv-x="500" 
d="M361 774l-9 85l248 92l10 -97zM70 0l158 685h393l-23 -97h-281l-44 -194h226l-23 -98h-225l-46 -199h282l-23 -97h-394z" />
    <glyph glyph-name="Ecircumflex" unicode="&#xca;" horiz-adv-x="500" 
d="M296 786l170 146h63l96 -146h-99l-38 66l-77 -66h-115zM70 0l158 685h393l-23 -97h-281l-44 -194h226l-23 -98h-225l-46 -199h282l-23 -97h-394z" />
    <glyph glyph-name="Edieresis" unicode="&#xcb;" horiz-adv-x="500" 
d="M306 799l27 117h90l-28 -117h-89zM500 799l27 117h90l-29 -117h-88zM70 0l158 685h393l-23 -97h-281l-44 -194h226l-23 -98h-225l-46 -199h282l-23 -97h-394z" />
    <glyph glyph-name="Igrave" unicode="&#xcc;" horiz-adv-x="252" 
d="M199 941l206 -92l-49 -84l-210 81zM70 0l159 685h111l-158 -685h-112z" />
    <glyph glyph-name="Iacute" unicode="&#xcd;" horiz-adv-x="252" 
d="M233 774l-9 85l248 92l10 -97zM70 0l159 685h111l-158 -685h-112z" />
    <glyph glyph-name="Icircumflex" unicode="&#xce;" horiz-adv-x="252" 
d="M137 786l170 146h63l96 -146h-99l-38 66l-77 -66h-115zM70 0l159 685h111l-158 -685h-112z" />
    <glyph glyph-name="Idieresis" unicode="&#xcf;" horiz-adv-x="252" 
d="M164 808l27 117h90l-28 -117h-89zM358 808l27 117h90l-29 -117h-88zM70 0l159 685h111l-158 -685h-112z" />
    <glyph glyph-name="Eth" unicode="&#xd0;" horiz-adv-x="612" 
d="M319 0h-243l67 290h-58l23 110h61l66 285h217q210 0 210 -206q0 -177 -82 -321q-40 -71 -108 -114.5t-153 -43.5zM534 359q13 63 13 120.5t-28.5 83t-88.5 25.5h-107l-43 -188h124l-25 -110h-124l-44 -193h119q54 0 98 39.5t68.5 99.5t37.5 123z" />
    <glyph glyph-name="Ntilde" unicode="&#xd1;" horiz-adv-x="642" 
d="M565 788q-25 0 -77.5 24t-65.5 24q-22 0 -72 -32l-16 -11l-3 76q67 63 111 63q31 0 82.5 -24t61.5 -24t31.5 10t37.5 20l16 11l2 -76q-63 -61 -108 -61zM70 0l159 685h183l66 -568h15l129 568h108l-158 -685h-175l-72 575h-15l-134 -575h-106z" />
    <glyph glyph-name="Ograve" unicode="&#xd2;" horiz-adv-x="620" 
d="M403 941l206 -92l-49 -84l-210 81zM247 113.5q26 -27.5 86 -27.5t102 37q56 50 88 153t32 203q0 64 -26 92t-85.5 28t-96.5 -33q-58 -53 -92 -159.5t-34 -186t26 -107zM506 48q-76 -59 -184 -59t-162 50t-54 157q0 130 40.5 247t117.5 184q77 69 188 69q218 0 218 -207
q0 -136 -41.5 -256t-122.5 -185z" />
    <glyph glyph-name="Oacute" unicode="&#xd3;" horiz-adv-x="620" 
d="M247 113.5q26 -27.5 86 -27.5t102 37q56 50 88 153t32 203q0 64 -26 92t-85.5 28t-96.5 -33q-58 -53 -92 -159.5t-34 -186t26 -107zM506 48q-76 -59 -184 -59t-162 50t-54 157q0 130 40.5 247t117.5 184q77 69 188 69q218 0 218 -207q0 -136 -41.5 -256t-122.5 -185z
M404 774l-9 85l248 92l10 -97z" />
    <glyph glyph-name="Ocircumflex" unicode="&#xd4;" horiz-adv-x="620" 
d="M247 113.5q26 -27.5 86 -27.5t102 37q56 50 88 153t32 203q0 64 -26 92t-85.5 28t-96.5 -33q-58 -53 -92 -159.5t-34 -186t26 -107zM506 48q-76 -59 -184 -59t-162 50t-54 157q0 130 40.5 247t117.5 184q77 69 188 69q218 0 218 -207q0 -136 -41.5 -256t-122.5 -185z
M326 785l170 146h63l96 -146h-99l-38 66l-77 -66h-115z" />
    <glyph glyph-name="Otilde" unicode="&#xd5;" horiz-adv-x="620" 
d="M572 788q-25 0 -77.5 24t-65.5 24q-22 0 -72 -32l-16 -11l-3 76q67 63 111 63q31 0 82.5 -24t61.5 -24t31.5 10t37.5 20l16 11l2 -76q-63 -61 -108 -61zM247 113.5q26 -27.5 86 -27.5t102 37q56 50 88 153t32 203q0 64 -26 92t-85.5 28t-96.5 -33q-58 -53 -92 -159.5
t-34 -186t26 -107zM506 48q-76 -59 -184 -59t-162 50t-54 157q0 130 40.5 247t117.5 184q77 69 188 69q218 0 218 -207q0 -136 -41.5 -256t-122.5 -185z" />
    <glyph glyph-name="Odieresis" unicode="&#xd6;" horiz-adv-x="620" 
d="M343 795l26 116h99l-28 -116h-97zM540 795l27 116h98l-28 -116h-97zM247 113.5q26 -27.5 86 -27.5t102 37q56 50 88 153t32 203q0 64 -26 92t-85.5 28t-96.5 -33q-58 -53 -92 -159.5t-34 -186t26 -107zM506 48q-76 -59 -184 -59t-162 50t-54 157q0 130 40.5 247
t117.5 184q77 69 188 69q218 0 218 -207q0 -136 -41.5 -256t-122.5 -185z" />
    <glyph glyph-name="multiply" unicode="&#xd7;" 
d="M190 467l148 -150l149 151l68 -69l-151 -149l151 -148l-69 -69l-148 151l-149 -151l-69 69l151 148l-150 148z" />
    <glyph glyph-name="Oslash" unicode="&#xd8;" horiz-adv-x="620" 
d="M106 196q0 130 40.5 247t117.5 184q77 69 188 69q72 0 121 -24l88 129l63 -26l-98 -143q44 -53 44 -143q0 -136 -41.5 -256t-122.5 -185q-76 -59 -186 -59q-70 0 -117 21l-87 -128l-56 34l90 133q-44 52 -44 147zM513 583q-26 16 -77.5 16t-88.5 -33q-58 -53 -92 -159.5
t-34 -200.5q0 -29 4 -46zM264 100q28 -14 78.5 -14t92.5 37q56 50 88 153t32 203q0 26 -4 42z" />
    <glyph glyph-name="Ugrave" unicode="&#xd9;" horiz-adv-x="594" 
d="M390 941l206 -92l-49 -84l-210 81zM227 225q-9 -40 -9 -74q0 -65 102 -65q69 0 100.5 32t48.5 104l107 463h112l-107 -463q-28 -122 -91.5 -177.5t-169.5 -55.5q-213 0 -213 150q0 42 12 102l103 444h112z" />
    <glyph glyph-name="Uacute" unicode="&#xda;" horiz-adv-x="594" 
d="M227 225q-9 -40 -9 -74q0 -65 102 -65q69 0 100.5 32t48.5 104l107 463h112l-107 -463q-28 -122 -91.5 -177.5t-169.5 -55.5q-213 0 -213 150q0 42 12 102l103 444h112zM371 774l-9 85l248 92l10 -97z" />
    <glyph glyph-name="Ucircumflex" unicode="&#xdb;" horiz-adv-x="594" 
d="M227 225q-9 -40 -9 -74q0 -65 102 -65q69 0 100.5 32t48.5 104l107 463h112l-107 -463q-28 -122 -91.5 -177.5t-169.5 -55.5q-213 0 -213 150q0 42 12 102l103 444h112zM307 785l170 146h63l96 -146h-99l-38 66l-77 -66h-115z" />
    <glyph glyph-name="Udieresis" unicode="&#xdc;" horiz-adv-x="594" 
d="M322 795l27 116h98l-27 -116h-98zM520 795l26 116h99l-28 -116h-97zM227 225q-9 -40 -9 -74q0 -65 102 -65q69 0 100.5 32t48.5 104l107 463h112l-107 -463q-28 -122 -91.5 -177.5t-169.5 -55.5q-213 0 -213 150q0 42 12 102l103 444h112z" />
    <glyph glyph-name="Yacute" unicode="&#xdd;" horiz-adv-x="499" 
d="M345 774l-9 85l248 92l10 -97zM652 685l-285 -394l-69 -291h-104l69 298l-100 387h113l62 -290l196 290h118z" />
    <glyph glyph-name="Thorn" unicode="&#xde;" horiz-adv-x="543" 
d="M348 218q110 0 143 135q6 24 6 47t-11 44q-18 35 -77 36l-121 2l-63 -264h123zM434 589q101 0 144 -67q28 -44 28 -103q0 -31 -8 -66q-24 -114 -96 -179.5t-176 -65.5h-3l-124 1l-25 -109h-105l163 693h106l-26 -104h122z" />
    <glyph glyph-name="germandbls" unicode="&#xdf;" horiz-adv-x="553" 
d="M263 676.5q55 42.5 150.5 42.5t142 -35t46.5 -94t-22 -94t-72.5 -56.5t-68.5 -34.5t-18 -30.5t12 -29.5t56.5 -40t61.5 -50t17 -69q0 -91 -56.5 -144t-155.5 -53q-58 0 -124 18l-22 6l23 81q68 -13 117.5 -13t78.5 25.5t29 65.5q0 22 -12 35t-56.5 39.5t-61 49t-16.5 66
t24 73t74.5 54t66 41t15.5 43.5q0 53 -84 53q-55 0 -84 -26.5t-43 -89.5l-120 -510h-102l123 524q26 110 81 152.5z" />
    <glyph glyph-name="agrave" unicode="&#xe0;" horiz-adv-x="516" 
d="M219 -11q-69 0 -102 44.5t-33 112t15.5 127.5t44.5 114.5t79.5 89t113.5 34.5q56 0 188 -22l42 -7l-75 -324l-27 -156l-107 -4q11 72 15 91q-47 -62 -107 -89q-24 -11 -47 -11zM443 404q-68 15 -108 15t-75 -45q-66 -83 -66 -218q0 -37 13.5 -55.5t42 -18.5t62.5 26.5
t57 53.5l23 27zM347 759l205 -92l-46 -79l-211 83z" />
    <glyph glyph-name="aacute" unicode="&#xe1;" horiz-adv-x="516" 
d="M219 -11q-69 0 -102 44.5t-33 112t15.5 127.5t44.5 114.5t79.5 89t113.5 34.5q56 0 188 -22l42 -7l-75 -324l-27 -156l-107 -4q11 72 15 91q-47 -62 -107 -89q-24 -11 -47 -11zM443 404q-68 15 -108 15t-75 -45q-66 -83 -66 -218q0 -37 13.5 -55.5t42 -18.5t62.5 26.5
t57 53.5l23 27zM338 585l-9 86l248 92l9 -97z" />
    <glyph glyph-name="acircumflex" unicode="&#xe2;" horiz-adv-x="516" 
d="M224 580l163 165h79l87 -165h-108l-34 74l-72 -74h-115zM219 -11q-69 0 -102 44.5t-33 112t15.5 127.5t44.5 114.5t79.5 89t113.5 34.5q56 0 188 -22l42 -7l-75 -324l-27 -156l-107 -4q11 72 15 91q-47 -62 -107 -89q-24 -11 -47 -11zM443 404q-68 15 -108 15t-75 -45
q-66 -83 -66 -218q0 -37 13.5 -55.5t42 -18.5t62.5 26.5t57 53.5l23 27z" />
    <glyph glyph-name="atilde" unicode="&#xe3;" horiz-adv-x="516" 
d="M219 -11q-69 0 -102 44.5t-33 112t15.5 127.5t44.5 114.5t79.5 89t113.5 34.5q56 0 188 -22l42 -7l-75 -324l-27 -156l-107 -4q11 72 15 91q-47 -62 -107 -89q-24 -11 -47 -11zM443 404q-68 15 -108 15t-75 -45q-66 -83 -66 -218q0 -37 13.5 -55.5t42 -18.5t62.5 26.5
t57 53.5l23 27zM490 600q-24 0 -70 23t-58 23q-24 0 -70 -30l-15 -11l-2 76q64 60 108 60q28 0 73.5 -22.5t55.5 -22.5q18 0 64 30l16 10l4 -77q-62 -59 -106 -59z" />
    <glyph glyph-name="adieresis" unicode="&#xe4;" horiz-adv-x="516" 
d="M252 609l27 117h99l-28 -117h-98zM450 609l26 117h99l-28 -117h-97zM219 -11q-69 0 -102 44.5t-33 112t15.5 127.5t44.5 114.5t79.5 89t113.5 34.5q56 0 188 -22l42 -7l-75 -324l-27 -156l-107 -4q11 72 15 91q-47 -62 -107 -89q-24 -11 -47 -11zM443 404q-68 15 -108 15
t-75 -45q-66 -83 -66 -218q0 -37 13.5 -55.5t42 -18.5t62.5 26.5t57 53.5l23 27z" />
    <glyph glyph-name="aring" unicode="&#xe5;" horiz-adv-x="516" 
d="M219 -11q-69 0 -102 44.5t-33 112t15.5 127.5t44.5 114.5t79.5 89t113.5 34.5q56 0 188 -22l42 -7l-75 -324l-27 -156l-107 -4q11 72 15 91q-47 -62 -107 -89q-24 -11 -47 -11zM443 404q-68 15 -108 15t-75 -45q-66 -83 -66 -218q0 -37 13.5 -55.5t42 -18.5t62.5 26.5
t57 53.5l23 27zM377.5 732.5q33.5 29.5 78 29.5t62.5 -27q12 -18 12 -37t-3 -34q-8 -50 -42.5 -79.5t-80.5 -29.5t-64 29q-11 17 -11 37t5 38q10 44 43.5 73.5zM411.5 684q-12.5 -10 -15.5 -20t-3 -17t6.5 -16.5t22 -9.5t28.5 11q18 15 18 30q0 32 -28 32q-16 0 -28.5 -10z
" />
    <glyph glyph-name="ae" unicode="&#xe6;" horiz-adv-x="729" 
d="M448 157q0 -69 77 -69q72 0 145 6l28 3l-19 -85q-95 -23 -188.5 -23t-129.5 51q-36 -16 -97 -33.5t-97 -17.5q-63 0 -91 49q-20 32 -20 61t5 50q27 126 162 148q72 12 145 12q9 28 9 52q0 47 -43 47q-71 0 -152 -10l-29 -3l17 97q121 18 192 18q87 0 112 -55
q56 55 147 55q150 0 150 -144q0 -46 -14 -91l-19 -72l-285 2q-5 -30 -5 -48zM164 131q0 -48 40 -48q47 0 134 24q-2 12 -2 38.5t13 80.5q-64 -4 -104 -9q-65 -7 -78 -65q-3 -11 -3 -21zM659 287q9 32 9 49t-1 25q-5 55 -70 55q-51 0 -80 -31.5t-45 -95.5z" />
    <glyph glyph-name="ccedilla" unicode="&#xe7;" horiz-adv-x="408" 
d="M349 511q57 0 119 -19l20 -7l-28 -80q-72 12 -115 12q-71 0 -109 -72.5t-38 -167t87 -94.5q43 0 91 8l18 3l-8 -82q-66 -21 -131 -23l-7 -27h6q89 0 89 -61q0 -11 -3 -25q-23 -97 -120 -97q-32 0 -71 7l-11 2l17 68q33 -2 53 -2q38 0 45 29q4 16 -4.5 21t-27.5 5h-29
l19 83q-59 9 -91.5 50.5t-32.5 110.5q0 154 68 256t194 102z" />
    <glyph glyph-name="egrave" unicode="&#xe8;" horiz-adv-x="470" 
d="M217 101q23 -19 57 -19q72 0 142 12l26 5l-11 -82q-91 -28 -184 -28q-162 0 -162 162q0 142 63 245q32 52 86 83t123 31q164 0 164 -137q0 -92 -65.5 -128t-213.5 -36h-42q-6 -22 -6 -55.5t23 -52.5zM260 291q84 0 119 18t35 63q0 50 -62 50q-104 0 -139 -131h47z
M260 759l205 -92l-46 -79l-211 83z" />
    <glyph glyph-name="eacute" unicode="&#xe9;" horiz-adv-x="470" 
d="M217 101q23 -19 57 -19q72 0 142 12l26 5l-11 -82q-91 -28 -184 -28q-162 0 -162 162q0 142 63 245q32 52 86 83t123 31q164 0 164 -137q0 -92 -65.5 -128t-213.5 -36h-42q-6 -22 -6 -55.5t23 -52.5zM260 291q84 0 119 18t35 63q0 50 -62 50q-104 0 -139 -131h47z
M290 585l-9 86l248 92l9 -97z" />
    <glyph glyph-name="ecircumflex" unicode="&#xea;" horiz-adv-x="470" 
d="M200 580l162 165h80l86 -165h-107l-35 74l-71 -74h-115zM217 101q23 -19 57 -19q72 0 142 12l26 5l-11 -82q-91 -28 -184 -28q-162 0 -162 162q0 142 63 245q32 52 86 83t123 31q164 0 164 -137q0 -92 -65.5 -128t-213.5 -36h-42q-6 -22 -6 -55.5t23 -52.5zM260 291
q84 0 119 18t35 63q0 50 -62 50q-104 0 -139 -131h47z" />
    <glyph glyph-name="edieresis" unicode="&#xeb;" horiz-adv-x="470" 
d="M229 609l27 117h98l-27 -117h-98zM427 609l26 117h99l-28 -117h-97zM217 101q23 -19 57 -19q72 0 142 12l26 5l-11 -82q-91 -28 -184 -28q-162 0 -162 162q0 142 63 245q32 52 86 83t123 31q164 0 164 -137q0 -92 -65.5 -128t-213.5 -36h-42q-6 -22 -6 -55.5t23 -52.5z
M260 291q84 0 119 18t35 63q0 50 -62 50q-104 0 -139 -131h47z" />
    <glyph glyph-name="igrave" unicode="&#xec;" horiz-adv-x="227" 
d="M60 0l115 500h108l-115 -500h-108zM126 759l205 -92l-46 -79l-211 83z" />
    <glyph glyph-name="iacute" unicode="&#xed;" horiz-adv-x="227" 
d="M60 0l115 500h108l-115 -500h-108zM187 585l-9 86l248 92l9 -97z" />
    <glyph glyph-name="icircumflex" unicode="&#xee;" horiz-adv-x="227" 
d="M75 580l163 165h79l87 -165h-108l-34 74l-72 -74h-115zM60 0l115 500h108l-115 -500h-108z" />
    <glyph glyph-name="idieresis" unicode="&#xef;" horiz-adv-x="227" 
d="M95 609l27 117h98l-27 -117h-98zM293 609l26 117h99l-28 -117h-97zM60 0l115 500h108l-115 -500h-108z" />
    <glyph glyph-name="eth" unicode="&#xf0;" horiz-adv-x="523" 
d="M578 451q0 -45 -13 -96q-46 -190 -119 -277t-198 -87q-99 0 -142 61q-30 42 -30 97q0 24 6 50q18 105 88 170.5t169 65.5q60 0 111 -21l17 -7q3 16 3 31q0 82 -86 126l-108 -72l-38 60l64 42q-49 13 -77 19l37 95q96 -11 156 -36l101 68l36 -61l-67 -45q90 -66 90 -183z
M323 336q-50 0 -86 -38.5t-44 -97.5q-3 -18 -3 -32q0 -73 83 -73q120 0 172 213q-9 9 -50.5 18.5t-71.5 9.5z" />
    <glyph glyph-name="ntilde" unicode="&#xf1;" horiz-adv-x="506" 
d="M369.5 417q-25.5 0 -60.5 -25t-64 -58l-77 -334h-108l115 500h104l-11 -66l19 19q19 19 54.5 38.5t68.5 19.5q61 0 90.5 -36.5t29.5 -89t-21 -136.5l-57 -249h-108l56 241q18 84 18 114t-11.5 46t-37 16zM465 600q-24 0 -70 23t-58 23q-24 0 -69 -30l-16 -11l-2 76
q64 60 108 60q28 0 73 -22.5t55 -22.5q19 0 66 30l15 10l4 -77q-62 -59 -106 -59z" />
    <glyph glyph-name="ograve" unicode="&#xf2;" horiz-adv-x="495" 
d="M337 510q187 0 187 -180q0 -86 -28 -162.5t-87.5 -127.5t-138.5 -51q-185 0 -185 178q0 86 30 163.5t89 128.5t133 51zM270 81q65 0 105.5 76t40.5 174q0 41 -20 64t-59 23q-64 0 -104 -77t-40 -175q0 -85 77 -85zM289 759l205 -92l-46 -79l-211 83z" />
    <glyph glyph-name="oacute" unicode="&#xf3;" horiz-adv-x="495" 
d="M337 510q187 0 187 -180q0 -86 -28 -162.5t-87.5 -127.5t-138.5 -51q-185 0 -185 178q0 86 30 163.5t89 128.5t133 51zM270 81q65 0 105.5 76t40.5 174q0 41 -20 64t-59 23q-64 0 -104 -77t-40 -175q0 -85 77 -85zM291 585l-9 86l248 92l9 -97z" />
    <glyph glyph-name="ocircumflex" unicode="&#xf4;" horiz-adv-x="495" 
d="M215 580l163 165h79l87 -165h-108l-34 74l-72 -74h-115zM337 510q187 0 187 -180q0 -86 -28 -162.5t-87.5 -127.5t-138.5 -51q-185 0 -185 178q0 86 30 163.5t89 128.5t133 51zM270 81q65 0 105.5 76t40.5 174q0 41 -20 64t-59 23q-64 0 -104 -77t-40 -175q0 -85 77 -85z
" />
    <glyph glyph-name="otilde" unicode="&#xf5;" horiz-adv-x="495" 
d="M337 510q187 0 187 -180q0 -86 -28 -162.5t-87.5 -127.5t-138.5 -51q-185 0 -185 178q0 86 30 163.5t89 128.5t133 51zM270 81q65 0 105.5 76t40.5 174q0 41 -20 64t-59 23q-64 0 -104 -77t-40 -175q0 -85 77 -85zM444 600q-24 0 -70 23t-58 23q-24 0 -70 -30l-15 -11
l-2 76q64 60 108 60q27 0 73 -22.5t56 -22.5q18 0 64 30l16 10l4 -77q-62 -59 -106 -59z" />
    <glyph glyph-name="odieresis" unicode="&#xf6;" horiz-adv-x="495" 
d="M337 510q187 0 187 -180q0 -86 -28 -162.5t-87.5 -127.5t-138.5 -51q-185 0 -185 178q0 86 30 163.5t89 128.5t133 51zM270 81q65 0 105.5 76t40.5 174q0 41 -20 64t-59 23q-64 0 -104 -77t-40 -175q0 -85 77 -85zM243 609l27 117h89l-27 -117h-89zM432 609l26 117h90
l-28 -117h-88z" />
    <glyph glyph-name="divide" unicode="&#xf7;" 
d="M163 241v110h68v77h213v-77h69v-110h-350zM283 23v118h108v-118h-108z" />
    <glyph glyph-name="oslash" unicode="&#xf8;" horiz-adv-x="495" 
d="M338 512q45 0 86 -13l65 106l59 -26l-71 -111q48 -46 48 -134t-28 -164.5t-87.5 -127.5t-138.5 -51q-49 0 -85 12l-69 -112l-59 26l75 117q-47 44 -47 132.5t30 166t89 128.5t133 51zM271 83q65 0 105.5 76t40.5 174q0 17 -5 34l-83 -130l-91 -149q15 -5 33 -5zM338 420
q-64 0 -104 -77t-40 -175q0 -20 4 -33l81 128l93 151q-15 6 -34 6z" />
    <glyph glyph-name="ugrave" unicode="&#xf9;" horiz-adv-x="506" 
d="M292 759l205 -92l-46 -79l-211 83zM212 -11q-61 0 -90.5 36.5t-29.5 97.5q0 37 20 128l57 249h108l-55 -241q-18 -72 -18 -111q0 -65 52 -65q21 0 51 20.5t50 41.5l20 21l77 334h108l-115 -500h-104l11 66q-8 -9 -21 -21.5t-50.5 -34t-70.5 -21.5z" />
    <glyph glyph-name="uacute" unicode="&#xfa;" horiz-adv-x="506" 
d="M212 -11q-61 0 -90.5 36.5t-29.5 97.5q0 37 20 128l57 249h108l-55 -241q-18 -72 -18 -111q0 -65 52 -65q21 0 51 20.5t50 41.5l20 21l77 334h108l-115 -500h-104l11 66q-8 -9 -21 -21.5t-50.5 -34t-70.5 -21.5zM298 585l-9 86l248 92l9 -97z" />
    <glyph glyph-name="ucircumflex" unicode="&#xfb;" horiz-adv-x="506" 
d="M207 580l162 165h80l86 -165h-107l-35 74l-71 -74h-115zM212 -11q-61 0 -90.5 36.5t-29.5 97.5q0 37 20 128l57 249h108l-55 -241q-18 -72 -18 -111q0 -65 52 -65q21 0 51 20.5t50 41.5l20 21l77 334h108l-115 -500h-104l11 66q-8 -9 -21 -21.5t-50.5 -34t-70.5 -21.5z
" />
    <glyph glyph-name="udieresis" unicode="&#xfc;" horiz-adv-x="506" 
d="M230 609l27 117h98l-27 -117h-98zM428 609l26 117h98l-27 -117h-97zM212 -11q-61 0 -90.5 36.5t-29.5 97.5q0 37 20 128l57 249h108l-55 -241q-18 -72 -18 -111q0 -65 52 -65q21 0 51 20.5t50 41.5l20 21l77 334h108l-115 -500h-104l11 66q-8 -9 -21 -21.5t-50.5 -34
t-70.5 -21.5z" />
    <glyph glyph-name="yacute" unicode="&#xfd;" horiz-adv-x="460" 
d="M131 500h107l-5 -410h22l193 410h110l-346 -715h-109l108 215h-76zM280 585l-9 86l248 92l9 -97z" />
    <glyph glyph-name="thorn" unicode="&#xfe;" horiz-adv-x="490" 
d="M270 461q61 49 117 49t89 -24t41.5 -60t8.5 -57t-1 -45.5t-13 -67.5q-39 -146 -101.5 -206.5t-169.5 -60.5q-34 0 -58 3t-24 4l-49 -209h-102l217 919h102zM404.5 384q-14.5 26 -49.5 26q-20 0 -48 -12.5t-45 -23.5l-17 -12l-63 -268l79 -8q56 0 90 42.5t57 128.5
q11 40 11 70.5t-14.5 56.5z" />
    <glyph glyph-name="ydieresis" unicode="&#xff;" horiz-adv-x="460" 
d="M211 609l27 117h98l-27 -117h-98zM409 609l26 117h98l-27 -117h-97zM131 500h107l-5 -410h22l193 410h110l-346 -715h-109l108 215h-76z" />
    <glyph glyph-name="Amacron" unicode="&#x100;" horiz-adv-x="552" 
d="M299 817l20 87h313l-21 -87h-312zM423 0v143h-224l-69 -143h-112l323 685h199l-6 -685h-111zM406 588l-164 -347h184l5 347h-25z" />
    <glyph glyph-name="amacron" unicode="&#x101;" horiz-adv-x="516" 
d="M219 -11q-69 0 -102 44.5t-33 112t15.5 127.5t44.5 114.5t79.5 89t113.5 34.5q56 0 188 -22l42 -7l-75 -324l-27 -156l-107 -4q11 72 15 91q-47 -62 -107 -89q-24 -11 -47 -11zM443 404q-68 15 -108 15t-75 -45q-66 -83 -66 -218q0 -37 13.5 -55.5t42 -18.5t62.5 26.5
t57 53.5l23 27zM280 632l20 88h295l-21 -88h-294z" />
    <glyph glyph-name="Abreve" unicode="&#x102;" horiz-adv-x="552" 
d="M431 913q0 -39 46 -39q24 0 42.5 14t26.5 37h98q-44 -137 -185 -137q-70 0 -98.5 31t-28.5 76q0 14 2 30h98q-1 -7 -1 -12zM423 0v143h-224l-69 -143h-112l323 685h199l-6 -685h-111zM406 588l-164 -347h184l5 347h-25z" />
    <glyph glyph-name="abreve" unicode="&#x103;" horiz-adv-x="516" 
d="M219 -11q-69 0 -102 44.5t-33 112t15.5 127.5t44.5 114.5t79.5 89t113.5 34.5q56 0 188 -22l42 -7l-75 -324l-27 -156l-107 -4q11 72 15 91q-47 -62 -107 -89q-24 -11 -47 -11zM443 404q-68 15 -108 15t-75 -45q-66 -83 -66 -218q0 -37 13.5 -55.5t42 -18.5t62.5 26.5
t57 53.5l23 27zM391 739q-1 -7 -1 -18.5t10 -25.5t41 -14q59 0 78 58h97q-48 -148 -202 -148q-71 0 -101 39q-22 28 -22 73q0 17 3 36h97z" />
    <glyph glyph-name="Aogonek" unicode="&#x104;" horiz-adv-x="552" 
d="M534 0h-6q-25 -18 -50.5 -48.5t-25.5 -48t18 -17.5l42 4l-11 -90q-51 -10 -88 -10t-57.5 18.5t-20.5 52.5t28.5 72t64.5 67h-5v143h-224l-69 -143h-112l323 685h199l-6 -681v-4zM406 588l-164 -347h184l5 347h-25z" />
    <glyph glyph-name="aogonek" unicode="&#x105;" horiz-adv-x="516" 
d="M339 -210q-37 0 -57.5 18.5t-20.5 53.5t30 74t67 68q0 10 15 85q-47 -62 -107 -89q-24 -11 -47 -11q-69 0 -102 44.5t-33 112t15.5 127.5t44.5 114.5t79.5 89t113.5 34.5q56 0 188 -22l42 -7l-75 -324l-27 -156l-9 -1q-24 -16 -51 -47.5t-27 -49.5t18 -18l42 4l-11 -90
q-51 -10 -88 -10zM443 404q-68 15 -108 15t-75 -45q-66 -83 -66 -218q0 -37 13.5 -55.5t42 -18.5t62.5 26.5t57 53.5l23 27z" />
    <glyph glyph-name="Cacute" unicode="&#x106;" horiz-adv-x="498" 
d="M305 -11q-200 0 -200 197q0 145 50 271q27 68 66.5 120.5t99.5 85.5t133 33q67 0 144 -20l25 -7l-26 -84q-68 14 -143 14t-129 -62t-79.5 -153t-25.5 -190q0 -108 99 -108q63 0 139 12l23 3l-8 -88q-91 -24 -168 -24zM395 774l-9 85l248 92l10 -97z" />
    <glyph glyph-name="cacute" unicode="&#x107;" horiz-adv-x="407" 
d="M348 511q57 0 118 -19l21 -7l-28 -80q-72 12 -115 12q-71 0 -109 -72.5t-38 -167t87 -94.5q43 0 91 8l18 3l-8 -82q-71 -23 -142.5 -23t-114 43t-42.5 121q0 154 68 256t194 102zM280 585l-9 86l248 92l9 -97z" />
    <glyph glyph-name="Ccircumflex" unicode="&#x108;" horiz-adv-x="498" 
d="M305 -11q-200 0 -200 197q0 145 50 271q27 68 66.5 120.5t99.5 85.5t133 33q67 0 144 -20l25 -7l-26 -84q-68 14 -143 14t-129 -62t-79.5 -153t-25.5 -190q0 -108 99 -108q63 0 139 12l23 3l-8 -88q-91 -24 -168 -24zM311 785l170 146h63l96 -146h-99l-38 66l-77 -66
h-115z" />
    <glyph glyph-name="ccircumflex" unicode="&#x109;" horiz-adv-x="407" 
d="M348 511q57 0 118 -19l21 -7l-28 -80q-72 12 -115 12q-71 0 -109 -72.5t-38 -167t87 -94.5q43 0 91 8l18 3l-8 -82q-71 -23 -142.5 -23t-114 43t-42.5 121q0 154 68 256t194 102zM209 580l162 165h63l86 -165h-99l-35 74l-71 -74h-106z" />
    <glyph glyph-name="Cdotaccent" unicode="&#x10a;" horiz-adv-x="498" 
d="M305 -11q-200 0 -200 197q0 145 50 271q27 68 66.5 120.5t99.5 85.5t133 33q67 0 144 -20l25 -7l-26 -84q-68 14 -143 14t-129 -62t-79.5 -153t-25.5 -190q0 -108 99 -108q63 0 139 12l23 3l-8 -88q-91 -24 -168 -24zM424 780l27 118h95l-28 -118h-94z" />
    <glyph glyph-name="cdotaccent" unicode="&#x10b;" horiz-adv-x="407" 
d="M348 511q57 0 118 -19l21 -7l-28 -80q-72 12 -115 12q-71 0 -109 -72.5t-38 -167t87 -94.5q43 0 91 8l18 3l-8 -82q-71 -23 -142.5 -23t-114 43t-42.5 121q0 154 68 256t194 102zM315 592l27 116h93l-27 -116h-93z" />
    <glyph glyph-name="Ccaron" unicode="&#x10c;" horiz-adv-x="498" 
d="M305 -11q-200 0 -200 197q0 145 50 271q27 68 66.5 120.5t99.5 85.5t133 33q67 0 144 -20l25 -7l-26 -84q-68 14 -143 14t-129 -62t-79.5 -153t-25.5 -190q0 -108 99 -108q63 0 139 12l23 3l-8 -88q-91 -24 -168 -24zM672 928l-158 -145h-73l-95 145h107l42 -68l70 68
h107z" />
    <glyph glyph-name="ccaron" unicode="&#x10d;" horiz-adv-x="407" 
d="M404 580h-67l-83 165h99l39 -76l69 76h106zM348 511q57 0 118 -19l21 -7l-28 -80q-72 12 -115 12q-71 0 -109 -72.5t-38 -167t87 -94.5q43 0 91 8l18 3l-8 -82q-71 -23 -142.5 -23t-114 43t-42.5 121q0 154 68 256t194 102z" />
    <glyph glyph-name="Dcaron" unicode="&#x10e;" horiz-adv-x="606" 
d="M313 0h-243l159 685h217q210 0 210 -206q0 -177 -82 -321q-40 -71 -108 -114.5t-153 -43.5zM512.5 562.5q-28.5 25.5 -88.5 25.5h-107l-112 -491h119q54 0 98 39.5t68.5 99.5t37.5 123t13 120.5t-28.5 83zM638 928l-158 -145h-73l-95 145h107l42 -68l70 68h107z" />
    <glyph glyph-name="dcaron" unicode="&#x10f;" horiz-adv-x="600" 
d="M768 685l-58 -243h-99l59 243h98zM220 -11q-67 0 -101.5 42t-34.5 125t27.5 162.5t86.5 135.5t137 56q39 0 105 -14l21 -5l50 217h109l-164 -708h-105l13 68q-7 -9 -20 -22t-51 -35t-73 -22zM441 404q-61 14 -105 14t-77.5 -45t-49 -104.5t-15.5 -115.5q0 -72 61 -72
q22 0 55.5 23t55.5 46l22 23z" />
    <glyph glyph-name="Dcroat" unicode="&#x110;" horiz-adv-x="612" 
d="M319 0h-243l67 290h-59l23 110h62l66 285h217q210 0 210 -206q0 -177 -82 -321q-40 -71 -108 -114.5t-153 -43.5zM534 359q13 63 13 120.5t-28.5 83t-88.5 25.5h-107l-43 -188h123l-24 -110h-124l-44 -193h119q54 0 98 39.5t68.5 99.5t37.5 123z" />
    <glyph glyph-name="dcroat" unicode="&#x111;" horiz-adv-x="516" 
d="M220 -11q-67 0 -101.5 42t-34.5 125t27.5 162.5t86.5 135.5t137 56q39 0 105 -14l21 -5l17 74h-131l22 98h131l11 45h109l-11 -45h55l-23 -98h-54l-131 -565h-105l13 68q-7 -9 -20 -22t-51 -35t-73 -22zM441 404q-61 14 -105 14t-77.5 -45t-49 -104.5t-15.5 -115.5
q0 -72 61 -72q22 0 55.5 23t55.5 46l22 23z" />
    <glyph glyph-name="Emacron" unicode="&#x112;" horiz-adv-x="500" 
d="M289 814l20 87h313l-21 -87h-312zM70 0l158 685h393l-23 -97h-281l-44 -194h226l-23 -98h-225l-46 -199h282l-23 -97h-394z" />
    <glyph glyph-name="emacron" unicode="&#x113;" horiz-adv-x="470" 
d="M217 101q23 -19 57 -19q72 0 142 12l26 5l-11 -82q-91 -28 -184 -28q-162 0 -162 162q0 142 63 245q32 52 86 83t123 31q164 0 164 -137q0 -92 -65.5 -128t-213.5 -36h-42q-6 -22 -6 -55.5t23 -52.5zM260 291q84 0 119 18t35 63q0 50 -62 50q-104 0 -139 -131h47z
M234 632l20 88h295l-21 -88h-294z" />
    <glyph glyph-name="Ebreve" unicode="&#x114;" horiz-adv-x="500" 
d="M409 913q0 -39 46 -39q24 0 42.5 14t26.5 37h98q-44 -137 -185 -137q-70 0 -98.5 31t-28.5 76q0 14 2 30h98q-1 -7 -1 -12zM70 0l158 685h393l-23 -97h-281l-44 -194h226l-23 -98h-225l-46 -199h282l-23 -97h-394z" />
    <glyph glyph-name="ebreve" unicode="&#x115;" horiz-adv-x="470" 
d="M217 101q23 -19 57 -19q72 0 142 12l26 5l-11 -82q-91 -28 -184 -28q-162 0 -162 162q0 142 63 245q32 52 86 83t123 31q164 0 164 -137q0 -92 -65.5 -128t-213.5 -36h-42q-6 -22 -6 -55.5t23 -52.5zM260 291q84 0 119 18t35 63q0 50 -62 50q-104 0 -139 -131h47z
M353 739q-1 -7 -1 -18.5t10 -25.5t41 -14q59 0 78 58h97q-48 -148 -202 -148q-71 0 -101 39q-22 28 -22 73q0 17 3 36h97z" />
    <glyph glyph-name="Edotaccent" unicode="&#x116;" horiz-adv-x="500" 
d="M389 796l27 118h95l-28 -118h-94zM70 0l158 685h393l-23 -97h-281l-44 -194h226l-23 -98h-225l-46 -199h282l-23 -97h-394z" />
    <glyph glyph-name="edotaccent" unicode="&#x117;" horiz-adv-x="470" 
d="M217 101q23 -19 57 -19q72 0 142 12l26 5l-11 -82q-91 -28 -184 -28q-162 0 -162 162q0 142 63 245q32 52 86 83t123 31q164 0 164 -137q0 -92 -65.5 -128t-213.5 -36h-42q-6 -22 -6 -55.5t23 -52.5zM260 291q84 0 119 18t35 63q0 50 -62 50q-104 0 -139 -131h47z
M320 592l27 116h93l-27 -116h-93z" />
    <glyph glyph-name="Eogonek" unicode="&#x118;" horiz-adv-x="500" 
d="M398.5 -48.5q-25.5 -30.5 -25.5 -48t18 -17.5l42 4l-11 -90q-51 -10 -88 -10t-57.5 18.5t-20.5 52.5t28.5 72t64.5 67h-279l158 685h393l-23 -97h-281l-44 -194h226l-23 -98h-225l-46 -199h282l-23 -97h-15q-25 -18 -50.5 -48.5z" />
    <glyph glyph-name="eogonek" unicode="&#x119;" horiz-adv-x="470" 
d="M309 -190q-37 0 -57.5 18.5t-20.5 52.5q0 49 61 110q-30 -2 -45 -2q-162 0 -162 162q0 142 63 245q32 52 86 83t123 31q164 0 164 -137q0 -92 -65.5 -128t-213.5 -36h-42q-6 -22 -6 -55.5t23 -52.5t57 -19q72 0 142 12l26 5l-11 -82q-7 -2 -16 -5q-25 -20 -46 -46.5
t-21 -43t18 -16.5l42 4l-11 -90q-51 -10 -88 -10zM260 291q84 0 119 18t35 63q0 50 -62 50q-104 0 -139 -131h47z" />
    <glyph glyph-name="Ecaron" unicode="&#x11a;" horiz-adv-x="500" 
d="M631 941l-158 -145h-73l-95 145h107l42 -68l70 68h107zM70 0l158 685h393l-23 -97h-281l-44 -194h226l-23 -98h-225l-46 -199h282l-23 -97h-394z" />
    <glyph glyph-name="ecaron" unicode="&#x11b;" horiz-adv-x="470" 
d="M217 101q23 -19 57 -19q72 0 142 12l26 5l-11 -82q-91 -28 -184 -28q-162 0 -162 162q0 142 63 245q32 52 86 83t123 31q164 0 164 -137q0 -92 -65.5 -128t-213.5 -36h-42q-6 -22 -6 -55.5t23 -52.5zM260 291q84 0 119 18t35 63q0 50 -62 50q-104 0 -139 -131h47z
M405 580h-67l-83 165h99l39 -76l69 76h106z" />
    <glyph glyph-name="Gcircumflex" unicode="&#x11c;" horiz-adv-x="570" 
d="M317 765l162 165h80l86 -165h-107l-35 74l-71 -74h-115zM325 -11q-218 0 -218 206q0 159 55 285q61 136 172 188q61 28 120 28q107 0 190 -27l27 -9l-26 -81q-100 20 -189 20q-60 0 -106.5 -39t-73.5 -101q-54 -124 -54 -265q0 -108 116 -108q40 0 76 8l12 2l42 181h-81
l22 93h192l-83 -355q-76 -26 -193 -26z" />
    <glyph glyph-name="gcircumflex" unicode="&#x11d;" horiz-adv-x="477" 
d="M392 -178q-66 -54 -170 -54q-209 0 -209 134q0 49 35 82t91 61q-18 18 -18 43.5t14.5 49.5t28.5 38l15 14q-69 37 -69 121t56 142t149 58q40 0 93 -13l17 -4l147 6l-21 -89h-71q9 -23 9 -59q0 -76 -58 -133t-152 -57l-38 5q-22 -29 -22 -46t18.5 -23.5t81.5 -15t101 -36
t38 -86.5q0 -84 -66 -138zM136.5 -25q-23.5 -24 -23.5 -51t24.5 -46t79.5 -19t96.5 22t41.5 67q0 24 -18 33.5t-74.5 18t-74.5 13.5q-28 -14 -51.5 -38zM287 251q46 0 74 32t28 71q0 68 -79 68q-44 0 -71.5 -31.5t-27.5 -72.5q0 -67 76 -67zM194 580l162 165h63l86 -165h-99
l-35 74l-71 -74h-106z" />
    <glyph glyph-name="Gbreve" unicode="&#x11e;" horiz-adv-x="570" 
d="M510 867q59 0 78 58h105q-22 -72 -76 -114.5t-125.5 -42.5t-104.5 32q-35 34 -35 93q0 15 2 32h106q-1 -3 -1 -16q2 -42 51 -42zM325 -11q-218 0 -218 206q0 159 55 285q61 136 172 188q61 28 120 28q107 0 190 -27l27 -9l-26 -81q-100 20 -189 20q-60 0 -106.5 -39
t-73.5 -101q-54 -124 -54 -265q0 -108 116 -108q40 0 76 8l12 2l42 181h-81l22 93h192l-83 -355q-76 -26 -193 -26z" />
    <glyph glyph-name="gbreve" unicode="&#x11f;" horiz-adv-x="477" 
d="M392 -178q-66 -54 -170 -54q-209 0 -209 134q0 49 35 82t91 61q-18 18 -18 43.5t14.5 49.5t28.5 38l15 14q-69 37 -69 121t56 142t149 58q40 0 93 -13l17 -4l147 6l-21 -89h-71q9 -23 9 -59q0 -76 -58 -133t-152 -57l-38 5q-22 -29 -22 -46t18.5 -23.5t81.5 -15t101 -36
t38 -86.5q0 -84 -66 -138zM136.5 -25q-23.5 -24 -23.5 -51t24.5 -46t79.5 -19t96.5 22t41.5 67q0 24 -18 33.5t-74.5 18t-74.5 13.5q-28 -14 -51.5 -38zM287 251q46 0 74 32t28 71q0 68 -79 68q-44 0 -71.5 -31.5t-27.5 -72.5q0 -67 76 -67zM339 739q-1 -7 -1 -18.5
t10 -25.5t41 -14q59 0 78 58h97q-48 -148 -202 -148q-71 0 -101 39q-22 28 -22 73q0 17 3 36h97z" />
    <glyph glyph-name="Gdotaccent" unicode="&#x120;" horiz-adv-x="570" 
d="M439 760l27 117h102l-27 -117h-102zM325 -11q-218 0 -218 206q0 159 55 285q61 136 172 188q61 28 120 28q107 0 190 -27l27 -9l-26 -81q-100 20 -189 20q-60 0 -106.5 -39t-73.5 -101q-54 -124 -54 -265q0 -108 116 -108q40 0 76 8l12 2l42 181h-81l22 93h192l-83 -355
q-76 -26 -193 -26z" />
    <glyph glyph-name="gdotaccent" unicode="&#x121;" horiz-adv-x="477" 
d="M392 -178q-66 -54 -170 -54q-209 0 -209 134q0 49 35 82t91 61q-18 18 -18 43.5t14.5 49.5t28.5 38l15 14q-69 37 -69 121t56 142t149 58q40 0 93 -13l17 -4l147 6l-21 -89h-71q9 -23 9 -59q0 -76 -58 -133t-152 -57l-38 5q-22 -29 -22 -46t18.5 -23.5t81.5 -15t101 -36
t38 -86.5q0 -84 -66 -138zM136.5 -25q-23.5 -24 -23.5 -51t24.5 -46t79.5 -19t96.5 22t41.5 67q0 24 -18 33.5t-74.5 18t-74.5 13.5q-28 -14 -51.5 -38zM287 251q46 0 74 32t28 71q0 68 -79 68q-44 0 -71.5 -31.5t-27.5 -72.5q0 -67 76 -67zM307 592l27 116h93l-27 -116h-93
z" />
    <glyph glyph-name="Gcommaaccent" unicode="&#x122;" horiz-adv-x="570" 
d="M325 -11q-218 0 -218 206q0 159 55 285q61 136 172 188q61 28 120 28q107 0 190 -27l27 -9l-26 -81q-100 20 -189 20q-60 0 -106.5 -39t-73.5 -101q-54 -124 -54 -265q0 -108 116 -108q40 0 76 8l12 2l42 181h-81l22 93h192l-83 -355q-76 -26 -193 -26zM244 -72h99
l-102 -226h-90z" />
    <glyph glyph-name="gcommaaccent" unicode="&#x123;" horiz-adv-x="477" 
d="M400 805h91l-93 -224h-100zM392 -178q-66 -54 -170 -54q-209 0 -209 134q0 49 35 82t91 61q-18 18 -18 43.5t14.5 49.5t28.5 38l15 14q-69 37 -69 121t56 142t149 58q40 0 93 -13l17 -4l147 6l-21 -89h-71q9 -23 9 -59q0 -76 -58 -133t-152 -57l-38 5q-22 -29 -22 -46
t18.5 -23.5t81.5 -15t101 -36t38 -86.5q0 -84 -66 -138zM136.5 -25q-23.5 -24 -23.5 -51t24.5 -46t79.5 -19t96.5 22t41.5 67q0 24 -18 33.5t-74.5 18t-74.5 13.5q-28 -14 -51.5 -38zM287 251q46 0 74 32t28 71q0 68 -79 68q-44 0 -71.5 -31.5t-27.5 -72.5q0 -67 76 -67z
" />
    <glyph glyph-name="Hcircumflex" unicode="&#x124;" horiz-adv-x="622" 
d="M440 0l68 300h-257l-69 -300h-112l159 685h111l-66 -288h257l67 288h111l-158 -685h-111zM320 785l170 146h63l96 -146h-99l-38 66l-77 -66h-115z" />
    <glyph glyph-name="hcircumflex" unicode="&#x125;" horiz-adv-x="507" 
d="M410 511q61 0 90.5 -36.5t29.5 -88t-21 -138.5l-57 -248h-108l56 241q18 72 18 108t-11.5 52t-36 16t-55 -20.5t-50.5 -41.5l-20 -21l-77 -334h-108l163 708h108l-62 -273q8 9 21 21.5t50 33.5t70 21zM281 755l170 146h63l96 -146h-99l-38 66l-77 -66h-115z" />
    <glyph glyph-name="Hbar" unicode="&#x126;" horiz-adv-x="632" 
d="M118 490v3l22 95h71l23 97h107l-23 -97h268l22 97h107l-23 -97h70l-25 -98h-67l-113 -490h-107l68 293h-268l-67 -293h-107l113 490h-71zM274 397h268l21 93h-268z" />
    <glyph glyph-name="hbar" unicode="&#x127;" horiz-adv-x="507" 
d="M410 511q61 0 90.5 -36.5t29.5 -88t-21 -138.5l-57 -248h-108l56 241q18 72 18 108t-11.5 52t-36 16t-55 -20.5t-50.5 -41.5l-20 -21l-77 -334h-108l127 551h-53l21 94h53l15 63h108l-14 -63h133l-23 -94h-132l-26 -116q8 9 21 21.5t50 33.5t70 21z" />
    <glyph glyph-name="Itilde" unicode="&#x128;" horiz-adv-x="252" 
d="M383 782q-25 0 -77.5 24t-65.5 24q-22 0 -72 -32l-16 -11l-3 76q67 63 111 63q31 0 82.5 -24t61.5 -24t31.5 10t37.5 20l16 11l2 -76q-63 -61 -108 -61zM70 0l159 685h111l-158 -685h-112z" />
    <glyph glyph-name="itilde" unicode="&#x129;" horiz-adv-x="227" 
d="M60 0l115 500h108l-115 -500h-108zM308 600q-24 0 -70 23t-58 23q-24 0 -70 -30l-15 -11l-2 76q64 60 108 60q27 0 73 -22.5t56 -22.5q18 0 64 30l16 10l4 -77q-62 -59 -106 -59z" />
    <glyph glyph-name="Imacron" unicode="&#x12a;" horiz-adv-x="252" 
d="M151 825l20 87h313l-21 -87h-312zM70 0l159 685h111l-158 -685h-112z" />
    <glyph glyph-name="imacron" unicode="&#x12b;" horiz-adv-x="227" 
d="M60 0l115 500h108l-115 -500h-108zM102 632l20 88h295l-21 -88h-294z" />
    <glyph glyph-name="Ibreve" unicode="&#x12c;" horiz-adv-x="252" 
d="M281 913q0 -39 46 -39q24 0 42.5 14t26.5 37h98q-44 -137 -185 -137q-70 0 -98.5 31t-28.5 76q0 14 2 30h98q-1 -7 -1 -12zM70 0l159 685h111l-158 -685h-112z" />
    <glyph glyph-name="ibreve" unicode="&#x12d;" horiz-adv-x="227" 
d="M60 0l115 500h108l-115 -500h-108zM214 739q-1 -7 -1 -18.5t10 -25.5t41 -14q59 0 78 58h97q-48 -148 -202 -148q-71 0 -101 39q-22 28 -22 73q0 17 3 36h97z" />
    <glyph glyph-name="Iogonek" unicode="&#x12e;" horiz-adv-x="252" 
d="M125.5 -45.5q-29.5 -31.5 -29.5 -50t18 -18.5l42 4l-10 -90q-52 -10 -89 -10t-57.5 18.5t-20.5 52.5t28.5 72t64.5 67h-2l159 685h111l-158 -685q-27 -14 -56.5 -45.5z" />
    <glyph glyph-name="iogonek" unicode="&#x12f;" horiz-adv-x="227" 
d="M41 -210q-37 0 -57 18.5t-20 52.5q0 63 97 142l114 497h108l-115 -500q-30 -18 -59 -47.5t-29 -48t18 -18.5l42 4l-10 -90q-52 -10 -89 -10zM191 574l28 117h109l-27 -117h-110z" />
    <glyph glyph-name="Idotaccent" unicode="&#x130;" horiz-adv-x="252" 
d="M259 796l27 118h95l-28 -118h-94zM70 0l159 685h111l-158 -685h-112z" />
    <glyph glyph-name="dotlessi" unicode="&#x131;" horiz-adv-x="228" 
d="M60 0l115 500h108l-115 -500h-108z" />
    <glyph glyph-name="Jcircumflex" unicode="&#x134;" horiz-adv-x="275" 
d="M366 685l-129 -557q-29 -131 -68 -164.5t-163 -33.5l19 98q51 1 68.5 17.5t32.5 84.5l129 555h111zM157 785l170 146h63l96 -146h-99l-38 66l-77 -66h-115z" />
    <glyph glyph-name="jcircumflex" unicode="&#x135;" horiz-adv-x="227" 
d="M60 0l115 500h108l-115 -500q-18 -76 -35 -110t-41 -50q-52 -36 -135 -72l-35 87q83 42 103.5 64t34.5 81zM84 580l162 165h63l86 -165h-99l-35 74l-71 -74h-106z" />
    <glyph glyph-name="Kcommaaccent" unicode="&#x136;" horiz-adv-x="532" 
d="M222 -72h99l-102 -226h-90zM401 0l-68 288l-86 -6l-65 -282h-112l159 685h111l-71 -305l76 6l206 299h123l-240 -344l84 -341h-117z" />
    <glyph glyph-name="kcommaaccent" unicode="&#x137;" horiz-adv-x="458" 
d="M81 -298l93 226h99l-102 -226h-90zM168 0h-108l163 708h108l-93 -402l47 5l151 188h121l-191 -236l79 -263h-112l-64 221l-51 -4z" />
    <glyph glyph-name="Lacute" unicode="&#x139;" horiz-adv-x="427" 
d="M307 774l-9 85l248 92l10 -97zM422 0h-352l159 685h111l-135 -588h239z" />
    <glyph glyph-name="lacute" unicode="&#x13a;" horiz-adv-x="231" 
d="M61 0l164 708h108l-163 -708h-109zM241 774l-9 85l248 92l10 -97z" />
    <glyph glyph-name="Lcommaaccent" unicode="&#x13b;" horiz-adv-x="427" 
d="M184 -72h99l-102 -226h-90zM422 0h-352l159 685h111l-135 -588h239z" />
    <glyph glyph-name="lcommaaccent" unicode="&#x13c;" horiz-adv-x="231" 
d="M51 -72h99l-102 -226h-90zM61 0l164 708h108l-163 -708h-109z" />
    <glyph glyph-name="Lcaron" unicode="&#x13d;" horiz-adv-x="459" 
d="M574 685l-57 -243h-100l59 243h98zM422 0h-352l159 685h111l-135 -588h239z" />
    <glyph glyph-name="lcaron" unicode="&#x13e;" horiz-adv-x="313" 
d="M482 685l-58 -243h-99l58 243h99zM61 0l164 708h108l-163 -708h-109z" />
    <glyph glyph-name="Lslash" unicode="&#x141;" horiz-adv-x="428" 
d="M424 0h-352l54 234l-38 -24h-1l-33 76l98 61l79 338h111l-59 -256l118 74l34 -76l-178 -111l-50 -219h239z" />
    <glyph glyph-name="lslash" unicode="&#x142;" horiz-adv-x="283" 
d="M84 0l56 245l-48 -30l-35 76l110 68l81 349h108l-62 -270l52 32l34 -75l-112 -70l-75 -325h-109z" />
    <glyph glyph-name="Nacute" unicode="&#x143;" horiz-adv-x="642" 
d="M395 774l-9 85l248 92l10 -97zM70 0l159 685h183l66 -568h15l129 568h108l-158 -685h-175l-72 575h-15l-134 -575h-106z" />
    <glyph glyph-name="nacute" unicode="&#x144;" horiz-adv-x="506" 
d="M369.5 417q-25.5 0 -60.5 -25t-64 -58l-77 -334h-108l115 500h104l-11 -66l19 19q19 19 54.5 38.5t68.5 19.5q61 0 90.5 -36.5t29.5 -89t-21 -136.5l-57 -249h-108l56 241q18 84 18 114t-11.5 46t-37 16zM293 585l-9 86l248 92l9 -97z" />
    <glyph glyph-name="Ncommaaccent" unicode="&#x145;" horiz-adv-x="642" 
d="M281 -72h99l-102 -226h-90zM70 0l159 685h183l66 -568h15l129 568h108l-158 -685h-175l-72 575h-15l-134 -575h-106z" />
    <glyph glyph-name="ncommaaccent" unicode="&#x146;" horiz-adv-x="506" 
d="M410 511q61 0 90.5 -36.5t29.5 -89t-21 -136.5l-57 -249h-108l56 241q18 84 18 114t-11.5 46t-37 16t-55.5 -20.5t-50 -41.5l-19 -21l-77 -334h-108l115 500h104l-11 -66q8 9 21 21.5t50.5 34t70.5 21.5zM109 -298l93 226h99l-102 -226h-90z" />
    <glyph glyph-name="Ncaron" unicode="&#x147;" horiz-adv-x="642" 
d="M680 926l-158 -145h-73l-95 145h107l42 -68l70 68h107zM70 0l159 685h183l66 -568h15l129 568h108l-158 -685h-175l-72 575h-15l-134 -575h-106z" />
    <glyph glyph-name="ncaron" unicode="&#x148;" horiz-adv-x="506" 
d="M410 511q61 0 90.5 -36.5t29.5 -89t-21 -136.5l-57 -249h-108l56 241q18 84 18 114t-11.5 46t-37 16t-55.5 -20.5t-50 -41.5l-19 -21l-77 -334h-108l115 500h104l-11 -66q8 9 21 21.5t50.5 34t70.5 21.5zM418 580h-67l-83 165h99l39 -76l69 76h106z" />
    <glyph glyph-name="Eng" unicode="&#x14a;" horiz-adv-x="642" 
d="M571 0v-3q-16 -70 -28.5 -104.5t-38.5 -58t-60 -29t-99 -5.5l19 98q51 1 68.5 17.5t32.5 84.5h-68l-72 575h-15l-134 -575h-106l159 685h183l66 -568h14l130 568h108l-158 -685h-1z" />
    <glyph glyph-name="eng" unicode="&#x14b;" horiz-adv-x="498" 
d="M415 348q0 61 -55 61q-20 0 -49 -14t-49 -28l-19 -14l-83 -353h-103l118 499h103l-14 -55q79 66 139 66q119 0 119 -125q0 -50 -18 -125l-61 -256q-24 -97 -67 -146.5t-151 -98.5l-26 93q79 41 104 67.5t39 87.5l60 253q13 52 13 88z" />
    <glyph glyph-name="Omacron" unicode="&#x14c;" horiz-adv-x="620" 
d="M247 113.5q26 -27.5 86 -27.5t102 37q56 50 88 153t32 203q0 64 -26 92t-85.5 28t-96.5 -33q-58 -53 -92 -159.5t-34 -186t26 -107zM506 48q-76 -59 -184 -59t-162 50t-54 157q0 130 40.5 247t117.5 184q77 69 188 69q218 0 218 -207q0 -136 -41.5 -256t-122.5 -185z
M332 814l20 87h313l-21 -87h-312z" />
    <glyph glyph-name="omacron" unicode="&#x14d;" horiz-adv-x="495" 
d="M337 510q187 0 187 -180q0 -86 -28 -162.5t-87.5 -127.5t-138.5 -51q-185 0 -185 178q0 86 30 163.5t89 128.5t133 51zM270 81q65 0 105.5 76t40.5 174q0 41 -20 64t-59 23q-64 0 -104 -77t-40 -175q0 -85 77 -85zM233 632l20 88h295l-21 -88h-294z" />
    <glyph glyph-name="Obreve" unicode="&#x14e;" horiz-adv-x="620" 
d="M455 913q0 -39 46 -39q24 0 42.5 14t26.5 37h98q-44 -137 -185 -137q-70 0 -98.5 31t-28.5 76q0 14 2 30h98q-1 -7 -1 -12zM247 113.5q26 -27.5 86 -27.5t102 37q56 50 88 153t32 203q0 64 -26 92t-85.5 28t-96.5 -33q-58 -53 -92 -159.5t-34 -186t26 -107zM506 48
q-76 -59 -184 -59t-162 50t-54 157q0 130 40.5 247t117.5 184q77 69 188 69q218 0 218 -207q0 -136 -41.5 -256t-122.5 -185z" />
    <glyph glyph-name="obreve" unicode="&#x14f;" horiz-adv-x="495" 
d="M337 510q187 0 187 -180q0 -86 -28 -162.5t-87.5 -127.5t-138.5 -51q-185 0 -185 178q0 86 30 163.5t89 128.5t133 51zM270 81q65 0 105.5 76t40.5 174q0 41 -20 64t-59 23q-64 0 -104 -77t-40 -175q0 -85 77 -85zM338 739q-1 -7 -1 -18.5t10 -25.5t41 -14q59 0 78 58h97
q-48 -148 -202 -148q-71 0 -101 39q-22 28 -22 73q0 17 3 36h97z" />
    <glyph glyph-name="Ohungarumlaut" unicode="&#x150;" horiz-adv-x="620" 
d="M603 753l-74 36l133 169l83 -39zM405 754l-75 35l135 170l82 -39zM247 113.5q26 -27.5 86 -27.5t102 37q56 50 88 153t32 203q0 64 -26 92t-85.5 28t-96.5 -33q-58 -53 -92 -159.5t-34 -186t26 -107zM506 48q-76 -59 -184 -59t-162 50t-54 157q0 130 40.5 247t117.5 184
q77 69 188 69q218 0 218 -207q0 -136 -41.5 -256t-122.5 -185z" />
    <glyph glyph-name="ohungarumlaut" unicode="&#x151;" horiz-adv-x="495" 
d="M337 510q187 0 187 -180q0 -86 -28 -162.5t-87.5 -127.5t-138.5 -51q-185 0 -185 178q0 86 30 163.5t89 128.5t133 51zM270 81q65 0 105.5 76t40.5 174q0 41 -20 64t-59 23q-64 0 -104 -77t-40 -175q0 -85 77 -85zM459 571l-63 55l162 168l69 -57zM270 571l-62 55
l161 167l69 -56z" />
    <glyph glyph-name="OE" unicode="&#x152;" horiz-adv-x="843" 
d="M286 -11q-92 0 -137 42q-49 46 -49 142q0 74 23 172q44 184 124 271.5t207 87.5q52 0 118 -11h396l-24 -107h-293l-46 -190h235l-23 -102l-235 2l-45 -189h292l-25 -107h-393q-73 -11 -125 -11zM324 96q26 0 108 7l116 487q-57 6 -106 6q-82 0 -129.5 -57.5t-80.5 -192.5
q-21 -94 -21 -146t26.5 -78t86.5 -26z" />
    <glyph glyph-name="oe" unicode="&#x153;" horiz-adv-x="776" 
d="M719 94l28 3l-19 -85q-95 -23 -191.5 -23t-128.5 64q-62 -64 -166 -64q-145 0 -158 118q-2 19 -2 53.5t13 92.5q31 125 91 191t172 66t144 -71q62 71 165 71q143 0 152 -125q1 -12 1 -39t-12 -66l-24 -77l-285 2q-7 -26 -7 -40t1 -20q6 -57 79.5 -57t146.5 6zM375 162
q18 38 30.5 87.5t12.5 70t-1 28.5q-4 65 -75 65q-58 0 -90.5 -40t-48.5 -109.5t-16 -92.5t1 -31q6 -54 79.5 -54t107.5 76zM708 287q9 43 9 57q0 42 -17.5 54.5t-61 12.5t-75 -29.5t-45.5 -92.5z" />
    <glyph glyph-name="Racute" unicode="&#x154;" horiz-adv-x="561" 
d="M580.5 338.5q-47.5 -65.5 -115.5 -88.5l64 -250h-111l-56 235h-126l-54 -235h-112l159 685h203q100 0 148 -43t48 -140.5t-47.5 -163zM493 568.5q-20 20.5 -69 20.5h-106l-60 -258h115q64 0 102 48t38 108.5t-20 81zM342 774l-9 85l248 92l10 -97z" />
    <glyph glyph-name="racute" unicode="&#x155;" horiz-adv-x="326" 
d="M60 0l115 500h107l-17 -73q34 27 82.5 52.5t84.5 31.5l-31 -112q-45 -13 -129 -53l-26 -12l-78 -334h-108zM194 585l-9 86l248 92l9 -97z" />
    <glyph glyph-name="Rcommaaccent" unicode="&#x156;" horiz-adv-x="561" 
d="M146 -298l93 226h99l-102 -226h-90zM432 685q100 0 148 -43t48 -140.5t-47.5 -163t-115.5 -88.5l64 -250h-111l-56 235h-126l-54 -235h-112l159 685h203zM475 379q38 48 38 108.5t-20 81t-69 20.5h-106l-60 -258h115q64 0 102 48z" />
    <glyph glyph-name="rcommaaccent" unicode="&#x157;" horiz-adv-x="326" 
d="M60 0l115 500h107l-17 -73q34 27 82.5 52.5t84.5 31.5l-31 -112q-45 -13 -129 -53l-26 -12l-78 -334h-108zM56 -72h99l-102 -226h-90z" />
    <glyph glyph-name="Rcaron" unicode="&#x158;" horiz-adv-x="561" 
d="M621 927l-158 -145h-73l-95 145h107l42 -68l70 68h107zM580.5 338.5q-47.5 -65.5 -115.5 -88.5l64 -250h-111l-56 235h-126l-54 -235h-112l159 685h203q100 0 148 -43t48 -140.5t-47.5 -163zM493 568.5q-20 20.5 -69 20.5h-106l-60 -258h115q64 0 102 48t38 108.5t-20 81
z" />
    <glyph glyph-name="rcaron" unicode="&#x159;" horiz-adv-x="326" 
d="M60 0l115 500h107l-17 -73q34 27 82.5 52.5t84.5 31.5l-31 -112q-45 -13 -129 -53l-26 -12l-78 -334h-108zM328 580h-67l-83 165h99l39 -76l69 76h106z" />
    <glyph glyph-name="Sacute" unicode="&#x15a;" horiz-adv-x="497" 
d="M568 583q-108 18 -172 18t-97 -30t-33 -84q0 -34 19.5 -50.5t94 -46.5t103 -64t28.5 -100q0 -113 -68.5 -175t-185.5 -62q-45 0 -96 8.5t-79 17.5l-29 9l18 81q115 -19 187 -19q139 0 139 127q0 35 -19 51.5t-90.5 45.5t-103 64.5t-31.5 100.5q0 99 64 160t172 61
q45 0 94.5 -8t76.5 -16l28 -9zM344 774l-9 85l248 92l10 -97z" />
    <glyph glyph-name="sacute" unicode="&#x15b;" horiz-adv-x="431" 
d="M306 418q-39 0 -61.5 -20t-22.5 -45t16 -35t59 -22.5t63 -20.5t40 -21q36 -23 36 -79q0 -91 -61 -138.5t-160 -47.5q-76 0 -145 22l-22 7l20 81q95 -18 151 -18q107 0 107 73q0 19 -16 28t-73.5 24t-90.5 40.5t-33 74.5q0 87 59 138t145 51q83 0 151 -20l22 -6l-20 -81
q-99 15 -164 15zM265 585l-9 86l248 92l9 -97z" />
    <glyph glyph-name="Scircumflex" unicode="&#x15c;" horiz-adv-x="497" 
d="M568 583q-108 18 -172 18t-97 -30t-33 -84q0 -34 19.5 -50.5t94 -46.5t103 -64t28.5 -100q0 -113 -68.5 -175t-185.5 -62q-45 0 -96 8.5t-79 17.5l-29 9l18 81q115 -19 187 -19q139 0 139 127q0 35 -19 51.5t-90.5 45.5t-103 64.5t-31.5 100.5q0 99 64 160t172 61
q45 0 94.5 -8t76.5 -16l28 -9zM260 785l170 146h63l96 -146h-99l-38 66l-77 -66h-115z" />
    <glyph glyph-name="scircumflex" unicode="&#x15d;" horiz-adv-x="431" 
d="M306 418q-39 0 -61.5 -20t-22.5 -45t16 -35t59 -22.5t63 -20.5t40 -21q36 -23 36 -79q0 -91 -61 -138.5t-160 -47.5q-76 0 -145 22l-22 7l20 81q95 -18 151 -18q107 0 107 73q0 19 -16 28t-73.5 24t-90.5 40.5t-33 74.5q0 87 59 138t145 51q83 0 151 -20l22 -6l-20 -81
q-99 15 -164 15zM194 580l162 165h63l86 -165h-99l-35 74l-71 -74h-106z" />
    <glyph glyph-name="Scedilla" unicode="&#x15e;" horiz-adv-x="497" 
d="M568 583q-108 18 -172 18t-97 -30t-33 -84q0 -34 19.5 -50.5t94 -46.5t103 -64t28.5 -100q0 -111 -66 -173t-180 -64l-7 -27h6q89 0 89 -61q0 -11 -3 -25q-23 -97 -120 -97q-33 0 -71 7l-11 2l17 68q33 -2 53 -2q38 0 45 29q4 16 -4.5 21t-27.5 5h-29l18 82
q-83 6 -145 26l-22 7l18 81q115 -19 187 -19q139 0 139 127q0 35 -19 51.5t-90.5 45.5t-103 64.5t-31.5 100.5q0 99 64 160t172 61q45 0 94.5 -8t76.5 -16l28 -9z" />
    <glyph glyph-name="scedilla" unicode="&#x15f;" horiz-adv-x="432" 
d="M188 -221q-32 0 -71 7l-11 2l17 68q33 -2 53 -2q38 0 45 29q4 16 -4.5 21t-27.5 5h-29l18 82q-68 6 -114 21l-16 6l20 81q95 -18 151 -18q107 0 107 73q0 19 -16 28t-73.5 24t-90.5 40.5t-33 74.5q0 87 59 138t145 51q83 0 151 -20l22 -6l-20 -81q-99 15 -164 15
q-39 0 -61.5 -20t-22.5 -45t16 -35t59 -22.5t63 -20.5t40 -21q36 -23 36 -79q0 -89 -58.5 -136.5t-154.5 -49.5l-7 -27h6q89 0 89 -61q0 -11 -3 -25q-23 -97 -120 -97z" />
    <glyph glyph-name="Scaron" unicode="&#x160;" horiz-adv-x="497" 
d="M630 928l-158 -145h-73l-95 145h107l42 -68l70 68h107zM568 583q-108 18 -172 18t-97 -30t-33 -84q0 -34 19.5 -50.5t94 -46.5t103 -64t28.5 -100q0 -113 -68.5 -175t-185.5 -62q-45 0 -96 8.5t-79 17.5l-29 9l18 81q115 -19 187 -19q139 0 139 127q0 35 -19 51.5
t-90.5 45.5t-103 64.5t-31.5 100.5q0 99 64 160t172 61q45 0 94.5 -8t76.5 -16l28 -9z" />
    <glyph glyph-name="scaron" unicode="&#x161;" horiz-adv-x="431" 
d="M306 418q-39 0 -61.5 -20t-22.5 -45t16 -35t59 -22.5t63 -20.5t40 -21q36 -23 36 -79q0 -91 -61 -138.5t-160 -47.5q-76 0 -145 22l-22 7l20 81q95 -18 151 -18q107 0 107 73q0 19 -16 28t-73.5 24t-90.5 40.5t-33 74.5q0 87 59 138t145 51q83 0 151 -20l22 -6l-20 -81
q-99 15 -164 15zM381 580h-67l-83 165h99l39 -76l69 76h106z" />
    <glyph glyph-name="Tcedilla" unicode="&#x162;" horiz-adv-x="461" 
d="M216 -221q-32 0 -71 7l-11 2l17 68q33 -2 53 -2q38 0 45 29q4 16 -4.5 21t-27.5 5h-29l21 91h-35l135 588h-164l23 97h442l-23 -97h-166l-136 -588h-31l-10 -38h6q89 0 89 -61q0 -11 -3 -25q-23 -97 -120 -97z" />
    <glyph glyph-name="tcedilla" unicode="&#x163;" horiz-adv-x="324" 
d="M179 -221q-33 0 -71 7l-11 2l17 68q33 -2 53 -2q38 0 45 29q4 16 -4.5 21t-27.5 5h-29l19 86q-65 21 -65 96q0 41 15 103l50 213h-58l24 93h57l31 137h109l-32 -137h120l-23 -93h-119l-52 -222q-10 -42 -10 -67q0 -37 39 -37l72 6l-9 -79q-52 -19 -105 -19l-7 -27h6
q89 0 89 -61q0 -11 -3 -25q-23 -97 -120 -97z" />
    <glyph glyph-name="Tcaron" unicode="&#x164;" horiz-adv-x="461" 
d="M590 927l-158 -145h-73l-95 145h107l42 -68l70 68h107zM145 588l23 97h442l-23 -97h-166l-136 -588h-111l135 588h-164z" />
    <glyph glyph-name="tcaron" unicode="&#x165;" horiz-adv-x="437" 
d="M604 685l-58 -243h-99l58 243h99zM217 118q0 -37 39 -37l72 6l-9 -79q-52 -19 -104.5 -19t-81 28t-28.5 71.5t15 105.5l50 213h-58l24 93h57l31 137h109l-32 -137h120l-23 -93h-119l-52 -222q-10 -42 -10 -67z" />
    <glyph glyph-name="Tbar" unicode="&#x166;" horiz-adv-x="466" 
d="M148 588l23 97h442l-23 -97h-166l-52 -222h140l-25 -97h-137l-62 -269h-111l62 269h-135l23 97h134l51 222h-164z" />
    <glyph glyph-name="tbar" unicode="&#x167;" horiz-adv-x="328" 
d="M219 118q0 -37 39 -37l72 6l-9 -79q-52 -19 -104.5 -19t-81 28t-28.5 71.5t15 105.5l7 30h-51l20 94h53l21 89h-58l24 93h57l31 137h109l-32 -137h120l-23 -93h-119l-21 -89h110l-21 -94h-111l-9 -39q-10 -42 -10 -67z" />
    <glyph glyph-name="Utilde" unicode="&#x168;" horiz-adv-x="594" 
d="M543 789q-25 0 -77.5 24t-65.5 24q-25 0 -72 -32l-16 -11l-3 76q67 63 111 63q31 0 82.5 -24t61.5 -24q19 0 69 31l16 10l2 -76q-63 -61 -108 -61zM227 225q-9 -40 -9 -74q0 -65 102 -65q69 0 100.5 32t48.5 104l107 463h112l-107 -463q-28 -122 -91.5 -177.5
t-169.5 -55.5q-213 0 -213 150q0 42 12 102l103 444h112z" />
    <glyph glyph-name="utilde" unicode="&#x169;" horiz-adv-x="506" 
d="M449 600q-24 0 -70 23t-58 23q-24 0 -69 -30l-16 -11l-2 76q64 60 108 60q28 0 73 -22.5t55 -22.5q19 0 66 30l15 10l4 -77q-62 -59 -106 -59zM212 -11q-61 0 -90.5 36.5t-29.5 97.5q0 37 20 128l57 249h108l-55 -241q-18 -72 -18 -111q0 -65 52 -65q21 0 51 20.5
t50 41.5l20 21l77 334h108l-115 -500h-104l11 66q-8 -9 -21 -21.5t-50.5 -34t-70.5 -21.5z" />
    <glyph glyph-name="Umacron" unicode="&#x16a;" horiz-adv-x="594" 
d="M227 225q-9 -40 -9 -74q0 -65 102 -65q69 0 100.5 32t48.5 104l107 463h112l-107 -463q-28 -122 -91.5 -177.5t-169.5 -55.5q-213 0 -213 150q0 42 12 102l103 444h112zM316 814l20 87h313l-21 -87h-312z" />
    <glyph glyph-name="umacron" unicode="&#x16b;" horiz-adv-x="506" 
d="M212 -11q-61 0 -90.5 36.5t-29.5 97.5q0 37 20 128l57 249h108l-55 -241q-18 -72 -18 -111q0 -65 52 -65q21 0 51 20.5t50 41.5l20 21l77 334h108l-115 -500h-104l11 66q-8 -9 -21 -21.5t-50.5 -34t-70.5 -21.5zM236 632l20 88h295l-21 -88h-294z" />
    <glyph glyph-name="Ubreve" unicode="&#x16c;" horiz-adv-x="594" 
d="M434 913q0 -39 46 -39q24 0 42.5 14t26.5 37h98q-44 -137 -185 -137q-70 0 -98.5 31t-28.5 76q0 14 2 30h98q-1 -7 -1 -12zM227 225q-9 -40 -9 -74q0 -65 102 -65q69 0 100.5 32t48.5 104l107 463h112l-107 -463q-28 -122 -91.5 -177.5t-169.5 -55.5q-213 0 -213 150
q0 42 12 102l103 444h112z" />
    <glyph glyph-name="ubreve" unicode="&#x16d;" horiz-adv-x="506" 
d="M212 -11q-61 0 -90.5 36.5t-29.5 97.5q0 37 20 128l57 249h108l-55 -241q-18 -72 -18 -111q0 -65 52 -65q21 0 51 20.5t50 41.5l20 21l77 334h108l-115 -500h-104l11 66q-8 -9 -21 -21.5t-50.5 -34t-70.5 -21.5zM348 739q-1 -7 -1 -18.5t10 -25.5t41 -14q59 0 78 58h97
q-48 -148 -202 -148q-71 0 -101 39q-22 28 -22 73q0 17 3 36h97z" />
    <glyph glyph-name="Uring" unicode="&#x16e;" horiz-adv-x="594" 
d="M557 757q-39 -28 -93.5 -28t-81.5 29q-17 18 -17 40t5 40q14 55 53 82.5t92.5 27.5t80.5 -27q17 -18 17 -41q0 -83 -56 -123zM480 800q48 0 58 38q1 5 1 13t-11 17t-30 9q-47 0 -58 -39q-3 -17 7 -27.5t33 -10.5zM227 225q-9 -40 -9 -74q0 -65 102 -65q69 0 100.5 32
t48.5 104l107 463h112l-107 -463q-28 -122 -91.5 -177.5t-169.5 -55.5q-213 0 -213 150q0 42 12 102l103 444h112z" />
    <glyph glyph-name="uring" unicode="&#x16f;" horiz-adv-x="506" 
d="M342.5 712.5q33.5 29.5 78 29.5t62.5 -27q12 -18 12 -37t-3 -34q-8 -50 -42.5 -79.5t-80.5 -29.5t-64 29q-11 17 -11 37t5 38q10 44 43.5 73.5zM363 612.5q8 -11.5 23.5 -11.5t28 10.5t17 26t-3.5 26t-23 10.5q-35 0 -46 -35q-4 -15 4 -26.5zM212 -11q-61 0 -90.5 36.5
t-29.5 97.5q0 37 20 128l57 249h108l-55 -241q-18 -72 -18 -111q0 -65 52 -65q21 0 51 20.5t50 41.5l20 21l77 334h108l-115 -500h-104l11 66q-8 -9 -21 -21.5t-50.5 -34t-70.5 -21.5z" />
    <glyph glyph-name="Uhungarumlaut" unicode="&#x170;" horiz-adv-x="594" 
d="M577 746l-74 36l133 169l83 -39zM379 747l-75 35l135 170l82 -39zM227 225q-9 -40 -9 -74q0 -65 102 -65q69 0 100.5 32t48.5 104l107 463h112l-107 -463q-28 -122 -91.5 -177.5t-169.5 -55.5q-213 0 -213 150q0 42 12 102l103 444h112z" />
    <glyph glyph-name="uhungarumlaut" unicode="&#x171;" horiz-adv-x="506" 
d="M482 571l-63 55l162 168l69 -57zM293 571l-62 55l161 167l69 -56zM212 -11q-61 0 -90.5 36.5t-29.5 97.5q0 37 20 128l57 249h108l-55 -241q-18 -72 -18 -111q0 -65 52 -65q21 0 51 20.5t50 41.5l20 21l77 334h108l-115 -500h-104l11 66q-8 -9 -21 -21.5t-50.5 -34
t-70.5 -21.5z" />
    <glyph glyph-name="Uogonek" unicode="&#x172;" horiz-adv-x="597" 
d="M228 225q-9 -40 -9 -74q0 -65 102 -65q69 0 100.5 32t48.5 104l107 463h112l-107 -463q-24 -105 -73 -160t-134 -68q-68 -58 -68 -91q0 -17 18 -17l42 4l-11 -90q-51 -10 -88 -10t-57.5 18.5t-20.5 52.5q0 57 82 130q-164 15 -164 148q0 42 12 102l103 444h112z" />
    <glyph glyph-name="uogonek" unicode="&#x173;" horiz-adv-x="506" 
d="M393 -46q-29 -31 -29 -49.5t18 -18.5l42 4l-11 -90q-52 -10 -89 -10t-57 18.5t-20 53t30 73.5t66 68l11 63q-8 -9 -21 -21.5t-50.5 -34t-70.5 -21.5q-61 0 -90.5 36.5t-29.5 97.5q0 37 20 128l57 249h108l-55 -241q-18 -72 -18 -111q0 -65 52 -65q21 0 51 20.5t50 41.5
l20 21l77 334h108l-115 -500q-25 -15 -54 -46z" />
    <glyph glyph-name="Wcircumflex" unicode="&#x174;" horiz-adv-x="849" 
d="M432 784l170 146h63l96 -146h-99l-38 66l-77 -66h-115zM179 685h112l-38 -582h20l245 572h122l-27 -572h19l241 582h111l-294 -685h-171l27 527l-220 -527h-176z" />
    <glyph glyph-name="wcircumflex" unicode="&#x175;" horiz-adv-x="748" 
d="M139 500h109l-22 -407h21l179 397h124l-9 -397h21l169 407h110l-214 -500h-184l9 346l-152 -346h-181zM343 580l162 165h63l86 -165h-99l-35 74l-71 -74h-106z" />
    <glyph glyph-name="Ycircumflex" unicode="&#x176;" horiz-adv-x="499" 
d="M261 784l170 146h63l96 -146h-99l-38 66l-77 -66h-115zM652 685l-285 -394l-69 -291h-104l69 298l-100 387h113l62 -290l196 290h118z" />
    <glyph glyph-name="ycircumflex" unicode="&#x177;" horiz-adv-x="460" 
d="M131 500h107l-5 -410h22l193 410h110l-346 -715h-109l108 215h-76zM199 580l162 165h63l86 -165h-99l-35 74l-71 -74h-106z" />
    <glyph glyph-name="Ydieresis" unicode="&#x178;" horiz-adv-x="499" 
d="M283 799l27 117h90l-28 -117h-89zM477 799l27 117h90l-29 -117h-88zM652 685l-285 -394l-69 -291h-104l69 298l-100 387h113l62 -290l196 290h118z" />
    <glyph glyph-name="Zacute" unicode="&#x179;" horiz-adv-x="492" 
d="M324 774l-9 85l248 92l10 -97zM173 588l23 97h417l-28 -123l-395 -440l-6 -25h293l-23 -97h-417l27 121l393 442l6 25h-290z" />
    <glyph glyph-name="zacute" unicode="&#x17a;" horiz-adv-x="416" 
d="M152 500h344l-22 -90l-291 -317h220l-24 -93h-343l19 91l290 316h-216zM247 585l-9 86l248 92l9 -97z" />
    <glyph glyph-name="Zdotaccent" unicode="&#x17b;" horiz-adv-x="492" 
d="M378 796l27 118h95l-28 -118h-94zM173 588l23 97h417l-28 -123l-395 -440l-6 -25h293l-23 -97h-417l27 121l393 442l6 25h-290z" />
    <glyph glyph-name="zdotaccent" unicode="&#x17c;" horiz-adv-x="416" 
d="M152 500h344l-22 -90l-291 -317h220l-24 -93h-343l19 91l290 316h-216zM289 592l27 116h93l-27 -116h-93z" />
    <glyph glyph-name="Zcaron" unicode="&#x17d;" horiz-adv-x="492" 
d="M619 926l-158 -145h-73l-95 145h107l42 -68l70 68h107zM173 588l23 97h417l-28 -123l-395 -440l-6 -25h293l-23 -97h-417l27 121l393 442l6 25h-290z" />
    <glyph glyph-name="zcaron" unicode="&#x17e;" horiz-adv-x="416" 
d="M368 580h-67l-83 165h99l39 -76l69 76h106zM129 407l23 93h344l-22 -90l-291 -317h220l-24 -93h-343l19 91l290 316h-216z" />
    <glyph glyph-name="florin" unicode="&#x192;" 
d="M104 -243q-34 0 -70 8l-13 3l20 87q45 -3 72 -3q54 0 74 85l102 431h-94l22 101h96l9 34q30 112 69 154t104.5 42t125.5 -12l-22 -92q-64 3 -96 3t-50 -26.5t-29 -79.5l-5 -23h143l-24 -101h-143l-103 -433q-24 -101 -67.5 -139.5t-120.5 -38.5z" />
    <glyph glyph-name="Aringacute" unicode="&#x1fa;" horiz-adv-x="552" 
d="M326 694q0 16 5 33q14 55 52.5 82.5t92.5 27.5t80 -27q18 -18 18 -41q0 -61 -34 -103l-6 -666h-111v143h-224l-69 -143h-112l313 665q-5 13 -5 29zM406 588l-164 -347h184l5 347h-25zM369 865l-9 86l248 92l9 -97zM400 720q0 -31 45 -31t54 38q1 5 1 13t-11 17t-30 9
q-47 0 -58 -39q-1 -4 -1 -7z" />
    <glyph glyph-name="aringacute" unicode="&#x1fb;" horiz-adv-x="516" 
d="M356 762l-9 95l248 92l10 -105zM219 -11q-69 0 -102 44.5t-33 112t15.5 127.5t44.5 114.5t79.5 89t113.5 34.5q56 0 188 -22l42 -7l-75 -324l-27 -156l-107 -4q11 72 15 91q-47 -62 -107 -89q-24 -11 -47 -11zM443 404q-68 15 -108 15t-75 -45q-66 -83 -66 -218
q0 -37 13.5 -55.5t42 -18.5t62.5 26.5t57 53.5l23 27zM362.5 712.5q33.5 29.5 78 29.5t62.5 -27q12 -18 12 -37t-3 -34q-8 -50 -42.5 -79.5t-80.5 -29.5t-64 29q-11 17 -11 37t5 38q10 44 43.5 73.5zM379 639q-1 -5 -1 -12t6.5 -16.5t22 -9.5t27.5 11q19 15 19 30
q0 32 -28 32q-35 0 -46 -35z" />
    <glyph glyph-name="AEacute" unicode="&#x1fc;" horiz-adv-x="765" 
d="M328 0l34 144h-168l-69 -144h-106l324 693h546l-23 -106l-294 2l-46 -194h237l-23 -101h-238l-45 -189h293l-23 -105h-399zM399 588l-158 -341h146l80 341h-68zM517 774l-9 85l248 92l10 -97z" />
    <glyph glyph-name="aeacute" unicode="&#x1fd;" horiz-adv-x="729" 
d="M448 157q0 -69 77 -69q72 0 145 6l28 3l-19 -85q-95 -23 -188.5 -23t-129.5 51q-36 -16 -97 -33.5t-97 -17.5q-63 0 -91 49q-20 32 -20 61t5 50q27 126 162 148q72 12 145 12q9 28 9 52q0 47 -43 47q-71 0 -152 -10l-29 -3l17 97q121 18 192 18q87 0 112 -55
q56 55 147 55q150 0 150 -144q0 -46 -14 -91l-19 -72l-285 2q-5 -30 -5 -48zM164 131q0 -48 40 -48q47 0 134 24q-2 12 -2 38.5t13 80.5q-64 -4 -104 -9q-65 -7 -78 -65q-3 -11 -3 -21zM659 287q9 32 9 49t-1 25q-5 55 -70 55q-51 0 -80 -31.5t-45 -95.5zM406 585l-9 86
l248 92l9 -97z" />
    <glyph glyph-name="Oslashacute" unicode="&#x1fe;" horiz-adv-x="622" 
d="M107 196q0 130 40.5 247t117.5 184q77 69 188 69q71 0 121 -24l88 129l63 -26l-98 -143q44 -53 44 -143q0 -136 -41.5 -256t-122.5 -185q-76 -59 -186 -59q-71 0 -117 21l-87 -128l-56 34l90 133q-44 52 -44 147zM514 583q-26 16 -77.5 16t-88.5 -33q-58 -53 -92 -159.5
t-34 -200.5q0 -29 4 -46zM265 100q28 -14 78.5 -14t92.5 37q56 50 88 153t32 203q0 26 -4 42zM402 765l-10 94l248 92l11 -105z" />
    <glyph glyph-name="oslashacute" unicode="&#x1ff;" horiz-adv-x="495" 
d="M337 510q47 0 86 -13l67 108l60 -26l-73 -114q47 -47 47 -134t-28 -163.5t-87.5 -127.5t-138.5 -51q-49 0 -85 12l-67 -110l-59 26l73 114q-47 44 -47 133t30 166.5t89 128.5t133 51zM285 585l-9 86l248 92l9 -97zM337 418q-64 0 -104 -77t-40 -175q0 -21 4 -33l83 130
l91 149q-15 6 -34 6zM270 81q65 0 105.5 76t40.5 174q0 12 -4 32l-81 -126l-93 -151q11 -5 32 -5z" />
    <glyph glyph-name="Scommaaccent" unicode="&#x218;" horiz-adv-x="497" 
d="M194 -72h99l-102 -226h-90zM568 583q-108 18 -172 18t-97 -30t-33 -84q0 -34 19.5 -50.5t94 -46.5t103 -64t28.5 -100q0 -113 -68.5 -175t-185.5 -62q-45 0 -96 8.5t-79 17.5l-29 9l18 81q115 -19 187 -19q139 0 139 127q0 35 -19 51.5t-90.5 45.5t-103 64.5t-31.5 100.5
q0 99 64 160t172 61q45 0 94.5 -8t76.5 -16l28 -9z" />
    <glyph glyph-name="scommaaccent" unicode="&#x219;" horiz-adv-x="430" 
d="M306 418q-39 0 -61.5 -20t-22.5 -45t16 -35t59 -22.5t63 -20.5t40 -21q36 -23 36 -79q0 -91 -61 -138.5t-160 -47.5q-76 0 -145 22l-22 7l20 81q95 -18 151 -18q107 0 107 73q0 19 -16 28t-73.5 24t-90.5 40.5t-33 74.5q0 87 59 138t145 51q83 0 151 -20l22 -6l-20 -81
q-99 15 -164 15zM163 -72h99l-102 -226h-90z" />
    <glyph glyph-name="Tcommaaccent" unicode="&#x21a;" horiz-adv-x="461" 
d="M169 -72h99l-102 -226h-90zM145 588l23 97h442l-23 -97h-166l-136 -588h-111l135 588h-164z" />
    <glyph glyph-name="tcommaaccent" unicode="&#x21b;" horiz-adv-x="324" 
d="M217 118q0 -37 39 -37l72 6l-9 -79q-52 -19 -104.5 -19t-81 28t-28.5 71.5t15 105.5l50 213h-58l24 93h57l31 137h109l-32 -137h120l-23 -93h-119l-52 -222q-10 -42 -10 -67zM125 -72h99l-102 -226h-90z" />
    <glyph glyph-name="circumflex" unicode="&#x2c6;" horiz-adv-x="791" 
d="M367 580l162 165h63l86 -165h-99l-35 74l-71 -74h-106z" />
    <glyph glyph-name="caron" unicode="&#x2c7;" horiz-adv-x="791" 
d="M555 580h-67l-83 165h99l39 -76l69 76h106z" />
    <glyph glyph-name="breve" unicode="&#x2d8;" horiz-adv-x="452" 
d="M319 739q-1 -7 -1 -18.5t10 -25.5t41 -14q59 0 78 58h97q-48 -148 -202 -148q-71 0 -101 39q-22 28 -22 73q0 17 3 36h97z" />
    <glyph glyph-name="dotaccent" unicode="&#x2d9;" horiz-adv-x="242" 
d="M213 592l27 116h93l-27 -116h-93z" />
    <glyph glyph-name="ring" unicode="&#x2da;" horiz-adv-x="791" 
d="M350.5 712.5q33.5 29.5 78 29.5t62.5 -27q12 -18 12 -37t-3 -34q-8 -50 -42.5 -79.5t-80.5 -29.5t-64 29q-11 17 -11 37t5 38q10 44 43.5 73.5zM367 639q-1 -5 -1 -12t6.5 -16.5t22 -9.5t27.5 11q19 15 19 30q0 32 -28 32q-35 0 -46 -35z" />
    <glyph glyph-name="ogonek" unicode="&#x2db;" horiz-adv-x="440" 
d="M240 -210q-37 0 -57.5 18.5t-20.5 55t37 80t74 70.5l88 -10q-24 -16 -53 -48.5t-29 -51t18 -18.5l42 4l-11 -90q-51 -10 -88 -10z" />
    <glyph glyph-name="tilde" unicode="&#x2dc;" horiz-adv-x="438" 
d="M422 600q-24 0 -70 23t-58 23q-24 0 -70 -30l-15 -11l-2 76q64 60 108 60q27 0 73 -22.5t56 -22.5q18 0 64 30l16 10l4 -77q-62 -59 -106 -59z" />
    <glyph glyph-name="hungarumlaut" unicode="&#x2dd;" horiz-adv-x="679" 
d="M527 571l-63 55l162 168l69 -57zM338 571l-62 55l161 167l69 -56z" />
    <glyph glyph-name="pi" unicode="&#x3c0;" 
d="M401 154v253h-116l-27 -407h-109l31 407q-35 0 -82 -10l-14 -3v89q62 17 146 17h244q61 0 104 10l15 3v-90q-26 -11 -84 -14v-255q0 -39 15.5 -54t61.5 -15v-92q-62 0 -96.5 6t-55.5 25.5t-27 48.5t-6 81z" />
    <glyph glyph-name="Wgrave" unicode="&#x1e80;" horiz-adv-x="849" 
d="M513 941l206 -92l-49 -84l-210 81zM179 685h112l-38 -582h20l245 572h122l-27 -572h19l241 582h111l-294 -685h-171l27 527l-220 -527h-176z" />
    <glyph glyph-name="wgrave" unicode="&#x1e81;" horiz-adv-x="748" 
d="M397 759l205 -92l-46 -79l-211 83zM139 500h109l-22 -407h21l179 397h124l-9 -397h21l169 407h110l-214 -500h-184l9 346l-152 -346h-181z" />
    <glyph glyph-name="Wacute" unicode="&#x1e82;" horiz-adv-x="849" 
d="M503 774l-9 85l248 92l10 -97zM179 685h112l-38 -582h20l245 572h122l-27 -572h19l241 582h111l-294 -685h-171l27 527l-220 -527h-176z" />
    <glyph glyph-name="wacute" unicode="&#x1e83;" horiz-adv-x="748" 
d="M139 500h109l-22 -407h21l179 397h124l-9 -397h21l169 407h110l-214 -500h-184l9 346l-152 -346h-181zM403 585l-9 86l248 92l9 -97z" />
    <glyph glyph-name="Wdieresis" unicode="&#x1e84;" horiz-adv-x="849" 
d="M457 799l27 117h90l-28 -117h-89zM651 799l27 117h90l-29 -117h-88zM179 685h112l-38 -582h20l245 572h122l-27 -572h19l241 582h111l-294 -685h-171l27 527l-220 -527h-176z" />
    <glyph glyph-name="wdieresis" unicode="&#x1e85;" horiz-adv-x="748" 
d="M139 500h109l-22 -407h21l179 397h124l-9 -397h21l169 407h110l-214 -500h-184l9 346l-152 -346h-181zM364 609l27 117h89l-27 -117h-89zM553 609l26 117h90l-28 -117h-88z" />
    <glyph glyph-name="uni1EAB" unicode="&#x1eab;" horiz-adv-x="516" 
d="M219 -11q-69 0 -102 44.5t-33 112t15.5 127.5t44.5 114.5t79.5 89t113.5 34.5q56 0 188 -22l42 -7l-75 -324l-27 -156l-107 -4q11 72 15 91q-47 -62 -107 -89q-24 -11 -47 -11zM443 404q-68 15 -108 15t-75 -45q-66 -83 -66 -218q0 -37 13.5 -55.5t42 -18.5t62.5 26.5
t57 53.5l23 27zM511 744q-24 0 -70 23t-58 23q-24 0 -69 -30l-16 -11l-2 76q64 60 108 60q28 0 73 -22.5t55 -22.5q19 0 66 30l15 10l4 -77q-62 -59 -106 -59zM243 550l162 165h63l86 -165h-99l-35 74l-71 -74h-106z" />
    <glyph glyph-name="uni1EB0" unicode="&#x1eb0;" horiz-adv-x="552" 
d="M442 1112l205 -92l-46 -79l-211 83zM423 0v143h-224l-69 -143h-112l323 685h199l-6 -685h-111zM406 588l-164 -347h184l5 347h-25zM426 873q0 -39 46 -39q24 0 42.5 14t26.5 37h98q-44 -137 -185 -137q-70 0 -98.5 31t-28.5 76q0 14 2 30h98q-1 -7 -1 -12z" />
    <glyph glyph-name="uni1EC5" unicode="&#x1ec5;" horiz-adv-x="470" 
d="M489 744q-24 0 -70 23t-58 23q-24 0 -69 -30l-16 -11l-2 76q64 60 108 60q28 0 73 -22.5t55 -22.5q19 0 66 30l15 10l4 -77q-62 -59 -106 -59zM217 101q23 -19 57 -19q72 0 142 12l26 5l-11 -82q-91 -28 -184 -28q-162 0 -162 162q0 142 63 245q32 52 86 83t123 31
q164 0 164 -137q0 -92 -65.5 -128t-213.5 -36h-42q-6 -22 -6 -55.5t23 -52.5zM260 291q84 0 119 18t35 63q0 50 -62 50q-104 0 -139 -131h47zM217 550l162 165h63l86 -165h-99l-35 74l-71 -74h-106z" />
    <glyph glyph-name="uni1ED7" unicode="&#x1ed7;" horiz-adv-x="495" 
d="M337 510q187 0 187 -180q0 -86 -28 -162.5t-87.5 -127.5t-138.5 -51q-185 0 -185 178q0 86 30 163.5t89 128.5t133 51zM270 81q65 0 105.5 76t40.5 174q0 41 -20 64t-59 23q-64 0 -104 -77t-40 -175q0 -85 77 -85zM487 744q-24 0 -70 23t-58 23q-24 0 -69 -30l-16 -11
l-2 76q64 60 108 60q28 0 73 -22.5t55 -22.5q19 0 66 30l15 10l4 -77q-62 -59 -106 -59zM216 550l162 165h63l86 -165h-99l-35 74l-71 -74h-106z" />
    <glyph glyph-name="Ygrave" unicode="&#x1ef2;" horiz-adv-x="499" 
d="M340 941l206 -92l-49 -84l-210 81zM652 685l-285 -394l-69 -291h-104l69 298l-100 387h113l62 -290l196 290h118z" />
    <glyph glyph-name="ygrave" unicode="&#x1ef3;" horiz-adv-x="460" 
d="M255 759l205 -92l-46 -79l-211 83zM131 500h107l-5 -410h22l193 410h110l-346 -715h-109l108 215h-76z" />
    <glyph glyph-name="uni1EF8" unicode="&#x1ef8;" horiz-adv-x="499" 
d="M500 793q-24 0 -70 23t-58 23q-21 0 -70 -31l-15 -10l-2 76q64 60 108 60q27 0 73 -22.5t56 -22.5q18 0 64 30l16 10l4 -77q-62 -59 -106 -59zM652 685l-285 -394l-69 -291h-104l69 298l-100 387h113l62 -290l196 290h118z" />
    <glyph glyph-name="uni1EF9" unicode="&#x1ef9;" horiz-adv-x="460" 
d="M438 600q-24 0 -70 23t-58 23q-24 0 -70 -30l-15 -11l-2 76q64 60 108 60q27 0 73 -22.5t56 -22.5q18 0 64 30l16 10l4 -77q-62 -59 -106 -59zM131 500h107l-5 -410h22l193 410h110l-346 -715h-109l108 215h-76z" />
    <glyph glyph-name="endash" unicode="&#x2013;" horiz-adv-x="556" 
d="M90 313h500v-93h-500v93z" />
    <glyph glyph-name="emdash" unicode="&#x2014;" horiz-adv-x="1056" 
d="M90 313h1000v-93h-1000v93z" />
    <glyph glyph-name="quoteleft" unicode="&#x2018;" horiz-adv-x="177" 
d="M241 684h81l-99 -241h-108z" />
    <glyph glyph-name="quoteright" unicode="&#x2019;" horiz-adv-x="177" 
d="M197 444h-81l99 241h108z" />
    <glyph glyph-name="quotesinglbase" unicode="&#x201a;" horiz-adv-x="160" 
d="M37 -152h-81l99 241h108z" />
    <glyph glyph-name="quotedblleft" unicode="&#x201c;" horiz-adv-x="352" 
d="M240 685h81l-99 -241h-108zM416 685h81l-99 -241h-108z" />
    <glyph glyph-name="quotedblright" unicode="&#x201d;" horiz-adv-x="353" 
d="M197 444h-81l99 241h108zM373 444h-81l99 241h108z" />
    <glyph glyph-name="quotedblbase" unicode="&#x201e;" horiz-adv-x="337" 
d="M258 86h81l-99 -241h-108zM62 86h81l-99 -241h-108z" />
    <glyph glyph-name="dagger" unicode="&#x2020;" horiz-adv-x="450" 
d="M118 387l25 110h146l42 179h101l-41 -179h145l-24 -110l-147 1l-109 -460h-100l107 459h-145z" />
    <glyph glyph-name="daggerdbl" unicode="&#x2021;" horiz-adv-x="477" 
d="M170 -72l41 178h-146l25 109l147 -1l40 173h-145l25 110l147 -1l42 180h101l-42 -179h145l-24 -110l-146 1l-42 -173h147l-26 -109h-147l-42 -178h-100z" />
    <glyph glyph-name="bullet" unicode="&#x2022;" horiz-adv-x="470" 
d="M166 103v282h250v-282h-250z" />
    <glyph glyph-name="ellipsis" unicode="&#x2026;" horiz-adv-x="625" 
d="M25 0l30 135h110l-30 -135h-110zM258 0l30 135h110l-30 -135h-110zM491 0l30 135h110l-30 -135h-110z" />
    <glyph glyph-name="perthousand" unicode="&#x2030;" horiz-adv-x="826" 
d="M255 482q19 0 31 18.5t20.5 53t8.5 51.5q0 28 -23 28q-19 0 -30.5 -17t-20.5 -52t-9 -53q0 -29 23 -29zM149 1l368 714l68 -19l-368 -713zM150 500q0 26 8 59q35 142 151 142q88 0 88 -83q0 -26 -8 -59q-36 -144 -151 -144q-88 0 -88 85zM494 286q89 0 89 -84
q0 -25 -8 -58q-36 -144 -151 -144q-56 0 -78 36q-11 20 -11 47.5t8 60.5q35 142 151 142zM501 192q0 27 -24 27q-19 0 -30.5 -17.5t-20.5 -53t-9 -58t21 -22.5t33 18t21 53t9 53zM681 0q-88 0 -88 85q0 26 8 59q35 142 150 142q89 0 89 -84q0 -25 -8 -58q-36 -144 -151 -144
zM758 192q0 27 -23 27q-19 0 -31 -17.5t-21 -52.5t-9 -53q0 -28 23 -28q19 0 31 18t21 53t9 53z" />
    <glyph glyph-name="guilsinglleft" unicode="&#x2039;" horiz-adv-x="242" 
d="M318 424l-31 -107l-121 -75l84 -85l-27 -98l-158 161l19 50z" />
    <glyph glyph-name="guilsinglright" unicode="&#x203a;" horiz-adv-x="244" 
d="M38 59l31 107l121 75l-84 85l27 98l158 -161l-19 -50z" />
    <glyph glyph-name="fraction" unicode="&#x2044;" horiz-adv-x="50" 
d="M-55 -29l-101 36l429 695l102 -36z" />
    <glyph glyph-name="zerosuperior" unicode="&#x2070;" horiz-adv-x="280" 
d="M237 776q33 24 93 24q92 0 92 -89q0 -33 -11 -78q-26 -106 -75 -143q-32 -22 -93.5 -22t-82.5 36q-10 18 -10 50t11 79q27 107 76 143zM331 696q0 25 -23 25q-18 0 -30 -18t-24 -63t-12 -63.5t5.5 -24t20.5 -5.5t26.5 16.5t24 65t12.5 67.5z" />
    <glyph glyph-name="foursuperior" unicode="&#x2074;" horiz-adv-x="280" 
d="M265 478l10 41h-138l18 73l104 198h97l-108 -192h47l33 89h76l-22 -89h17l-19 -79h-18l-10 -41h-87z" />
    <glyph glyph-name="fivesuperior" unicode="&#x2075;" horiz-adv-x="280" 
d="M298 588q0 16 -17.5 16t-41.5 -8l-64 8l56 186h199l-19 -76h-128l-15 -45q29 10 52 10q74 0 74 -63q0 -16 -5 -36q-15 -59 -49.5 -84.5t-91.5 -25.5q-44 0 -94 10l-16 4l25 72q52 -10 88.5 -10t44.5 30q2 7 2 12z" />
    <glyph glyph-name="sixsuperior" unicode="&#x2076;" horiz-adv-x="280" 
d="M325 723q-44 0 -57 -46q32 8 50 8q82 0 82 -66q0 -17 -5 -38q-29 -113 -144 -113q-95 0 -95 90q0 29 10 67q22 90 62.5 132.5t112.5 42.5q25 0 79 -8l16 -3l-23 -72q-58 6 -88 6zM249 601q-4 -17 -4 -29q0 -28 22 -28q29 0 39 36q2 8 2 13q0 20 -19.5 20t-39.5 -12z" />
    <glyph glyph-name="sevensuperior" unicode="&#x2077;" horiz-adv-x="280" 
d="M190 703l21 87h219l-23 -91l-156 -230l-100 18l149 200l3 16h-113z" />
    <glyph glyph-name="eightsuperior" unicode="&#x2078;" horiz-adv-x="280" 
d="M204 641q-19 9 -19 39q0 13 3 33q21 87 140 87q102 0 102 -63q0 -42 -22 -67.5t-34 -29.5q12 -4 18.5 -17t6.5 -25t-4 -28q-14 -57 -50.5 -79.5t-98.5 -22.5t-88 23q-16 15 -16 37t6 46.5t24.5 44t31.5 22.5zM270 605q-34 -16 -34 -47q0 -19 30 -19t39 32q1 5 1 9
q0 16 -16 25h-20zM306 669q31 13 31 43q0 17 -28.5 17t-36.5 -27q-1 -4 -1 -7q0 -16 15 -26h20z" />
    <glyph glyph-name="ninesuperior" unicode="&#x2079;" horiz-adv-x="280" 
d="M301 590q-33 -7 -48 -7q-81 0 -81 67q0 16 5 37q14 54 52 83.5t93 29.5q94 0 94 -94q0 -30 -10 -71q-23 -90 -61 -128.5t-109 -38.5q-39 0 -84 9l-15 3l24 73q46 -6 88 -6t52 43zM287 653q9 0 36 9q5 19 5 32q0 29 -23 29q-28 0 -38 -35q-2 -8 -2 -14q0 -21 22 -21z" />
    <glyph glyph-name="zeroinferior" unicode="&#x2080;" horiz-adv-x="280" 
d="M127 298q33 24 93 24q92 0 92 -89q0 -33 -11 -78q-26 -106 -75 -143q-32 -22 -93.5 -22t-82.5 36q-10 18 -10 50t11 79q27 107 76 143zM221 218q0 25 -23 25q-18 0 -30 -18t-24 -63t-12 -63.5t5.5 -24t20.5 -5.5t26.5 16.5t24 65t12.5 67.5z" />
    <glyph glyph-name="oneinferior" unicode="&#x2081;" horiz-adv-x="280" 
d="M73 139l121 73h81l-77 -312h-88l53 215l-65 -38z" />
    <glyph glyph-name="twoinferior" unicode="&#x2082;" horiz-adv-x="280" 
d="M81 212q70 10 121 10q80 0 80 -59q0 -83 -89 -142l-59 -42h108l-19 -79h-221l18 75l97 71q59 41 65 68q4 13 -5.5 18.5t-30.5 5.5l-82 -7z" />
    <glyph glyph-name="threeinferior" unicode="&#x2083;" horiz-adv-x="280" 
d="M79 213q66 9 116 9t69 -17.5t19 -35.5q0 -76 -55 -105q26 -12 26 -45q0 -13 -4 -30q-25 -99 -138 -99q-44 0 -98 6l-18 2l25 77q58 -6 95.5 -6t44.5 27q1 4 1 8q0 18 -30 18h-66l18 72h64q28 0 35 26q3 12 -4 17.5t-25 5.5l-89 -6z" />
    <glyph glyph-name="fourinferior" unicode="&#x2084;" horiz-adv-x="280" 
d="M135 -100l10 41h-138l18 73l104 198h97l-108 -192h47l33 89h76l-22 -89h17l-19 -79h-18l-10 -41h-87z" />
    <glyph glyph-name="fiveinferior" unicode="&#x2085;" horiz-adv-x="280" 
d="M159 10q0 16 -17.5 16t-41.5 -8l-64 8l56 186h199l-19 -76h-128l-15 -45q29 10 52 10q74 0 74 -63q0 -16 -5 -36q-15 -59 -49.5 -84.5t-91.5 -25.5q-44 0 -93 10l-17 4l25 72q52 -10 89 -10t44 30q2 7 2 12z" />
    <glyph glyph-name="sixinferior" unicode="&#x2086;" horiz-adv-x="280" 
d="M191 145q-44 0 -57 -46q32 8 50 8q82 0 82 -66q0 -17 -5 -38q-29 -113 -144 -113q-95 0 -95 90q0 29 10 67q22 90 62.5 132.5t112.5 42.5q25 0 79 -8l16 -3l-23 -72q-58 6 -88 6zM115 23q-4 -17 -4 -29q0 -28 22 -28q29 0 39 36q2 8 2 13q0 20 -19.5 20t-39.5 -12z" />
    <glyph glyph-name="seveninferior" unicode="&#x2087;" horiz-adv-x="280" 
d="M59 125l21 87h219l-23 -91l-156 -230l-100 18l149 200l3 16h-113z" />
    <glyph glyph-name="eightinferior" unicode="&#x2088;" horiz-adv-x="280" 
d="M70 63q-19 9 -19 39q0 13 3 33q21 87 140 87q102 0 102 -63q0 -42 -22 -67.5t-34 -29.5q12 -4 18.5 -17t6.5 -25t-4 -28q-14 -57 -50.5 -79.5t-98.5 -22.5t-88 23q-16 15 -16 37t6 46.5t24.5 44t31.5 22.5zM136 27q-34 -16 -34 -47q0 -19 30 -19t39 32q1 5 1 9
q0 16 -16 25h-20zM172 91q31 13 31 43q0 17 -29 17t-36 -27q-1 -4 -1 -7q0 -16 15 -26h20z" />
    <glyph glyph-name="nineinferior" unicode="&#x2089;" horiz-adv-x="280" 
d="M167 12q-33 -7 -48 -7q-81 0 -81 67q0 16 5 37q14 54 52 83.5t93 29.5q94 0 94 -94q0 -30 -10 -71q-23 -90 -61 -128.5t-109 -38.5q-41 0 -84 9l-15 3l24 73q46 -6 88 -6t52 43zM153 75q9 0 36 9q5 19 5 32q0 29 -23 29q-28 0 -38 -35q-2 -8 -2 -14q0 -21 22 -21z" />
    <glyph glyph-name="Euro" unicode="&#x20ac;" 
d="M343 -11q-193 0 -193 190v15h-55l20 86h42q7 48 17 85h-41l21 86h49q42 100 112.5 160t171.5 60q69 0 139 -19l24 -7l-25 -81q-66 14 -143 14q-101 0 -165 -127h234l-19 -86h-247q-12 -42 -18 -85h246l-20 -86h-232v-7q0 -104 96 -104q68 0 134 11l22 3l-8 -84
q-88 -24 -162 -24z" />
    <glyph glyph-name="trademark" unicode="&#x2122;" horiz-adv-x="693" 
d="M216 571v67h200v-67h-52v-239h-74v239h-74zM444 331v307h89l52 -180l56 180h88v-307h-69v196l-48 -178h-49l-50 178v-196h-69z" />
    <glyph glyph-name="Omega" unicode="&#x2126;" 
d="M108 84h98q-11 16 -27.5 43t-44 105.5t-27.5 148.5q0 152 52.5 221t179.5 69t179.5 -69t52.5 -221q0 -70 -25 -144.5t-50 -113.5l-25 -39h99v-93h-203v81q34 62 61.5 145t27.5 136q0 124 -22.5 172.5t-95 48.5t-94.5 -48.5t-22 -172.5q0 -53 22 -123t44 -114l23 -44v-81
h-203v93z" />
    <glyph glyph-name="partialdiff" unicode="&#x2202;" 
d="M345 719q130 0 188.5 -88t58.5 -276t-58 -276t-187 -88q-229 0 -229 224q0 104 56.5 162t158.5 58q68 0 123 -20l20 -7q-5 120 -37.5 169t-111.5 49q-32 0 -71 -10t-62 -20l-23 -9l-4 85q85 47 178 47zM476 316q-56 25 -121.5 25t-93.5 -34t-28 -92q0 -131 114 -131
q66 0 97.5 56t31.5 176z" />
    <glyph glyph-name="Delta" unicode="&#x2206;" 
d="M547 0h-464v84l139 576h187l138 -578v-82zM329 568h-27l-110 -475h246z" />
    <glyph glyph-name="product" unicode="&#x220f;" 
d="M453 -172v832h-153v-832h-112v832h-60v97h499v-97h-63v-832h-111z" />
    <glyph glyph-name="summation" unicode="&#x2211;" 
d="M103 757h487v-98h-369v-18l233 -301v-77l-233 -318v-20h369v-97h-487v122l250 352l-250 333v122z" />
    <glyph glyph-name="minus" unicode="&#x2212;" 
d="M121 202v98h432v-98h-432z" />
    <glyph glyph-name="radical" unicode="&#x221a;" 
d="M107 345v98h147l107 -483h12l191 825h110l-221 -918h-174l-116 478h-56z" />
    <glyph glyph-name="infinity" unicode="&#x221e;" 
d="M228 121q-65 0 -99 43.5t-34 127t33.5 127.5t97.5 44q41 0 70 -21t51 -69q22 48 51 69t70 21q64 0 97.5 -43.5t33.5 -127.5q0 -171 -133 -171q-40 0 -68.5 21t-50.5 68q-23 -50 -50 -69.5t-69 -19.5zM242 369q-47 0 -47 -77t47 -77q28 0 46 33q7 12 22 44
q-14 29 -20 40.5t-19.5 24t-28.5 12.5zM452 215q47 0 47 77t-47 77q-15 0 -28.5 -12.5t-19.5 -24t-20 -40.5q4 -13 9.5 -21t10 -16.5t6.5 -11.5t6.5 -9t8 -8t7.5 -6q8 -5 20 -5z" />
    <glyph glyph-name="integral" unicode="&#x222b;" 
d="M403 -12q0 -99 -37.5 -140.5t-106.5 -41.5q-27 0 -78 8l-15 3l4 90q31 -3 62.5 -3t45.5 19t14 67v595q0 110 32.5 152.5t110.5 42.5q29 0 83 -8l16 -3l-3 -90q-35 4 -68 4t-46.5 -22t-13.5 -76v-597z" />
    <glyph glyph-name="approxequal" unicode="&#x2248;" 
d="M437.5 267q-27.5 0 -106 25.5t-97.5 25.5t-46 -10.5t-44 -21.5l-17 -10l-10 88q64 52 121 52q29 0 104.5 -25.5t95.5 -25.5q36 0 89 31l17 10l9 -87q-18 -18 -53 -35t-62.5 -17zM437.5 62q-27.5 0 -106 25.5t-97.5 25.5t-46 -10.5t-44 -20.5l-17 -11l-10 88q64 52 121 52
q29 0 104.5 -25.5t95.5 -25.5t46 10t43 20l17 11l9 -87q-18 -18 -53 -35t-62.5 -17z" />
    <glyph glyph-name="notequal" unicode="&#x2260;" 
d="M119 301v98h227l68 155l86 -34l-54 -121h111v-98h-154l-44 -100h198v-98h-241l-64 -147l-85 34l49 113h-97v98h140l44 100h-184z" />
    <glyph glyph-name="lessequal" unicode="&#x2264;" 
d="M537 402l-299 -72l299 -79v-106l-421 133v95l421 135v-106zM116 20v98h421v-98h-421z" />
    <glyph glyph-name="greaterequal" unicode="&#x2265;" 
d="M428 330l-299 72v106l421 -135v-95l-421 -133v106zM550 118v-98h-421v98h421z" />
    <glyph glyph-name="lozenge" unicode="&#x25ca;" 
d="M281 172l-158 154l158 162h149l157 -162l-157 -154h-149zM365 247l112 79l-112 87h-20l-113 -87l113 -79h20z" />
    <glyph glyph-name="dotlessj" unicode="&#xf6be;" horiz-adv-x="228" 
d="M60 0l115 500h108l-115 -500q-18 -76 -35 -110t-41 -50q-52 -36 -135 -72l-35 87q83 42 103.5 64t34.5 81z" />
    <glyph glyph-name="commaaccent" unicode="&#xf6c3;" horiz-adv-x="161" 
d="M-63 -298l93 226h99l-102 -226h-90z" />
    <glyph glyph-name="questiondown.cap" horiz-adv-x="384" 
d="M51 149q0 70 32 113t125 111q60 45 68 84l9 40h102q0 -42 -7 -78q-10 -54 -97 -118q-68 -50 -92.5 -78t-24.5 -63t21 -47t57 -12q70 0 130 11l21 4l-11 -86q-89 -26 -158 -26q-175 0 -175 145zM436 700l-33 -146h-110l33 146h110z" />
    <glyph glyph-name="endash.cap" horiz-adv-x="556" 
d="M97 343h500v-93h-500v93z" />
    <glyph glyph-name="emdash.cap" horiz-adv-x="1056" 
d="M97 343h1000v-93h-1000v93z" />
    <glyph glyph-name="periodcentered.cap" horiz-adv-x="160" 
d="M85 261l33 146h110l-33 -146h-110z" />
    <glyph glyph-name="exclamdown.cap" horiz-adv-x="174" 
d="M240 439l-100 -454h-114l113 454h101zM299 685l-31 -135h-110l31 135h110z" />
    <glyph glyph-name="parenleft.cap" horiz-adv-x="231" 
d="M208 332q-24 -96 -24 -168q0 -135 12 -226l4 -31h-103q-26 92 -26 247q0 90 24 187t58 172q71 156 126 232l24 33h101q-27 -40 -70.5 -123.5t-72.5 -155t-53 -167.5z" />
    <glyph glyph-name="parenright.cap" horiz-adv-x="233" 
d="M184 358q24 96 24 168q0 135 -12 226l-4 31h103q26 -92 26 -247q0 -90 -24 -187t-58 -172q-71 -156 -126 -232l-24 -33h-101q27 40 70.5 123.5t72.5 155t53 167.5z" />
    <glyph glyph-name="bracketleft.cap" horiz-adv-x="259" 
d="M211 777h214l-22 -93h-102l-159 -683h101l-23 -93h-212z" />
    <glyph glyph-name="bracketright.cap" horiz-adv-x="258" 
d="M205 -92h-214l22 93h102l159 683h-101l23 93h212z" />
    <glyph glyph-name="braceleft.cap" horiz-adv-x="299" 
d="M195 342q62 -31 62 -84q0 -26 -23 -105.5t-23 -101.5q0 -57 71 -57l-26 -94q-72 1 -112 32t-40 88q0 25 22 106t22 100q0 51 -69 83l19 80q63 16 84 36.5t31 62.5q4 15 15.5 77t12.5 66q25 82 76.5 116.5t148.5 38.5l-18 -94q-51 -4 -75.5 -26.5t-34.5 -64.5l-23 -123
q-14 -59 -40.5 -88.5t-79.5 -47.5z" />
    <glyph glyph-name="braceright.cap" horiz-adv-x="298" 
d="M261 341q-62 31 -62 83q0 27 23 106.5t23 101.5q0 57 -71 57l26 94q72 -1 112 -32t40 -88q0 -25 -22 -106t-22 -100q0 -51 69 -83l-19 -80q-63 -16 -84 -36.5t-31 -62.5q-4 -15 -15.5 -77t-12.5 -66q-25 -82 -76.5 -116.5t-148.5 -38.5l18 94q51 4 75.5 26.5t34.5 64.5
l23 123q14 59 40.5 88.5t79.5 47.5z" />
    </font>
</defs>
</svg>
