<?xml version="1.0" standalone="no"?>
<!DOCTYPE svg PUBLIC "-//W3C//DTD SVG 1.1//EN" "http://www.w3.org/Graphics/SVG/1.1/DTD/svg11.dtd" >
<svg xmlns="http://www.w3.org/2000/svg" xmlns:xlink="http://www.w3.org/1999/xlink" version="1.1">
<metadata>
Created by FontForge 20170731 at Fri May  5 14:19:03 2017
 By Aleksey,,,
Copyright (c) 2009-2011 by Accademia di Belle Arti di Urbino and students of MA course of Visual design. Some rights reserved.
</metadata>
<defs>
<font id="TitilliumWeb-LightItalic" horiz-adv-x="560" >
  <font-face 
    font-family="Titillium Web Light"
    font-weight="300"
    font-style="italic"
    font-stretch="normal"
    units-per-em="1000"
    panose-1="0 0 4 0 0 0 0 0 0 0"
    ascent="800"
    descent="-200"
    x-height="500"
    cap-height="695"
    bbox="-154 -276 1124 1072"
    underline-thickness="30"
    underline-position="-130"
    slope="-13"
    unicode-range="U+0020-F6C3"
  />
<missing-glyph horiz-adv-x="223" 
 />
    <glyph glyph-name=".notdef" horiz-adv-x="223" 
 />
    <glyph glyph-name=".null" horiz-adv-x="0" 
 />
    <glyph glyph-name="nonmarkingreturn" horiz-adv-x="333" 
 />
    <glyph glyph-name="space" unicode=" " horiz-adv-x="220" 
 />
    <glyph glyph-name="exclam" unicode="!" horiz-adv-x="196" 
d="M120 223l109 477h60l-116 -477h-53zM70 0l23 100h61l-23 -100h-61z" />
    <glyph glyph-name="quotedbl" unicode="&#x22;" horiz-adv-x="314" 
d="M323 474h-54l51 221h57zM261 474h-54l51 221h57z" />
    <glyph glyph-name="numbersign" unicode="#" 
d="M573 184h-114l-45 -184h-56l45 184h-167l-45 -184h-56l45 184h-114l13 52h114l48 196h-114l13 52h114l47 183h56l-47 -183h167l47 183h56l-47 -183h114l-13 -52h-114l-48 -196h114zM416 236l48 196h-167l-48 -196h167z" />
    <glyph glyph-name="dollar" unicode="$" 
d="M433 672l29 -1l43 114h47l-45 -119q39 -5 85 -16l13 -3l-11 -45q-53 9 -107 14l-96 -253q71 -25 100 -54t29 -90q0 -106 -63 -167.5t-171 -61.5q-12 0 -38 2l-42 -112h-44l43 115l-109 17l11 48q59 -9 118 -14l105 277q-70 24 -100.5 53t-30.5 87q0 99 63.5 154t170.5 55
zM460 215q0 39 -18.5 57.5t-71.5 37.5l-102 -267h22q80 0 125 46t45 126zM259 467q0 -36 20 -54.5t71 -36.5l92 243h-13q-79 0 -124.5 -38.5t-45.5 -113.5z" />
    <glyph glyph-name="percent" unicode="%" 
d="M297 658q-57 0 -77 -83q-10 -37 -10 -57q0 -49 40 -49q31 0 49.5 23.5t28.5 63t10 59.5q0 43 -41 43zM166 6l344 700l44 -12l-344 -699zM167 566q34 136 141 136q81 0 81 -79q0 -25 -8 -58q-18 -70 -55 -105t-87 -35t-69 35q-11 19 -11 46t8 60zM415 0q-81 0 -81 83
q0 25 8 58q34 136 141 136q82 0 82 -79q0 -25 -8 -58q-17 -70 -54.5 -105t-87.5 -35zM513 188q0 45 -41 45q-30 0 -48.5 -22.5t-28 -60.5t-9.5 -58q0 -48 39 -48q57 0 81 96q7 28 7 48z" />
    <glyph glyph-name="ampersand" unicode="&#x26;" horiz-adv-x="633" 
d="M446 705q134 0 134 -116q0 -78 -50 -132t-151 -92l119 -165q38 62 62 138h59q-29 -98 -86 -181l98 -125l-42 -38l-93 119q-97 -123 -234 -123q-96 0 -140 38.5t-44 129t48.5 150.5t159.5 102q-26 54 -26 97q0 92 49.5 145t136.5 53zM269 44q117 0 194 111l-152 213
q-94 -34 -132 -85t-38 -132q0 -107 128 -107zM353 612q-31 -41 -31 -101t32 -107q88 35 126 77.5t38 104.5q0 67 -75 67q-59 0 -90 -41z" />
    <glyph glyph-name="quotesingle" unicode="'" horiz-adv-x="168" 
d="M219 474h-54l51 221h57z" />
    <glyph glyph-name="parenleft" unicode="(" horiz-adv-x="226" 
d="M174 293q-24 -99 -24 -173q0 -138 10 -218l4 -26h-56q-20 84 -20 204t23 219.5t56 176.5q69 160 122 238l23 34h58q-138 -214 -196 -455z" />
    <glyph glyph-name="parenright" unicode=")" horiz-adv-x="225" 
d="M196 337q24 99 24 173q0 138 -10 218l-4 26h56q20 -84 20 -204t-23 -219.5t-56 -176.5q-69 -160 -122 -238l-23 -34h-58q138 214 196 455z" />
    <glyph glyph-name="asterisk" unicode="*" horiz-adv-x="411" 
d="M488 514h-134l41 -127l-42 -13l-42 128l-108 -79l-26 35l109 79l-108 79l27 36l108 -79l41 127l43 -14l-41 -128h132v-44z" />
    <glyph glyph-name="plus" unicode="+" 
d="M114 223v56h194v201h57v-201h196v-56h-196v-203h-57v203h-194z" />
    <glyph glyph-name="comma" unicode="," horiz-adv-x="185" 
d="M47 -129h-49l94 229h66z" />
    <glyph glyph-name="hyphen" unicode="-" horiz-adv-x="354" 
d="M109 240l14 56h246l-14 -56h-246z" />
    <glyph glyph-name="period" unicode="." horiz-adv-x="172" 
d="M56 0l23 100h61l-23 -100h-61z" />
    <glyph glyph-name="slash" unicode="/" horiz-adv-x="406" 
d="M99 -7l-56 21l426 690l57 -21z" />
    <glyph glyph-name="zero" unicode="0" 
d="M243.5 593q72.5 77 169 77t146.5 -48.5t50 -142.5q0 -124 -36 -234t-109 -182.5t-167 -72.5t-144 48t-50 139q0 119 34 229t106.5 187zM411 616q-59 0 -108 -43t-78 -110q-60 -139 -60 -279t132 -140q59 0 108 40.5t79 104.5q62 136 62 281.5t-135 145.5z" />
    <glyph glyph-name="one" unicode="1" 
d="M240 529l236 132h54l-152 -661h-61l134 585l-195 -107z" />
    <glyph glyph-name="two" unicode="2" 
d="M491.5 410q45.5 54 45.5 107.5t-33 76.5t-100 23q-74 0 -158 -17l-29 -6l6 49q101 28 191 28q185 0 185 -144q0 -73 -47 -134t-138 -133l-256 -206h345l-13 -54h-422l12 50l270 226q96 80 141.5 134z" />
    <glyph glyph-name="three" unicode="3" 
d="M418 670q174 0 174 -133t-140 -186q41 -17 62 -48t21 -86q0 -104 -75.5 -165.5t-190.5 -61.5q-42 0 -90.5 8.5t-76.5 17.5l-27 8l14 47q106 -27 187.5 -27t139 46.5t57.5 122.5q0 104 -123 105h-130l13 50l130 2q56 0 111 44.5t55 107.5q0 49 -29 71.5t-80 22.5
q-93 0 -176 -15l-27 -5l6 47q97 27 195 27z" />
    <glyph glyph-name="four" unicode="4" 
d="M368 -1l30 128h-319l11 47l324 486h68l-325 -480h253l52 225h61l-52 -225h84l-12 -53h-84l-30 -128h-61z" />
    <glyph glyph-name="five" unicode="5" 
d="M384 413q171 0 171 -142q0 -118 -80.5 -198.5t-196.5 -80.5q-82 0 -176 24l-30 7l16 50q110 -27 194.5 -27t147 63.5t62.5 153.5q0 95 -123 95q-33 0 -75.5 -11.5t-67.5 -22.5l-26 -12l-50 9l105 339h372l-12 -54h-322l-77 -239q96 46 168 46z" />
    <glyph glyph-name="six" unicode="6" 
d="M613 600q-81 16 -141 16t-98 -16t-65 -40t-49 -58q-36 -56 -60 -136q96 45 187.5 45t135 -41t43.5 -115q0 -120 -70.5 -192.5t-194.5 -72.5q-90 0 -138 58t-48 167q0 123 55 239q28 60 68 108t100.5 78t131.5 30q64 0 138 -14l23 -5zM373 356q-39 0 -85 -11t-72 -21
l-27 -11q-11 -33 -11 -106t31 -118t93 -45q97 0 149 55.5t52 141.5q0 59 -30.5 87t-99.5 28z" />
    <glyph glyph-name="seven" unicode="7" 
d="M221 605l13 55h394l-23 -100l-396 -571l-55 19l391 561l8 36h-332z" />
    <glyph glyph-name="eight" unicode="8" 
d="M311 652q56 19 143 19t136 -35t49 -98t-44 -116.5t-122 -75.5q56 -21 76.5 -52t20.5 -64.5t-7 -60t-27 -59.5t-51.5 -58.5t-87.5 -43.5t-127 -18q-204 0 -204 137q0 148 173 219q-46 23 -62.5 48.5t-16.5 65t15.5 75.5t47.5 67t88 50zM170.5 68q38.5 -24 105 -24
t111.5 17t69 43q50 54 50 103.5t-24.5 71t-81.5 37.5h-104q-69 -19 -116.5 -62.5t-47.5 -117.5q0 -44 38.5 -68zM426 616q-105 0 -154.5 -44.5t-49.5 -106.5q0 -33 19.5 -56t67.5 -40h104q82 20 129 75q30 35 30 80q0 92 -146 92z" />
    <glyph glyph-name="nine" unicode="9" 
d="M429 670q165 0 165 -193q0 -57 -15 -129q-34 -186 -123 -272t-218 -86q-70 0 -136 16l-24 5l21 54q76 -18 154 -18q191 0 254 243q-124 -38 -195 -38q-94 0 -136 48q-28 34 -28 92q0 25 5 55q19 97 95 160t181 63zM538 464q0 150 -123 150q-73 0 -129 -44.5t-71 -119.5
q-5 -24 -5 -44q0 -98 121 -98q60 0 157 27l33 9q17 67 17 120z" />
    <glyph glyph-name="colon" unicode=":" horiz-adv-x="174" 
d="M134 338l23 100h61l-23 -100h-61zM56 0l23 100h61l-23 -100h-61z" />
    <glyph glyph-name="semicolon" unicode=";" horiz-adv-x="207" 
d="M10 -129l94 229h66l-111 -229h-49zM154 338l23 100h61l-23 -100h-61z" />
    <glyph glyph-name="less" unicode="&#x3c;" 
d="M524 423l-359 -171l359 -174v-64l-420 210v54l420 208v-63z" />
    <glyph glyph-name="equal" unicode="=" 
d="M123 312v56h429v-56h-429zM123 133v56h429v-56h-429z" />
    <glyph glyph-name="greater" unicode="&#x3e;" 
d="M508 252l-359 171v63l420 -208v-54l-420 -210v64z" />
    <glyph glyph-name="question" unicode="?" horiz-adv-x="410" 
d="M456 674.5q43 -30.5 43 -87.5t-16.5 -93.5t-47.5 -66.5t-102.5 -87t-82.5 -108l-8 -39h-57q2 29 7 55q13 66 103 135q85 68 112.5 104t27.5 90q0 72 -108 72q-57 0 -121 -14l-23 -5l3 50q88 25 157.5 25t112.5 -30.5zM146 1l22 103h62l-23 -103h-61z" />
    <glyph glyph-name="at" unicode="@" horiz-adv-x="927" 
d="M639 719q93 0 160.5 -22t104.5 -60q69 -71 69 -193q0 -63 -21.5 -153.5t-46.5 -153t-55.5 -94t-60 -42.5t-71.5 -11q-86 0 -95 59q-118 -59 -191 -59q-49 0 -77.5 20.5t-35 55t-6.5 50.5q0 45 8 93q53 301 254 301q54 0 183 -24q-19 -73 -51 -218.5t-32 -175t12.5 -37.5
t46 -8t58.5 17t53 75.5t48 145t21.5 115.5t1.5 54t-11.5 68t-42.5 74q-67 69 -234 69q-191 0 -298.5 -93.5t-160.5 -308.5q-21 -85 -21 -152q0 -256 301 -256l136 9l-10 -54q-95 -10 -140 -10q-101 0 -173 28t-108.5 73t-50.5 101.5t-14 87.5t2 67.5t18 105.5
q58 248 182.5 352t347.5 104zM448 46q65 0 167 55q5 57 73 341q-56 15 -117 15q-77 0 -120.5 -62.5t-69.5 -186.5q-9 -42 -9 -73q0 -89 74 -89h2z" />
    <glyph glyph-name="A" unicode="A" horiz-adv-x="555" 
d="M27 0l355 695h126l23 -695h-61l-8 191h-274l-99 -191h-62zM417 640l-202 -395h247l-13 395h-32z" />
    <glyph glyph-name="B" unicode="B" horiz-adv-x="578" 
d="M461 695q82 0 122.5 -31t40.5 -104t-38 -125t-96 -75q44 -16 66 -44t22 -76q0 -111 -68.5 -175.5t-194.5 -64.5h-234l160 695h220zM386 328h-168l-63 -274h173q88 0 137 49.5t49 135.5q0 50 -33.5 69.5t-94.5 19.5zM450 641h-161l-59 -259h166q73 0 119 49.5t46 122.5
q0 49 -26 68t-85 19z" />
    <glyph glyph-name="C" unicode="C" horiz-adv-x="506" 
d="M305 -10q-190 0 -190 199q0 142 53 273q28 69 67.5 122.5t99 87t129.5 33.5q69 0 141 -17l24 -5l-14 -50q-81 16 -151.5 16t-125.5 -43.5t-88 -112.5q-71 -145 -71 -302q0 -74 32.5 -109.5t102.5 -35.5q75 0 139 12l23 5l-3 -51q-89 -22 -168 -22z" />
    <glyph glyph-name="D" unicode="D" horiz-adv-x="607" 
d="M319 0h-238l160 695h225q93 0 138 -49.5t45 -156.5q0 -138 -51 -262q-56 -140 -158 -196q-55 -31 -121 -31zM568.5 348.5q16.5 73.5 16.5 146.5t-30.5 109t-100.5 36h-164l-134 -585h173q61 0 111.5 43.5t81 110t47 140z" />
    <glyph glyph-name="E" unicode="E" horiz-adv-x="507" 
d="M81 0l160 695h383l-13 -55h-321l-60 -258h266l-13 -55h-265l-63 -272h321l-13 -55h-382z" />
    <glyph glyph-name="F" unicode="F" horiz-adv-x="483" 
d="M81 0l160 695h374l-13 -55h-312l-67 -290h268l-13 -54h-268l-68 -296h-61z" />
    <glyph glyph-name="G" unicode="G" horiz-adv-x="573" 
d="M320 -10q-204 0 -204 192q0 195 84 352q42 77 111.5 124t157.5 47q84 0 171 -22l27 -7l-16 -48q-101 22 -180.5 22t-135.5 -45t-89 -117q-66 -146 -66 -307q0 -136 146 -136q56 0 116 13l20 5l56 238h-115l12 53h177l-79 -336q-93 -28 -193 -28z" />
    <glyph glyph-name="H" unicode="H" horiz-adv-x="624" 
d="M482 0l74 322h-340l-74 -322h-61l160 695h62l-74 -318h340l74 318h61l-160 -695h-62z" />
    <glyph glyph-name="I" unicode="I" horiz-adv-x="223" 
d="M81 0l160 695h62l-161 -695h-61z" />
    <glyph glyph-name="J" unicode="J" horiz-adv-x="260" 
d="M343 695l-134 -581q-22 -92 -39.5 -123.5t-38.5 -41.5q-42 -20 -124 -20l10 55q67 1 89.5 24.5t42.5 112.5l133 574h61z" />
    <glyph glyph-name="K" unicode="K" horiz-adv-x="516" 
d="M432 0l-112 315l-106 -2l-72 -313h-61l160 695h62l-76 -327l98 2l262 325h70l-283 -351l123 -344h-65z" />
    <glyph glyph-name="L" unicode="L" horiz-adv-x="436" 
d="M429 0h-348l160 695h62l-148 -640h286z" />
    <glyph glyph-name="M" unicode="M" horiz-adv-x="778" 
d="M81 0l160 695h109l54 -608l344 608h110l-161 -695h-62l149 640h-11l-347 -617h-67l-58 617h-11l-148 -640h-61z" />
    <glyph glyph-name="N" unicode="N" horiz-adv-x="625" 
d="M81 0l160 695h116l121 -634h21l146 634h60l-160 -695h-112l-124 636h-22l-147 -636h-59z" />
    <glyph glyph-name="O" unicode="O" horiz-adv-x="631" 
d="M215 80q35 -35 112 -35t130 42q73 58 112.5 174t39.5 234q0 80 -37 117.5t-109 37.5t-123 -40q-75 -58 -117.5 -178.5t-42.5 -232.5q0 -84 35 -119zM630 241.5q-43 -121.5 -121.5 -186.5t-185 -65t-156.5 48t-50 167t41.5 238t120 190.5t180.5 71.5q214 0 214 -207
q0 -135 -43 -256.5z" />
    <glyph glyph-name="P" unicode="P" horiz-adv-x="547" 
d="M366 241h-168l-56 -241h-61l160 695h224q84 0 122.5 -39t38.5 -118q0 -131 -68 -214t-192 -83zM376 296q91 0 138.5 69t47.5 173q0 51 -24.5 76t-80.5 25h-167l-79 -343h165z" />
    <glyph glyph-name="Q" unicode="Q" horiz-adv-x="631" 
d="M328 -10q-111 0 -161 48t-50 167t41.5 238t120 190.5t180.5 71.5q214 0 214 -207q0 -135 -43 -256q-56 -159 -172 -221l47 -145l-58 -19l-45 143q-38 -10 -74 -10zM215 80q35 -35 112 -35t130 42q73 58 112.5 174t39.5 234q0 80 -37 117.5t-109 37.5t-123 -40
q-75 -58 -117.5 -178.5t-42.5 -232.5q0 -84 35 -119z" />
    <glyph glyph-name="R" unicode="R" horiz-adv-x="566" 
d="M457 695q87 0 129.5 -37.5t42.5 -122.5q0 -112 -56 -176.5t-128 -80.5l81 -278h-62l-77 270h-182l-63 -270h-61l160 695h216zM565 533q0 59 -27.5 83.5t-88.5 24.5h-159l-73 -317h162q84 0 135 58t51 151z" />
    <glyph glyph-name="S" unicode="S" horiz-adv-x="500" 
d="M580 632q-104 18 -180.5 18t-124 -41t-47.5 -119q0 -43 27 -62t105.5 -45t110 -57t31.5 -96q0 -111 -66.5 -175.5t-179.5 -64.5q-76 0 -170 18l-29 5l11 50q117 -18 197 -18t127 48t47 133q0 45 -23 64.5t-100.5 44.5t-114 56t-36.5 95q0 104 67 161.5t179 57.5
q78 0 155 -19l25 -7z" />
    <glyph glyph-name="T" unicode="T" horiz-adv-x="472" 
d="M157 640l13 55h450l-13 -55h-194l-148 -640h-61l147 640h-194z" />
    <glyph glyph-name="U" unicode="U" horiz-adv-x="593" 
d="M176 139q0 -93 139 -93q84 0 126.5 38.5t61.5 121.5l113 489h62l-113 -490q-26 -110 -85 -162.5t-160 -52.5q-205 0 -205 142q0 45 11 86l110 477h61l-111 -482q-10 -40 -10 -74z" />
    <glyph glyph-name="V" unicode="V" horiz-adv-x="542" 
d="M611 695h62l-335 -695h-140l-14 695h62l9 -640h48z" />
    <glyph glyph-name="W" unicode="W" horiz-adv-x="820" 
d="M190 695h61l-29 -639h30l280 629h66l-15 -629h28l272 639h62l-299 -695h-117l16 589l-261 -589h-120z" />
    <glyph glyph-name="X" unicode="X" horiz-adv-x="512" 
d="M248 695l100 -301l239 301h69l-283 -352l117 -343h-63l-101 298l-242 -298h-69l285 348l-115 347h63z" />
    <glyph glyph-name="Y" unicode="Y" horiz-adv-x="490" 
d="M635 695l-295 -397l-70 -298h-59l70 304l-108 391h62l89 -337l245 337h66z" />
    <glyph glyph-name="Z" unicode="Z" horiz-adv-x="496" 
d="M188 640l13 55h416l-22 -93l-472 -523l-6 -24h350l-13 -55h-416l21 90l471 522l7 28h-349z" />
    <glyph glyph-name="bracketleft" unicode="[" horiz-adv-x="283" 
d="M238 747h187l-12 -53h-127l-179 -763h127l-14 -53h-186z" />
    <glyph glyph-name="backslash" unicode="\" horiz-adv-x="411" 
d="M383 10l-63 -10l-131 691l63 10z" />
    <glyph glyph-name="bracketright" unicode="]" horiz-adv-x="283" 
d="M190 -121h-187l12 53h127l179 763h-127l14 53h186z" />
    <glyph glyph-name="asciicircum" unicode="^" 
d="M496 320l-153 280l-147 -280h-65l184 340h55l191 -340h-65z" />
    <glyph glyph-name="underscore" unicode="_" horiz-adv-x="602" 
d="M58 -79h449l-15 -60h-447z" />
    <glyph glyph-name="grave" unicode="`" horiz-adv-x="518" 
d="M318 734l176 -94l-28 -41l-177 88z" />
    <glyph glyph-name="a" unicode="a" horiz-adv-x="493" 
d="M216 -10q-125 0 -125 141q0 131 63 249q30 57 79.5 93.5t108.5 36.5q54 0 159 -18l35 -6l-76 -325q-14 -56 -24 -134l-4 -26l-58 -2q15 93 19 114q-4 -5 -10.5 -13.5t-26 -29.5t-39.5 -37t-48 -29.5t-53 -13.5zM467 442q-72 15 -127.5 15t-100.5 -55t-65.5 -127.5
t-20.5 -130t18.5 -79.5t55.5 -22t80 35t71 70l28 36z" />
    <glyph glyph-name="b" unicode="b" horiz-adv-x="492" 
d="M386 510q74 0 102 -39t28 -112q0 -88 -36 -183q-44 -113 -121 -160q-44 -26 -87 -26q-77 0 -170 18l-31 6l164 708h60l-69 -295q9 9 24.5 23t57.5 37t78 23zM141 57q75 -14 123.5 -14t88.5 37.5t61 91.5q40 108 40 171t-16.5 88t-68.5 25q-30 0 -69.5 -23.5t-63.5 -46.5
l-25 -24z" />
    <glyph glyph-name="c" unicode="c" horiz-adv-x="404" 
d="M460 498l17 -4l-15 -48q-62 11 -106 11q-66 0 -112 -47q-88 -88 -88 -263q0 -52 26 -78t84 -26q35 0 94 12l19 4l-3 -48q-68 -21 -128 -21q-153 0 -153 147q0 151 63 258q32 53 83.5 84t108.5 31t110 -12z" />
    <glyph glyph-name="d" unicode="d" horiz-adv-x="493" 
d="M213 -10q-122 0 -122 139q0 88 28.5 173.5t87 146t133.5 60.5q50 0 116 -13l21 -4l54 230h60l-168 -722h-58l22 98q-51 -68 -120 -96q-28 -12 -54 -12zM466 442q-67 15 -125 15t-102.5 -55.5t-65 -128.5t-20.5 -144q0 -86 78 -86q33 0 76 32t70 65l27 32z" />
    <glyph glyph-name="e" unicode="e" horiz-adv-x="458" 
d="M181.5 70q27.5 -26 67.5 -26q77 0 147 18l24 7l-4 -49q-87 -30 -166 -30q-157 0 -157 148q0 136 65 249q31 55 84 88.5t120 33.5q141 0 141 -114q0 -88 -68 -123.5t-213 -35.5h-56q-12 -50 -12 -95t27.5 -71zM234 285q110 0 159.5 23.5t49.5 86.5t-84 63
q-131 0 -184 -173h59z" />
    <glyph glyph-name="f" unicode="f" horiz-adv-x="305" 
d="M380 732q32 0 70 -9l12 -3l-12 -47q-41 7 -78 7t-59 -30t-40 -103l-12 -47h142l-14 -53h-139l-104 -447l-60 -225h-52l156 672h-60l13 53h58l12 49q24 101 61.5 142t105.5 41z" />
    <glyph glyph-name="g" unicode="g" horiz-adv-x="464" 
d="M189 -237q-78 0 -123.5 35.5t-45.5 94.5q0 85 135 157q-15 15 -15 38t13 47.5t27 38.5l13 15q-69 31 -69 112.5t54.5 145t145.5 63.5q46 0 79 -12l11 -4l148 6l-12 -53h-97q19 -29 19 -73q0 -75 -55.5 -138t-155.5 -63l-30 2q-35 -44 -35 -67.5t18.5 -31t88 -16
t104 -34.5t34.5 -81q0 -74 -69 -128t-183 -54zM111 -28q-33 -32 -33 -69.5t30 -62.5t96.5 -25t122 35t55.5 91q0 34 -23 48.5t-85.5 21.5t-84.5 16q-45 -23 -78 -55zM269 224q70 0 108 47.5t38 94.5t-22 69.5t-78.5 22.5t-94.5 -47.5t-38 -100.5q0 -86 87 -86z" />
    <glyph glyph-name="h" unicode="h" horiz-adv-x="495" 
d="M393 510q56 0 86 -33t30 -84.5t-20 -138.5l-59 -254h-59l59 252q18 77 18 125q0 79 -74 79q-33 0 -75 -31.5t-68 -62.5l-26 -32l-76 -330h-60l167 722h60l-74 -320q51 68 118 96q28 12 53 12z" />
    <glyph glyph-name="i" unicode="i" horiz-adv-x="197" 
d="M68 0l116 500h60l-116 -500h-60zM210 616l19 80h60l-18 -80h-61z" />
    <glyph glyph-name="j" unicode="j" horiz-adv-x="197" 
d="M68 0l116 500h60l-116 -500q-26 -113 -56.5 -149t-143.5 -88l-20 49q93 47 116.5 75t43.5 113zM212 617l18 78h60l-18 -78h-60z" />
    <glyph glyph-name="k" unicode="k" horiz-adv-x="440" 
d="M129 0h-60l167 722h60l-98 -425l71 2l195 201h71l-221 -230l102 -270h-64l-94 247l-73 -1z" />
    <glyph glyph-name="l" unicode="l" horiz-adv-x="207" 
d="M74 0l167 722h59l-167 -722h-59z" />
    <glyph glyph-name="m" unicode="m" horiz-adv-x="774" 
d="M447 377q0 79 -74 79q-33 0 -75 -31t-68 -63l-25 -31l-77 -331h-60l116 500h58l-20 -97q51 68 118 95q27 12 54.5 12t49.5 -9.5t32 -23.5q22 -28 27 -61q5 6 29.5 27.5t43.5 34.5q49 32 101 32t82 -33t30 -82t-20 -141l-59 -254h-60l59 252q19 81 19 122q0 82 -74 82
q-30 0 -67.5 -24.5t-59.5 -49.5l-22 -24q-2 -43 -17 -104l-59 -254h-60l59 252q19 81 19 125z" />
    <glyph glyph-name="n" unicode="n" horiz-adv-x="494" 
d="M392 510q57 0 87 -33t30 -85t-20 -136l-60 -256h-59l59 252q19 81 19 125q0 79 -75 79q-33 0 -75 -31t-68 -63l-25 -31l-77 -331h-60l116 500h58l-21 -97q50 67 119 95q27 12 52 12z" />
    <glyph glyph-name="o" unicode="o" horiz-adv-x="494" 
d="M345 509q168 0 168 -165q0 -148 -70.5 -251t-184.5 -103q-164 0 -164 158q0 149 71.5 255t179.5 106zM258 43q86 0 140 88.5t54 213.5q0 51 -27 81.5t-80 30.5q-83 0 -137 -92t-54 -217q0 -105 104 -105z" />
    <glyph glyph-name="p" unicode="p" horiz-adv-x="492" 
d="M390 510q126 0 126 -142q0 -85 -27.5 -169.5t-86.5 -146.5t-135 -62q-57 0 -117 14l-20 4l-54 -233h-59l167 725h58l-22 -99q9 12 31.5 34.5t41.5 36.5q52 38 97 38zM374 456q-31 0 -73.5 -32t-69.5 -64l-27 -33l-63 -269q67 -15 118.5 -15t88.5 32.5t60 82.5
q47 106 47 208q0 90 -81 90z" />
    <glyph glyph-name="q" unicode="q" horiz-adv-x="491" 
d="M216 -10q-63 0 -94.5 36.5t-31.5 113t28 161.5t87 146.5t134 61.5q58 0 163 -17l33 -6l-163 -704h-59l73 316q-52 -69 -118 -96q-27 -12 -52 -12zM465 442q-65 15 -123.5 15t-103 -54t-65.5 -127t-21 -143q0 -90 81 -90q40 0 91 46q49 44 68 69l11 14z" />
    <glyph glyph-name="r" unicode="r" horiz-adv-x="311" 
d="M68 0l117 500h59l-18 -75q96 66 187 85l-15 -61q-58 -14 -152 -63l-31 -16l-86 -370h-61z" />
    <glyph glyph-name="s" unicode="s" horiz-adv-x="428" 
d="M470 443q-93 14 -153 14t-95 -32t-35 -77q0 -27 19.5 -40t87 -29t98 -37t30.5 -72q0 -87 -60.5 -133.5t-154.5 -46.5q-69 0 -133 16l-22 5l11 48q92 -16 154 -16t103 29t41 86q0 32 -21 44.5t-87 28t-96 37t-30 67.5q0 76 54.5 125t139.5 49q66 0 138 -13l24 -5z" />
    <glyph glyph-name="t" unicode="t" horiz-adv-x="315" 
d="M179 94q0 -51 55 -51l80 6l-4 -47q-52 -12 -96.5 -12t-71 24t-26.5 64t17 108l61 261h-68l13 53h68l37 153h60l-38 -153h149l-13 -53h-148l-62 -264q-13 -56 -13 -89z" />
    <glyph glyph-name="u" unicode="u" horiz-adv-x="494" 
d="M217 -10q-56 0 -86.5 33t-30.5 85t20 136l60 256h59l-59 -252q-19 -81 -19 -122q0 -82 75 -82q33 0 75 31t67 62l26 31l77 332h60l-116 -500h-58l21 97q-50 -67 -118 -95q-28 -12 -53 -12z" />
    <glyph glyph-name="v" unicode="v" horiz-adv-x="452" 
d="M142 500h59l14 -448h35l228 448h63l-259 -500h-123z" />
    <glyph glyph-name="w" unicode="w" horiz-adv-x="723" 
d="M146 500h60l-3 -448h17l217 438h72l10 -438h18l208 448h61l-232 -500h-111l-8 413l-202 -413h-109z" />
    <glyph glyph-name="x" unicode="x" horiz-adv-x="416" 
d="M140 500h62l74 -209l169 209h66l-211 -255l90 -245h-63l-72 204l-166 -204h-67l208 250z" />
    <glyph glyph-name="y" unicode="y" horiz-adv-x="452" 
d="M142 500h59l14 -448h34l229 448h63l-374 -724h-61l118 224h-65z" />
    <glyph glyph-name="z" unicode="z" horiz-adv-x="418" 
d="M141 447l14 53h340l-11 -52l-363 -396h271l-12 -52h-341l9 52l362 395h-269z" />
    <glyph glyph-name="braceleft" unicode="{" horiz-adv-x="319" 
d="M221 223q0 -19 -24 -103.5t-24 -115.5q0 -74 96 -74l-15 -56q-141 4 -141 113q0 33 24 118.5t24 109.5q0 49 -73 73l12 50q65 17 89 42.5t35 79.5q3 13 8 44q13 74 20 94q25 79 72.5 114t136.5 39l-10 -55q-69 -4 -103 -34.5t-47 -92.5q0 -2 -9 -53t-13 -65
q-14 -62 -40.5 -92t-80.5 -48q63 -25 63 -88z" />
    <glyph glyph-name="bar" unicode="|" horiz-adv-x="306" 
d="M180 -225v947h60v-947h-60z" />
    <glyph glyph-name="braceright" unicode="}" horiz-adv-x="318" 
d="M241 400q0 18 24 103t24 116q0 74 -96 74l15 56q141 -4 141 -113q0 -33 -24 -118.5t-24 -109.5q0 -49 73 -73l-12 -50q-65 -17 -89 -42.5t-35 -79.5q-3 -13 -8 -45q-13 -73 -20 -93q-25 -79 -72.5 -114t-136.5 -39l10 55q69 4 103 34.5t47 92.5q0 2 9 53t13 65
q14 62 40.5 92t80.5 48q-63 24 -63 88z" />
    <glyph glyph-name="asciitilde" unicode="~" 
d="M441 201q-30 0 -104.5 33t-92.5 33q-34 0 -88 -37l-17 -12l-11 51q62 54 115 54q29 0 103 -33t92 -33q35 0 88 36l17 12l11 -50q-60 -54 -113 -54z" />
    <glyph glyph-name="uni00A0" unicode="&#xa0;" horiz-adv-x="220" 
 />
    <glyph glyph-name="exclamdown" unicode="&#xa1;" horiz-adv-x="182" 
d="M184 277l-109 -477h-60l116 477h53zM234 500l-23 -100h-61l23 100h61z" />
    <glyph glyph-name="cent" unicode="&#xa2;" 
d="M158 162q0 37 12 86q27 103 82.5 157t133.5 56l29 124h52l-30 -124l98 -10l-16 -54q-84 8 -120 8q-130 0 -169 -157q-11 -52 -11 -82.5t25.5 -50.5t81.5 -20l128 7l-12 -53q-63 -8 -103 -8l-29 -123h-52l29 120q-129 2 -129 124z" />
    <glyph glyph-name="sterling" unicode="&#xa3;" 
d="M590 617q-71 8 -107.5 8t-52 -4.5t-27.5 -17t-19.5 -22.5t-15.5 -34q-9 -27 -23 -83l-12 -49h203l-12 -53h-204l-69 -309h150l77 17v-52l-80 -18h-317l12 53h96l70 309h-74l13 53h74l12 56q26 110 64 159t123 49q53 0 111 -11l21 -4z" />
    <glyph glyph-name="currency" unicode="&#xa4;" 
d="M337 75q-56 0 -102 33l-70 -71l-42 43l70 69q-33 46 -33 102.5t33 102.5l-70 70l42 43l70 -71q46 32 102 32t102 -32l71 71l42 -43l-71 -71q32 -46 32 -102t-32 -101l71 -70l-42 -43l-71 71q-46 -33 -102 -33zM338 133q50 0 84 34.5t34 84t-34 84t-84 34.5t-85 -34
t-35 -84t35 -84.5t85 -34.5z" />
    <glyph glyph-name="yen" unicode="&#xa5;" 
d="M142 318l12 54h139l-115 289h66l116 -291l244 291h79l-245 -289h135l-12 -54h-166l-15 -18l-18 -77h177l-13 -55h-177l-40 -168h-60l39 168h-181l13 55h180l18 79l-4 16h-172z" />
    <glyph glyph-name="brokenbar" unicode="&#xa6;" horiz-adv-x="313" 
d="M184 722h60v-375h-60v375zM184 152h60v-377h-60v377z" />
    <glyph glyph-name="section" unicode="&#xa7;" horiz-adv-x="466" 
d="M382 597q-70 0 -107.5 -34.5t-37.5 -91.5q0 -37 24 -51t87 -25q127 -23 127 -107q0 -71 -76 -166q17 -23 17 -49.5t-5.5 -50t-21 -52.5t-38.5 -53t-63 -40t-78 -16q-66 0 -146 12l-26 4l17 54q102 -14 160.5 -14t98.5 41.5t40 88.5q0 31 -21.5 44.5t-92.5 26t-101 40
t-30 68.5t21 80q30 56 64 83q-20 24 -20 73q0 75 58.5 133t160.5 58q60 0 125 -11l23 -4l-15 -55q-99 14 -144 14zM171 244q0 -27 21 -43t80.5 -27t86.5 -26q3 3 15.5 22t26 50.5t13.5 55.5t-22.5 39.5t-75.5 25.5q-70 11 -85 24q-22 -22 -41 -58t-19 -63z" />
    <glyph glyph-name="dieresis" unicode="&#xa8;" horiz-adv-x="722" 
d="M249 625l19 82h49l-19 -82h-49zM428 625l18 82h49l-19 -82h-48z" />
    <glyph glyph-name="copyright" unicode="&#xa9;" horiz-adv-x="645" 
d="M162 434q0 114 74 192t186.5 78t186.5 -78.5t74 -192.5t-73.5 -191.5t-186.5 -77.5t-187 78t-74 192zM202 434q0 -96 63 -163.5t157.5 -67.5t158 67t63.5 163.5t-64 164t-158 67.5t-157 -67.5t-63 -163.5zM424 278q-63 0 -88 38t-25 117.5t25 118t89 38.5q40 0 66 -6
l10 -3l-3 -46q-39 7 -75.5 7t-49.5 -25t-13 -82t14 -83t53 -26l71 7l3 -45q-39 -10 -77 -10z" />
    <glyph glyph-name="ordfeminine" unicode="&#xaa;" horiz-adv-x="348" 
d="M355 584q0 29 -39 29l-112 -7l6 40q73 13 121 13t67 -21q13 -14 13 -34t-5 -40l-32 -138q6 -12 27 -18l-11 -40q-30 0 -43 5.5t-23 18.5q-64 -24 -109 -24q-71 0 -71 59q0 13 4 28q10 41 34.5 60.5t72.5 22.5l92 6l6 22q2 10 2 18zM200 439q0 -26 29 -26q34 0 77 13l15 5
l17 73l-82 -5q-44 -3 -54 -44q-2 -9 -2 -16z" />
    <glyph glyph-name="guillemotleft" unicode="&#xab;" horiz-adv-x="437" 
d="M478 402l-19 -63l-136 -92l91 -102l-17 -56l-135 145l11 31zM303 402l-19 -63l-136 -92l91 -102l-17 -56l-135 145l11 31z" />
    <glyph glyph-name="logicalnot" unicode="&#xac;" 
d="M126 338h425v-218h-57v163h-368v55z" />
    <glyph glyph-name="registered" unicode="&#xae;" horiz-adv-x="645" 
d="M162 434q0 114 74 192t186.5 78t186.5 -78.5t74 -192.5t-73.5 -191.5t-186.5 -77.5t-187 78t-74 192zM202 434q0 -96 63 -163.5t157.5 -67.5t158 67t63.5 163.5t-64 164t-158 67.5t-157 -67.5t-63 -163.5zM364 394v-111h-48v300h103q58 0 86 -21t28 -72q0 -71 -54 -90
l59 -117h-52l-54 111h-68zM363 542v-107h67q30 0 42.5 12t12.5 41.5t-16.5 41.5t-51.5 12h-54z" />
    <glyph glyph-name="macron" unicode="&#xaf;" horiz-adv-x="433" 
d="M232 642l11 47h267l-12 -47h-266z" />
    <glyph glyph-name="degree" unicode="&#xb0;" 
d="M270 565q0 62 38.5 101t100.5 39t101 -39t39 -101t-39 -100t-101 -38t-100.5 38t-38.5 100zM340 635.5q-26 -26.5 -26 -70t26 -70t69.5 -26.5t70.5 26.5t27 69.5t-27 70t-70.5 27t-69.5 -26.5z" />
    <glyph glyph-name="plusminus" unicode="&#xb1;" 
d="M103 298v56h194v130h57v-130h196v-56h-196v-133h-57v133h-194zM103 98h447v-56h-447v56z" />
    <glyph glyph-name="twosuperior" unicode="&#xb2;" horiz-adv-x="280" 
d="M346 720q0 28 -44 28q-27 0 -74 -8l-15 -2l10 49q60 12 102 12q79 0 79 -58q0 -72 -96 -146l-83 -68h134l-12 -49h-204l12 48l115 93q34 27 51.5 46t21 34t3.5 21z" />
    <glyph glyph-name="threesuperior" unicode="&#xb3;" horiz-adv-x="280" 
d="M345 641q37 -12 37 -43q0 -14 -5 -34q-23 -96 -129 -96q-37 0 -91 8l-16 3l15 47q54 -8 104 -8t62 47q3 10 3 18q0 31 -42 31h-65l11 47h65q16 0 33.5 15t22.5 35t-4.5 29.5t-33.5 9.5q-42 0 -84 -6l-14 -2l8 47q60 10 103 10q85 0 85 -56q0 -35 -24 -69q-15 -20 -41 -33
z" />
    <glyph glyph-name="acute" unicode="&#xb4;" horiz-adv-x="542" 
d="M285 601l-6 46l218 94l7 -53z" />
    <glyph glyph-name="mu" unicode="&#xb5;" 
d="M204 200q-8 -42 -8 -78.5t19.5 -57t54 -20.5t76.5 31t68 62l25 31l77 332h60l-116 -500h-58l21 97q-50 -67 -119 -95q-27 -12 -52 -12q-57 0 -88 34l-58 -249h-60l169 725h59l-53 -225h1z" />
    <glyph glyph-name="paragraph" unicode="&#xb6;" horiz-adv-x="554" 
d="M147 476q0 83 64 153.5t158 70.5h310l-11 -54h-78l-154 -646h-52l154 646h-122l-155 -646h-52l82 338q-73 1 -108.5 40t-35.5 98z" />
    <glyph glyph-name="periodcentered" unicode="&#xb7;" horiz-adv-x="174" 
d="M114 254l23 105h63l-23 -105h-63z" />
    <glyph glyph-name="cedilla" unicode="&#xb8;" horiz-adv-x="791" 
d="M419 -48q83 0 83 -54q0 -10 -3 -22q-19 -83 -104 -83l-78 6l11 44q39 -4 67 -4q42 0 52 39q1 6 1 11q0 25 -35 25h-44l22 91h37l-14 -53h5z" />
    <glyph glyph-name="onesuperior" unicode="&#xb9;" horiz-adv-x="280" 
d="M205 721l118 69h51l-77 -312h-54l63 253l-86 -50z" />
    <glyph glyph-name="ordmasculine" unicode="&#xba;" horiz-adv-x="340" 
d="M321 658q94 0 98 -75v-21t-7 -52q-17 -75 -55 -109.5t-95 -34.5q-107 0 -107 90q0 25 8 59q19 77 56 110t102 33zM264 417q38 0 59.5 21.5t30.5 60.5t9 63.5t-12.5 35t-45 10.5t-54 -21t-31.5 -62t-10 -59q0 -49 54 -49z" />
    <glyph glyph-name="guillemotright" unicode="&#xbb;" horiz-adv-x="481" 
d="M292 89l19 63l136 92l-91 102l17 56l135 -145l-11 -31zM73 89l19 63l136 92l-91 102l17 56l135 -145l-11 -31z" />
    <glyph glyph-name="onequarter" unicode="&#xbc;" horiz-adv-x="584" 
d="M182 721l118 69h51l-77 -312h-54l63 253l-86 -50zM165 -7l-56 21l426 690l57 -21zM476 0l12 51h-143l12 46l130 215h59l-130 -211h84l26 87h50l-22 -87h30l-12 -50h-30l-13 -51h-53z" />
    <glyph glyph-name="onehalf" unicode="&#xbd;" horiz-adv-x="609" 
d="M182 721l118 69h51l-77 -312h-54l63 253l-86 -50zM165 -7l-56 21l426 690l57 -21zM575 242q0 28 -44 28q-27 0 -73 -8l-16 -2l10 49q60 12 102 12q79 0 79 -58q0 -72 -96 -146l-83 -68h134l-12 -49h-204l12 48l115 93q34 27 51.5 46t21 34t3.5 21z" />
    <glyph glyph-name="threequarters" unicode="&#xbe;" horiz-adv-x="603" 
d="M345 641q37 -12 37 -43q0 -14 -5 -34q-23 -96 -129 -96q-37 0 -91 8l-16 3l15 47q54 -8 104 -8t62 47q3 10 3 18q0 31 -42 31h-65l11 47h65q16 0 33.5 15t22.5 35t-4.5 29.5t-33.5 9.5q-42 0 -84 -6l-14 -2l8 47q60 10 103 10q85 0 85 -56q0 -35 -24 -69q-15 -20 -41 -33
zM186 -7l-56 21l426 690l57 -21zM497 0l12 51h-143l12 46l130 215h59l-130 -211h84l26 87h50l-22 -87h30l-12 -50h-30l-13 -51h-53z" />
    <glyph glyph-name="questiondown" unicode="&#xbf;" horiz-adv-x="401" 
d="M66 -173.5q-43 30.5 -43 87.5t16.5 93.5t47.5 66.5t103 87q71 57 82 108l8 39h57q-2 -29 -7 -55q-13 -66 -103 -135q-85 -68 -112.5 -104t-27.5 -90q0 -72 108 -72q47 0 121 14l23 5l-3 -50q-88 -25 -157.5 -25t-112.5 30.5zM376 500l-22 -103h-62l23 103h61z" />
    <glyph glyph-name="Agrave" unicode="&#xc0;" horiz-adv-x="555" 
d="M358 925l175 -95l-26 -43l-178 88zM27 0l355 695h126l23 -695h-61l-8 191h-274l-99 -191h-62zM417 640l-202 -395h247l-13 395h-32z" />
    <glyph glyph-name="Aacute" unicode="&#xc1;" horiz-adv-x="555" 
d="M396 790l-8 45l219 95l9 -52zM27 0l355 695h126l23 -695h-61l-8 191h-274l-99 -191h-62zM417 640l-202 -395h247l-13 395h-32z" />
    <glyph glyph-name="Acircumflex" unicode="&#xc2;" horiz-adv-x="555" 
d="M311 797l161 134h30l97 -134h-56l-61 86l-105 -86h-66zM27 0l355 695h126l23 -695h-61l-8 191h-274l-99 -191h-62zM417 640l-202 -395h247l-13 395h-32z" />
    <glyph glyph-name="Atilde" unicode="&#xc3;" horiz-adv-x="555" 
d="M533 809q-23 0 -74 29.5t-63 29.5q-19 0 -72 -38l-18 -13l-2 44q67 59 97.5 59t80.5 -29t60 -29q20 0 68 36l16 12l3 -42q-63 -59 -96 -59zM27 0l355 695h126l23 -695h-61l-8 191h-274l-99 -191h-62zM417 640l-202 -395h247l-13 395h-32z" />
    <glyph glyph-name="Adieresis" unicode="&#xc4;" horiz-adv-x="555" 
d="M349 820l18 83h50l-20 -83h-48zM533 820l20 83h49l-20 -83h-49zM27 0l355 695h126l23 -695h-61l-8 191h-274l-99 -191h-62zM417 640l-202 -395h247l-13 395h-32z" />
    <glyph glyph-name="Aring" unicode="&#xc5;" horiz-adv-x="555" 
d="M370 671q-16 17 -16 37t5 37q13 47 44.5 71.5t76 24.5t65.5 -24q13 -15 13 -35q0 -72 -50 -109l23 -673h-61l-8 191h-274l-99 -191h-62zM417 640l-202 -395h247l-13 395h-32zM398 728q0 -26 27 -33h38q39 9 50 50q1 7 1 18t-10 23t-35 12q-57 0 -69 -53q-2 -9 -2 -17z
" />
    <glyph glyph-name="AE" unicode="&#xc6;" horiz-adv-x="786" 
d="M357 0l44 191h-216l-99 -191h-59l355 697h523l-12 -57l-326 2l-63 -260h270l-12 -56h-270l-64 -269h325l-12 -57h-384zM412 640l-200 -393h202l95 393h-97z" />
    <glyph glyph-name="Ccedilla" unicode="&#xc7;" horiz-adv-x="506" 
d="M297 -48q83 0 83 -54q0 -10 -3 -22q-19 -83 -104 -83l-78 6l11 44q39 -4 67 -4q42 0 52 39q1 6 1 11q0 25 -35 25h-44l19 79q-151 19 -151 196q0 142 53 273q28 69 67.5 122.5t99 87t129.5 33.5q69 0 141 -17l24 -5l-14 -50q-81 16 -151.5 16t-125.5 -43.5t-88 -112.5
q-71 -145 -71 -302q0 -74 32.5 -109.5t102.5 -35.5q75 0 139 12l23 5l-3 -51q-89 -22 -168 -22h-3l-10 -38h5z" />
    <glyph glyph-name="Egrave" unicode="&#xc8;" horiz-adv-x="507" 
d="M377 925l175 -95l-26 -43l-178 88zM81 0l160 695h383l-13 -55h-321l-60 -258h266l-13 -55h-265l-63 -272h321l-13 -55h-382z" />
    <glyph glyph-name="Eacute" unicode="&#xc9;" horiz-adv-x="507" 
d="M383 790l-8 45l219 95l9 -52zM81 0l160 695h383l-13 -55h-321l-60 -258h266l-13 -55h-265l-63 -272h321l-13 -55h-382z" />
    <glyph glyph-name="Ecircumflex" unicode="&#xca;" horiz-adv-x="507" 
d="M363 794l161 134h30l97 -134h-56l-61 86l-105 -86h-66zM81 0l160 695h383l-13 -55h-321l-60 -258h266l-13 -55h-265l-63 -272h321l-13 -55h-382z" />
    <glyph glyph-name="Edieresis" unicode="&#xcb;" horiz-adv-x="507" 
d="M343 820l18 83h50l-20 -83h-48zM527 820l20 83h49l-20 -83h-49zM81 0l160 695h383l-13 -55h-321l-60 -258h266l-13 -55h-265l-63 -272h321l-13 -55h-382z" />
    <glyph glyph-name="Igrave" unicode="&#xcc;" horiz-adv-x="223" 
d="M180 925l175 -95l-26 -43l-178 88zM81 0l160 695h62l-161 -695h-61z" />
    <glyph glyph-name="Iacute" unicode="&#xcd;" horiz-adv-x="223" 
d="M241 790l-8 45l219 95l9 -52zM81 0l160 695h62l-161 -695h-61z" />
    <glyph glyph-name="Icircumflex" unicode="&#xce;" horiz-adv-x="223" 
d="M146 794l161 134h30l97 -134h-56l-61 86l-105 -86h-66zM81 0l160 695h62l-161 -695h-61z" />
    <glyph glyph-name="Idieresis" unicode="&#xcf;" horiz-adv-x="223" 
d="M177 823l18 83h50l-20 -83h-48zM361 823l20 83h49l-20 -83h-49zM81 0l160 695h62l-161 -695h-61z" />
    <glyph glyph-name="Eth" unicode="&#xd0;" horiz-adv-x="611" 
d="M322 0h-238l73 318h-70l13 62h71l73 315h225q93 0 138 -49.5t45 -156.5q0 -138 -50 -262q-57 -140 -158 -196q-56 -31 -122 -31zM571.5 348.5q16.5 73.5 16.5 146.5t-30.5 109t-100.5 36h-164l-60 -260h150l-15 -62h-149l-60 -263h173q61 0 111.5 43.5t81 110t47 140z
" />
    <glyph glyph-name="Ntilde" unicode="&#xd1;" horiz-adv-x="625" 
d="M571 807q-23 0 -74 29.5t-63 29.5q-19 0 -72 -38l-18 -13l-2 44q67 59 97.5 59t80.5 -29t60 -29q20 0 68 36l16 12l3 -42q-63 -59 -96 -59zM81 0l160 695h116l121 -634h21l146 634h60l-160 -695h-112l-124 636h-22l-147 -636h-59z" />
    <glyph glyph-name="Ograve" unicode="&#xd2;" horiz-adv-x="631" 
d="M417 925l175 -95l-26 -43l-178 88zM215 80q35 -35 112 -35t130 42q73 58 112.5 174t39.5 234q0 80 -37 117.5t-109 37.5t-123 -40q-75 -58 -117.5 -178.5t-42.5 -232.5q0 -84 35 -119zM630 241.5q-43 -121.5 -121.5 -186.5t-185 -65t-156.5 48t-50 167t41.5 238
t120 190.5t180.5 71.5q214 0 214 -207q0 -135 -43 -256.5z" />
    <glyph glyph-name="Oacute" unicode="&#xd3;" horiz-adv-x="631" 
d="M215 80q35 -35 112 -35t130 42q73 58 112.5 174t39.5 234q0 80 -37 117.5t-109 37.5t-123 -40q-75 -58 -117.5 -178.5t-42.5 -232.5q0 -84 35 -119zM630 241.5q-43 -121.5 -121.5 -186.5t-185 -65t-156.5 48t-50 167t41.5 238t120 190.5t180.5 71.5q214 0 214 -207
q0 -135 -43 -256.5zM433 790l-8 45l219 95l9 -52z" />
    <glyph glyph-name="Ocircumflex" unicode="&#xd4;" horiz-adv-x="631" 
d="M215 80q35 -35 112 -35t130 42q73 58 112.5 174t39.5 234q0 80 -37 117.5t-109 37.5t-123 -40q-75 -58 -117.5 -178.5t-42.5 -232.5q0 -84 35 -119zM630 241.5q-43 -121.5 -121.5 -186.5t-185 -65t-156.5 48t-50 167t41.5 238t120 190.5t180.5 71.5q214 0 214 -207
q0 -135 -43 -256.5zM356 797l161 134h30l97 -134h-56l-61 86l-105 -86h-66z" />
    <glyph glyph-name="Otilde" unicode="&#xd5;" horiz-adv-x="631" 
d="M585 807q-23 0 -74 29.5t-63 29.5q-19 0 -72 -38l-18 -13l-2 44q67 59 97.5 59t80.5 -29t60 -29q20 0 68 36l16 12l3 -42q-63 -59 -96 -59zM215 80q35 -35 112 -35t130 42q73 58 112.5 174t39.5 234q0 80 -37 117.5t-109 37.5t-123 -40q-75 -58 -117.5 -178.5
t-42.5 -232.5q0 -84 35 -119zM630 241.5q-43 -121.5 -121.5 -186.5t-185 -65t-156.5 48t-50 167t41.5 238t120 190.5t180.5 71.5q214 0 214 -207q0 -135 -43 -256.5z" />
    <glyph glyph-name="Odieresis" unicode="&#xd6;" horiz-adv-x="631" 
d="M383 820l19 82h56l-19 -82h-56zM569 820l18 82h55l-19 -82h-54zM215 80q35 -35 112 -35t130 42q73 58 112.5 174t39.5 234q0 80 -37 117.5t-109 37.5t-123 -40q-75 -58 -117.5 -178.5t-42.5 -232.5q0 -84 35 -119zM630 241.5q-43 -121.5 -121.5 -186.5t-185 -65
t-156.5 48t-50 167t41.5 238t120 190.5t180.5 71.5q214 0 214 -207q0 -135 -43 -256.5z" />
    <glyph glyph-name="multiply" unicode="&#xd7;" 
d="M171 456l166 -168l166 168l39 -39l-167 -166l167 -166l-39 -40l-166 168l-166 -167l-39 39l167 166l-167 165z" />
    <glyph glyph-name="Oslash" unicode="&#xd8;" horiz-adv-x="631" 
d="M162 42q-45 48 -45 165t41.5 236t120 190.5t180.5 71.5q84 0 134 -31l82 120l41 -18l-89 -130q46 -50 46 -148q0 -135 -43 -256.5t-121.5 -186.5t-171.5 -65t-140 25l-88 -128l-37 22zM559 624q-36 26 -102 26t-117 -40q-75 -58 -117.5 -178.5t-42.5 -232.5
q0 -67 20 -101zM232 66q34 -21 103 -21t122 42q73 58 112.5 174t39.5 234q0 58 -20 95z" />
    <glyph glyph-name="Ugrave" unicode="&#xd9;" horiz-adv-x="593" 
d="M393 925l175 -95l-26 -43l-178 88zM176 139q0 -93 139 -93q84 0 126.5 38.5t61.5 121.5l113 489h62l-113 -490q-26 -110 -85 -162.5t-160 -52.5q-205 0 -205 142q0 45 11 86l110 477h61l-111 -482q-10 -40 -10 -74z" />
    <glyph glyph-name="Uacute" unicode="&#xda;" horiz-adv-x="593" 
d="M176 139q0 -93 139 -93q84 0 126.5 38.5t61.5 121.5l113 489h62l-113 -490q-26 -110 -85 -162.5t-160 -52.5q-205 0 -205 142q0 45 11 86l110 477h61l-111 -482q-10 -40 -10 -74zM391 790l-8 45l219 95l9 -52z" />
    <glyph glyph-name="Ucircumflex" unicode="&#xdb;" horiz-adv-x="593" 
d="M176 139q0 -93 139 -93q84 0 126.5 38.5t61.5 121.5l113 489h62l-113 -490q-26 -110 -85 -162.5t-160 -52.5q-205 0 -205 142q0 45 11 86l110 477h61l-111 -482q-10 -40 -10 -74zM329 797l161 134h30l97 -134h-56l-61 86l-105 -86h-66z" />
    <glyph glyph-name="Udieresis" unicode="&#xdc;" horiz-adv-x="593" 
d="M354 820l19 82h56l-19 -82h-56zM540 820l18 82h56l-20 -82h-54zM176 139q0 -93 139 -93q84 0 126.5 38.5t61.5 121.5l113 489h62l-113 -490q-26 -110 -85 -162.5t-160 -52.5q-205 0 -205 142q0 45 11 86l110 477h61l-111 -482q-10 -40 -10 -74z" />
    <glyph glyph-name="Yacute" unicode="&#xdd;" horiz-adv-x="490" 
d="M344 790l-8 45l219 95l9 -52zM635 695l-295 -397l-70 -298h-59l70 304l-108 391h62l89 -337l245 337h66z" />
    <glyph glyph-name="Thorn" unicode="&#xde;" horiz-adv-x="551" 
d="M356 183q134 0 181 179q9 35 9 62q0 100 -114 100l-169 1l-81 -342h174zM343 125h-175l-29 -125h-60l164 697h60l-27 -115h170q102 0 137 -61q22 -38 22 -80t-8 -79q-24 -108 -88.5 -172.5t-165.5 -64.5z" />
    <glyph glyph-name="germandbls" unicode="&#xdf;" horiz-adv-x="532" 
d="M408 732q155 0 155 -114q0 -107 -97 -154q-47 -23 -64 -37t-17 -33t11.5 -32t59 -42.5t65.5 -52t18 -70.5q0 -95 -58.5 -151t-163.5 -56q-46 0 -100 14l-18 4l11 48q65 -13 106 -13q76 0 119 40.5t43 108.5q0 31 -15 49t-61 46t-62 48.5t-16 54t21 57t71 49t68 50.5
t18 65q0 69 -98 69q-68 0 -102.5 -35.5t-53.5 -120.5l-123 -524h-57l125 531q26 111 75 156t140 45z" />
    <glyph glyph-name="agrave" unicode="&#xe0;" horiz-adv-x="493" 
d="M216 -10q-125 0 -125 141q0 131 63 249q30 57 79.5 93.5t108.5 36.5q54 0 159 -18l35 -6l-76 -325q-14 -56 -24 -134l-4 -26l-58 -2q15 93 19 114q-4 -5 -10.5 -13.5t-26 -29.5t-39.5 -37t-48 -29.5t-53 -13.5zM467 442q-72 15 -127.5 15t-100.5 -55t-65.5 -127.5
t-20.5 -130t18.5 -79.5t55.5 -22t80 35t71 70l28 36zM335 734l176 -94l-28 -41l-177 88z" />
    <glyph glyph-name="aacute" unicode="&#xe1;" horiz-adv-x="493" 
d="M216 -10q-125 0 -125 141q0 131 63 249q30 57 79.5 93.5t108.5 36.5q54 0 159 -18l35 -6l-76 -325q-14 -56 -24 -134l-4 -26l-58 -2q15 93 19 114q-4 -5 -10.5 -13.5t-26 -29.5t-39.5 -37t-48 -29.5t-53 -13.5zM467 442q-72 15 -127.5 15t-100.5 -55t-65.5 -127.5
t-20.5 -130t18.5 -79.5t55.5 -22t80 35t71 70l28 36zM341 601l-6 46l218 94l7 -53z" />
    <glyph glyph-name="acircumflex" unicode="&#xe2;" horiz-adv-x="493" 
d="M248 590l151 145h42l87 -145h-62l-54 92l-97 -92h-67zM216 -10q-125 0 -125 141q0 131 63 249q30 57 79.5 93.5t108.5 36.5q54 0 159 -18l35 -6l-76 -325q-14 -56 -24 -134l-4 -26l-58 -2q15 93 19 114q-4 -5 -10.5 -13.5t-26 -29.5t-39.5 -37t-48 -29.5t-53 -13.5z
M467 442q-72 15 -127.5 15t-100.5 -55t-65.5 -127.5t-20.5 -130t18.5 -79.5t55.5 -22t80 35t71 70l28 36z" />
    <glyph glyph-name="atilde" unicode="&#xe3;" horiz-adv-x="493" 
d="M216 -10q-125 0 -125 141q0 131 63 249q30 57 79.5 93.5t108.5 36.5q54 0 159 -18l35 -6l-76 -325q-14 -56 -24 -134l-4 -26l-58 -2q15 93 19 114q-4 -5 -10.5 -13.5t-26 -29.5t-39.5 -37t-48 -29.5t-53 -13.5zM467 442q-72 15 -127.5 15t-100.5 -55t-65.5 -127.5
t-20.5 -130t18.5 -79.5t55.5 -22t80 35t71 70l28 36zM483 620q-19 0 -67 24.5t-59 24.5q-20 0 -65 -33l-15 -11l-2 47q60 50 94 50q22 0 68 -24.5t55 -24.5q18 0 61 31l14 10l4 -46q-54 -48 -88 -48z" />
    <glyph glyph-name="adieresis" unicode="&#xe4;" horiz-adv-x="493" 
d="M272 625l19 82h56l-20 -82h-55zM458 625l17 82h56l-19 -82h-54zM216 -10q-125 0 -125 141q0 131 63 249q30 57 79.5 93.5t108.5 36.5q54 0 159 -18l35 -6l-76 -325q-14 -56 -24 -134l-4 -26l-58 -2q15 93 19 114q-4 -5 -10.5 -13.5t-26 -29.5t-39.5 -37t-48 -29.5
t-53 -13.5zM467 442q-72 15 -127.5 15t-100.5 -55t-65.5 -127.5t-20.5 -130t18.5 -79.5t55.5 -22t80 35t71 70l28 36z" />
    <glyph glyph-name="aring" unicode="&#xe5;" horiz-adv-x="493" 
d="M216 -10q-125 0 -125 141q0 131 63 249q30 57 79.5 93.5t108.5 36.5q54 0 159 -18l35 -6l-76 -325q-14 -56 -24 -134l-4 -26l-58 -2q15 93 19 114q-4 -5 -10.5 -13.5t-26 -29.5t-39.5 -37t-48 -29.5t-53 -13.5zM467 442q-72 15 -127.5 15t-100.5 -55t-65.5 -127.5
t-20.5 -130t18.5 -79.5t55.5 -22t80 35t71 70l28 36zM376 731q31 28 70 28t55 -19.5t16 -49.5q0 -55 -34.5 -88t-78 -33t-59.5 26q-11 17 -11 36q0 62 42 100zM414 610q22 0 43.5 18.5t21.5 51.5q0 9 -9 22.5t-30.5 13.5t-43.5 -17.5t-22 -51.5q0 -9 9 -23t31 -14z" />
    <glyph glyph-name="ae" unicode="&#xe6;" horiz-adv-x="757" 
d="M438 142q0 -95 84 -95q57 0 156 7l29 2l-11 -52q-104 -14 -179 -14q-94 0 -125 56q-49 -21 -116 -38.5t-111 -17.5q-62 0 -85 44q-16 28 -16 57q0 107 63 153q45 32 120 43.5t156 16.5q16 48 16 80q0 66 -67 66q-49 0 -150 -8l-29 -3l9 57q112 13 171 13q113 0 123 -81
q62 81 173 81q139 0 142 -135q0 -53 -14 -103l-13 -48l-314 2q-12 -51 -12 -83zM127 110q0 -64 56 -64q70 0 195 44q-4 20 -4 53t19 109q-110 -11 -152 -17q-90 -14 -109 -92q-5 -17 -5 -33zM732 360q0 94 -96 94q-67 0 -110 -42.5t-65 -135.5l258 -2q13 53 13 86z" />
    <glyph glyph-name="ccedilla" unicode="&#xe7;" horiz-adv-x="405" 
d="M240 -48q83 0 83 -54q0 -10 -3 -22q-19 -83 -104 -83l-78 6l11 44q39 -4 67 -4q42 0 52 39q1 6 1 11q0 25 -35 25h-44l19 79q-114 18 -114 144q0 151 63 258q32 53 83.5 84t116.5 31q49 0 102 -12l17 -4l-15 -48q-62 11 -106 11q-66 0 -112 -47q-88 -88 -88 -263
q0 -52 26 -78t84 -26q35 0 94 12l19 4l-3 -48q-68 -21 -128 -21h-3l-10 -38h5z" />
    <glyph glyph-name="egrave" unicode="&#xe8;" horiz-adv-x="458" 
d="M181.5 70q27.5 -26 67.5 -26q77 0 147 18l24 7l-4 -49q-87 -30 -166 -30q-157 0 -157 148q0 136 65 249q31 55 84 88.5t120 33.5q141 0 141 -114q0 -88 -68 -123.5t-213 -35.5h-56q-12 -50 -12 -95t27.5 -71zM234 285q110 0 159.5 23.5t49.5 86.5t-84 63
q-131 0 -184 -173h59zM257 734l176 -94l-28 -41l-177 88z" />
    <glyph glyph-name="eacute" unicode="&#xe9;" horiz-adv-x="458" 
d="M181.5 70q27.5 -26 67.5 -26q77 0 147 18l24 7l-4 -49q-87 -30 -166 -30q-157 0 -157 148q0 136 65 249q31 55 84 88.5t120 33.5q141 0 141 -114q0 -88 -68 -123.5t-213 -35.5h-56q-12 -50 -12 -95t27.5 -71zM234 285q110 0 159.5 23.5t49.5 86.5t-84 63
q-131 0 -184 -173h59zM305 601l-6 46l218 94l7 -53z" />
    <glyph glyph-name="ecircumflex" unicode="&#xea;" horiz-adv-x="458" 
d="M228 590l152 145h41l87 -145h-61l-54 92l-97 -92h-68zM181.5 70q27.5 -26 67.5 -26q77 0 147 18l24 7l-4 -49q-87 -30 -166 -30q-157 0 -157 148q0 136 65 249q31 55 84 88.5t120 33.5q141 0 141 -114q0 -88 -68 -123.5t-213 -35.5h-56q-12 -50 -12 -95t27.5 -71z
M234 285q110 0 159.5 23.5t49.5 86.5t-84 63q-131 0 -184 -173h59z" />
    <glyph glyph-name="edieresis" unicode="&#xeb;" horiz-adv-x="458" 
d="M263 625l19 82h56l-19 -82h-56zM449 625l18 82h56l-20 -82h-54zM181.5 70q27.5 -26 67.5 -26q77 0 147 18l24 7l-4 -49q-87 -30 -166 -30q-157 0 -157 148q0 136 65 249q31 55 84 88.5t120 33.5q141 0 141 -114q0 -88 -68 -123.5t-213 -35.5h-56q-12 -50 -12 -95
t27.5 -71zM234 285q110 0 159.5 23.5t49.5 86.5t-84 63q-131 0 -184 -173h59z" />
    <glyph glyph-name="igrave" unicode="&#xec;" horiz-adv-x="197" 
d="M68 0l116 500h60l-116 -500h-60zM107 734l176 -94l-28 -41l-177 88z" />
    <glyph glyph-name="iacute" unicode="&#xed;" horiz-adv-x="197" 
d="M68 0l116 500h60l-116 -500h-60zM196 601l-6 46l218 94l7 -53z" />
    <glyph glyph-name="icircumflex" unicode="&#xee;" horiz-adv-x="197" 
d="M88 590l151 145h42l86 -145h-61l-54 92l-97 -92h-67zM68 0l116 500h60l-116 -500h-60z" />
    <glyph glyph-name="idieresis" unicode="&#xef;" horiz-adv-x="197" 
d="M107 625l19 82h56l-20 -82h-55zM293 625l17 82h56l-19 -82h-54zM68 0l116 500h60l-116 -500h-60z" />
    <glyph glyph-name="eth" unicode="&#xf0;" horiz-adv-x="514" 
d="M558 445q0 -41 -11 -87q-46 -193 -118.5 -280t-181.5 -87q-90 0 -128 44t-38 101q0 10 1 20q7 122 80.5 197.5t175.5 75.5q32 0 70.5 -9.5t61.5 -19.5l23 -10q4 23 4 44q0 107 -98 173l-119 -74l-24 39l98 61q-36 19 -99 39l25 54q79 -19 137 -53l108 68l23 -40l-89 -56
q99 -77 99 -200zM329 370q-75 0 -127.5 -60.5t-54.5 -149.5q-1 -6 -1 -12q0 -42 26.5 -69.5t88.5 -27.5q148 0 219 280q-16 12 -68.5 25.5t-82.5 13.5z" />
    <glyph glyph-name="ntilde" unicode="&#xf1;" horiz-adv-x="494" 
d="M373 456q-40 0 -91 -44q-20 -16 -40 -37.5t-26.5 -30t-10.5 -13.5l-77 -331h-60l116 500h58l-21 -97l23 27q22 26 65 53t91.5 27t78.5 -33t30 -85t-20 -136l-60 -256h-59l59 252q19 81 19 125q0 79 -75 79zM463 620q-19 0 -67 24.5t-59 24.5q-20 0 -65 -33l-15 -11l-2 47
q60 50 94 50q22 0 68 -24.5t55 -24.5q18 0 61 31l14 10l4 -46q-54 -48 -88 -48z" />
    <glyph glyph-name="ograve" unicode="&#xf2;" horiz-adv-x="494" 
d="M345 509q168 0 168 -165q0 -148 -70.5 -251t-184.5 -103q-164 0 -164 158q0 149 71.5 255t179.5 106zM258 43q86 0 140 88.5t54 213.5q0 51 -27 81.5t-80 30.5q-83 0 -137 -92t-54 -217q0 -105 104 -105zM284 734l176 -94l-28 -41l-177 88z" />
    <glyph glyph-name="oacute" unicode="&#xf3;" horiz-adv-x="494" 
d="M345 509q168 0 168 -165q0 -148 -70.5 -251t-184.5 -103q-164 0 -164 158q0 149 71.5 255t179.5 106zM258 43q86 0 140 88.5t54 213.5q0 51 -27 81.5t-80 30.5q-83 0 -137 -92t-54 -217q0 -105 104 -105zM306 601l-6 46l218 94l7 -53z" />
    <glyph glyph-name="ocircumflex" unicode="&#xf4;" horiz-adv-x="494" 
d="M244 590l152 145h41l87 -145h-62l-54 92l-97 -92h-67zM345 509q168 0 168 -165q0 -148 -70.5 -251t-184.5 -103q-164 0 -164 158q0 149 71.5 255t179.5 106zM258 43q86 0 140 88.5t54 213.5q0 51 -27 81.5t-80 30.5q-83 0 -137 -92t-54 -217q0 -105 104 -105z" />
    <glyph glyph-name="otilde" unicode="&#xf5;" horiz-adv-x="494" 
d="M345 509q168 0 168 -165q0 -148 -70.5 -251t-184.5 -103q-164 0 -164 158q0 149 71.5 255t179.5 106zM258 43q86 0 140 88.5t54 213.5q0 51 -27 81.5t-80 30.5q-83 0 -137 -92t-54 -217q0 -105 104 -105zM450 620q-20 0 -67 24.5t-59 24.5q-20 0 -65 -33l-15 -11l-2 47
q60 50 94 50q22 0 68 -24.5t56 -24.5q17 0 60 31l14 10l4 -46q-54 -48 -88 -48z" />
    <glyph glyph-name="odieresis" unicode="&#xf6;" horiz-adv-x="494" 
d="M345 509q168 0 168 -165q0 -148 -70.5 -251t-184.5 -103q-164 0 -164 158q0 149 71.5 255t179.5 106zM258 43q86 0 140 88.5t54 213.5q0 51 -27 81.5t-80 30.5q-83 0 -137 -92t-54 -217q0 -105 104 -105zM271 625l19 82h49l-19 -82h-49zM450 625l18 82h49l-19 -82h-48z
" />
    <glyph glyph-name="divide" unicode="&#xf7;" 
d="M155 263v59h366v-59h-366zM266 335v90h144v-90h-144zM307 33v93h61v-93h-61z" />
    <glyph glyph-name="oslash" unicode="&#xf8;" horiz-adv-x="493" 
d="M346 511q48 0 86 -16l67 109l38 -16l-72 -113q49 -43 49 -129q0 -148 -70.5 -251t-184.5 -103q-51 0 -87 15l-73 -119l-38 16l78 123q-44 39 -44 123q0 149 71.5 255t179.5 106zM259 45q86 0 140 88.5t54 213.5q0 46 -21 74l-115 -181l-114 -184q21 -11 56 -11zM346 459
q-83 0 -137 -92t-54 -217q0 -44 18 -69l112 177l117 189q-23 12 -56 12z" />
    <glyph glyph-name="ugrave" unicode="&#xf9;" horiz-adv-x="494" 
d="M286 734l176 -94l-28 -41l-177 88zM217 -10q-56 0 -86.5 33t-30.5 85t20 136l60 256h59l-59 -252q-19 -81 -19 -122q0 -82 75 -82q33 0 75 31t67 62l26 31l77 332h60l-116 -500h-58l21 97q-50 -67 -118 -95q-28 -12 -53 -12z" />
    <glyph glyph-name="uacute" unicode="&#xfa;" horiz-adv-x="494" 
d="M217 -10q-56 0 -86.5 33t-30.5 85t20 136l60 256h59l-59 -252q-19 -81 -19 -122q0 -82 75 -82q33 0 75 31t67 62l26 31l77 332h60l-116 -500h-58l21 97q-50 -67 -118 -95q-28 -12 -53 -12zM319 601l-6 46l218 94l7 -53z" />
    <glyph glyph-name="ucircumflex" unicode="&#xfb;" horiz-adv-x="494" 
d="M225 590l152 145h41l87 -145h-61l-54 92l-97 -92h-68zM217 -10q-56 0 -86.5 33t-30.5 85t20 136l60 256h59l-59 -252q-19 -81 -19 -122q0 -82 75 -82q33 0 75 31t67 62l26 31l77 332h60l-116 -500h-58l21 97q-50 -67 -118 -95q-28 -12 -53 -12z" />
    <glyph glyph-name="udieresis" unicode="&#xfc;" horiz-adv-x="494" 
d="M256 625l19 82h56l-19 -82h-56zM442 625l18 82h56l-20 -82h-54zM217 -10q-56 0 -86.5 33t-30.5 85t20 136l60 256h59l-59 -252q-19 -81 -19 -122q0 -82 75 -82q33 0 75 31t67 62l26 31l77 332h60l-116 -500h-58l21 97q-50 -67 -118 -95q-28 -12 -53 -12z" />
    <glyph glyph-name="yacute" unicode="&#xfd;" horiz-adv-x="452" 
d="M142 500h59l14 -448h34l229 448h63l-374 -724h-61l118 224h-65zM293 601l-6 46l218 94l7 -53z" />
    <glyph glyph-name="thorn" unicode="&#xfe;" horiz-adv-x="480" 
d="M382 509q49 0 79 -24.5t37.5 -59t7.5 -54.5q0 -60 -14 -112q-38 -140 -99 -204.5t-165 -64.5q-50 0 -77 4.5t-27 5.5l-53 -223h-56l223 943h57l-66 -274q87 63 153 63zM434 259q11 41 11 71.5t-4 56t-23.5 45.5t-51.5 20t-70 -18t-60 -34l-22 -16l-77 -327l101 -10
q77 0 121 50.5t75 161.5z" />
    <glyph glyph-name="ydieresis" unicode="&#xff;" horiz-adv-x="452" 
d="M235 625l19 82h56l-19 -82h-56zM421 625l18 82h56l-20 -82h-54zM142 500h59l14 -448h34l229 448h63l-374 -724h-61l118 224h-65z" />
    <glyph glyph-name="Amacron" unicode="&#x100;" horiz-adv-x="555" 
d="M322 835l10 46h286l-12 -46h-284zM27 0l355 695h126l23 -695h-61l-8 191h-274l-99 -191h-62zM417 640l-202 -395h247l-13 395h-32z" />
    <glyph glyph-name="amacron" unicode="&#x101;" horiz-adv-x="493" 
d="M216 -10q-125 0 -125 141q0 131 63 249q30 57 79.5 93.5t108.5 36.5q54 0 159 -18l35 -6l-76 -325q-14 -56 -24 -134l-4 -26l-58 -2q15 93 19 114q-4 -5 -10.5 -13.5t-26 -29.5t-39.5 -37t-48 -29.5t-53 -13.5zM467 442q-72 15 -127.5 15t-100.5 -55t-65.5 -127.5
t-20.5 -130t18.5 -79.5t55.5 -22t80 35t71 70l28 36zM287 642l11 47h267l-12 -47h-266z" />
    <glyph glyph-name="Abreve" unicode="&#x102;" horiz-adv-x="555" 
d="M406 921q-2 -12 -2 -29t14 -31.5t50 -14.5t64.5 21t37.5 54h53q-17 -59 -59.5 -91t-104 -32t-89.5 31q-20 22 -20 60q0 15 3 32h53zM27 0l355 695h126l23 -695h-61l-8 191h-274l-99 -191h-62zM417 640l-202 -395h247l-13 395h-32z" />
    <glyph glyph-name="abreve" unicode="&#x103;" horiz-adv-x="493" 
d="M216 -10q-125 0 -125 141q0 131 63 249q30 57 79.5 93.5t108.5 36.5q54 0 159 -18l35 -6l-76 -325q-14 -56 -24 -134l-4 -26l-58 -2q15 93 19 114q-4 -5 -10.5 -13.5t-26 -29.5t-39.5 -37t-48 -29.5t-53 -13.5zM467 442q-72 15 -127.5 15t-100.5 -55t-65.5 -127.5
t-20.5 -130t18.5 -79.5t55.5 -22t80 35t71 70l28 36zM358 727q-3 -13 -3 -29t11 -32q16 -23 58 -23q83 0 106 84h52q-38 -133 -173 -133q-62 0 -89 37q-17 25 -17 51t4 45h51z" />
    <glyph glyph-name="Aogonek" unicode="&#x104;" horiz-adv-x="555" 
d="M531 0h-3q-31 -24 -62.5 -62.5t-31.5 -63.5q0 -22 28 -22l51 6l-6 -51q-42 -9 -71 -9q-68 0 -68 60q0 33 32 73t70 72l-8 188h-274l-99 -191h-62l355 695h126l23 -692h1l-1 -1v-2zM417 640l-202 -395h247l-13 395h-32z" />
    <glyph glyph-name="aogonek" unicode="&#x105;" horiz-adv-x="493" 
d="M334 -202q-68 0 -68 60q0 35 36 79t73 72q1 5 8.5 49t9.5 55q-4 -5 -10.5 -13.5t-26 -29.5t-39.5 -37t-48 -29.5t-53 -13.5q-125 0 -125 141q0 131 63 249q30 57 79.5 93.5t108.5 36.5q54 0 159 -18l35 -6l-76 -325q-14 -56 -24 -134l-4 -26h-5q-30 -23 -62.5 -62.5
t-32.5 -64.5q0 -22 28 -22l51 6l-6 -51q-42 -9 -71 -9zM467 442q-72 15 -127.5 15t-100.5 -55t-65.5 -127.5t-20.5 -130t18.5 -79.5t55.5 -22t80 35t71 70l28 36z" />
    <glyph glyph-name="Cacute" unicode="&#x106;" horiz-adv-x="506" 
d="M305 -10q-190 0 -190 199q0 142 53 273q28 69 67.5 122.5t99 87t129.5 33.5q69 0 141 -17l24 -5l-14 -50q-81 16 -151.5 16t-125.5 -43.5t-88 -112.5q-71 -145 -71 -302q0 -74 32.5 -109.5t102.5 -35.5q75 0 139 12l23 5l-3 -51q-89 -22 -168 -22zM417 790l-8 45l219 95
l9 -52z" />
    <glyph glyph-name="cacute" unicode="&#x107;" horiz-adv-x="404" 
d="M460 498l17 -4l-15 -48q-62 11 -106 11q-66 0 -112 -47q-88 -88 -88 -263q0 -52 26 -78t84 -26q35 0 94 12l19 4l-3 -48q-68 -21 -128 -21q-153 0 -153 147q0 151 63 258q32 53 83.5 84t108.5 31t110 -12zM300 601l-6 46l218 94l7 -53z" />
    <glyph glyph-name="Ccircumflex" unicode="&#x108;" horiz-adv-x="506" 
d="M305 -10q-190 0 -190 199q0 142 53 273q28 69 67.5 122.5t99 87t129.5 33.5q69 0 141 -17l24 -5l-14 -50q-81 16 -151.5 16t-125.5 -43.5t-88 -112.5q-71 -145 -71 -302q0 -74 32.5 -109.5t102.5 -35.5q75 0 139 12l23 5l-3 -51q-89 -22 -168 -22zM346 797l161 134h30
l97 -134h-56l-61 86l-105 -86h-66z" />
    <glyph glyph-name="ccircumflex" unicode="&#x109;" horiz-adv-x="404" 
d="M460 498l17 -4l-15 -48q-62 11 -106 11q-66 0 -112 -47q-88 -88 -88 -263q0 -52 26 -78t84 -26q35 0 94 12l19 4l-3 -48q-68 -21 -128 -21q-153 0 -153 147q0 151 63 258q32 53 83.5 84t108.5 31t110 -12zM234 590l151 145h31l87 -145h-56l-54 92l-97 -92h-62z" />
    <glyph glyph-name="Cdotaccent" unicode="&#x10a;" horiz-adv-x="506" 
d="M305 -10q-190 0 -190 199q0 142 53 273q28 69 67.5 122.5t99 87t129.5 33.5q69 0 141 -17l24 -5l-14 -50q-81 16 -151.5 16t-125.5 -43.5t-88 -112.5q-71 -145 -71 -302q0 -74 32.5 -109.5t102.5 -35.5q75 0 139 12l23 5l-3 -51q-89 -22 -168 -22zM461 798l17 78h50
l-17 -78h-50z" />
    <glyph glyph-name="cdotaccent" unicode="&#x10b;" horiz-adv-x="404" 
d="M460 498l17 -4l-15 -48q-62 11 -106 11q-66 0 -112 -47q-88 -88 -88 -263q0 -52 26 -78t84 -26q35 0 94 12l19 4l-3 -48q-68 -21 -128 -21q-153 0 -153 147q0 151 63 258q32 53 83.5 84t108.5 31t110 -12zM341 610l19 78h51l-18 -78h-52z" />
    <glyph glyph-name="Ccaron" unicode="&#x10c;" horiz-adv-x="506" 
d="M305 -10q-190 0 -190 199q0 142 53 273q28 69 67.5 122.5t99 87t129.5 33.5q69 0 141 -17l24 -5l-14 -50q-81 16 -151.5 16t-125.5 -43.5t-88 -112.5q-71 -145 -71 -302q0 -74 32.5 -109.5t102.5 -35.5q75 0 139 12l23 5l-3 -51q-89 -22 -168 -22zM663 930l-156 -134h-36
l-98 134h59l65 -89l103 89h63z" />
    <glyph glyph-name="ccaron" unicode="&#x10d;" horiz-adv-x="404" 
d="M387 590h-32l-85 145h55l57 -95l99 95h62zM460 498l17 -4l-15 -48q-62 11 -106 11q-66 0 -112 -47q-88 -88 -88 -263q0 -52 26 -78t84 -26q35 0 94 12l19 4l-3 -48q-68 -21 -128 -21q-153 0 -153 147q0 151 63 258q32 53 83.5 84t108.5 31t110 -12z" />
    <glyph glyph-name="Dcaron" unicode="&#x10e;" horiz-adv-x="607" 
d="M319 0h-238l160 695h225q93 0 138 -49.5t45 -156.5q0 -138 -51 -262q-26 -65 -64 -115t-93.5 -81t-121.5 -31zM554.5 604q-30.5 36 -100.5 36h-164l-134 -585h173q61 0 111.5 43.5t81 110t47 140t16.5 146.5t-30.5 109zM621 930l-156 -134h-36l-98 134h59l65 -89l103 89
h63z" />
    <glyph glyph-name="dcaron" unicode="&#x10f;" horiz-adv-x="530" 
d="M700 695l-53 -228h-55l54 228h54zM213 -10q-122 0 -122 139q0 88 28.5 173.5t87 146t133.5 60.5q50 0 116 -13l21 -4l54 230h60l-168 -722h-58l22 98q-51 -68 -120 -96q-28 -12 -54 -12zM466 442q-67 15 -125 15t-102.5 -55.5t-65 -128.5t-20.5 -144q0 -86 78 -86
q33 0 76 32t70 65l27 32z" />
    <glyph glyph-name="Dcroat" unicode="&#x110;" horiz-adv-x="611" 
d="M322 0h-238l73 318h-70l13 62h71l73 315h225q93 0 138 -49.5t45 -156.5q0 -138 -50 -262q-57 -140 -158 -196q-56 -31 -122 -31zM571.5 348.5q16.5 73.5 16.5 146.5t-30.5 109t-100.5 36h-164l-60 -260h149l-14 -62h-149l-60 -263h173q61 0 111.5 43.5t81 110t47 140z
" />
    <glyph glyph-name="dcroat" unicode="&#x111;" horiz-adv-x="493" 
d="M213 -10q-122 0 -122 139q0 88 28.5 173.5t87 146t133.5 60.5q50 0 116 -13l21 -4l25 107h-150l12 57h151l16 66h60l-16 -66h56l-13 -57h-56l-139 -599h-58l22 98q-51 -68 -120 -96q-28 -12 -54 -12zM466 442q-67 15 -125 15t-102.5 -55.5t-65 -128.5t-20.5 -144
q0 -86 78 -86q33 0 76 32t70 65l27 32z" />
    <glyph glyph-name="Emacron" unicode="&#x112;" horiz-adv-x="507" 
d="M313 828l10 46h286l-12 -46h-284zM81 0l160 695h383l-13 -55h-321l-60 -258h266l-13 -55h-265l-63 -272h321l-13 -55h-382z" />
    <glyph glyph-name="emacron" unicode="&#x113;" horiz-adv-x="458" 
d="M181.5 70q27.5 -26 67.5 -26q77 0 147 18l24 7l-4 -49q-87 -30 -166 -30q-157 0 -157 148q0 136 65 249q31 55 84 88.5t120 33.5q141 0 141 -114q0 -88 -68 -123.5t-213 -35.5h-56q-12 -50 -12 -95t27.5 -71zM234 285q110 0 159.5 23.5t49.5 86.5t-84 63
q-131 0 -184 -173h59zM264 642l11 47h267l-12 -47h-266z" />
    <glyph glyph-name="Ebreve" unicode="&#x114;" horiz-adv-x="507" 
d="M393 922q-2 -12 -2 -29t14 -31.5t50 -14.5t64.5 21t37.5 54h53q-17 -59 -59.5 -91t-104 -32t-89.5 31q-20 22 -20 60q0 15 3 32h53zM81 0l160 695h383l-13 -55h-321l-60 -258h266l-13 -55h-265l-63 -272h321l-13 -55h-382z" />
    <glyph glyph-name="ebreve" unicode="&#x115;" horiz-adv-x="458" 
d="M181.5 70q27.5 -26 67.5 -26q77 0 147 18l24 7l-4 -49q-87 -30 -166 -30q-157 0 -157 148q0 136 65 249q31 55 84 88.5t120 33.5q141 0 141 -114q0 -88 -68 -123.5t-213 -35.5h-56q-12 -50 -12 -95t27.5 -71zM234 285q110 0 159.5 23.5t49.5 86.5t-84 63
q-131 0 -184 -173h59zM328 727q-3 -13 -3 -29t11 -32q16 -23 58 -23q83 0 106 84h52q-38 -133 -173 -133q-62 0 -89 37q-17 25 -17 51t4 45h51z" />
    <glyph glyph-name="Edotaccent" unicode="&#x116;" horiz-adv-x="507" 
d="M430 844l17 78h50l-17 -78h-50zM81 0l160 695h383l-13 -55h-321l-60 -258h266l-13 -55h-265l-63 -272h321l-13 -55h-382z" />
    <glyph glyph-name="edotaccent" unicode="&#x117;" horiz-adv-x="458" 
d="M181.5 70q27.5 -26 67.5 -26q77 0 147 18l24 7l-4 -49q-87 -30 -166 -30q-157 0 -157 148q0 136 65 249q31 55 84 88.5t120 33.5q141 0 141 -114q0 -88 -68 -123.5t-213 -35.5h-56q-12 -50 -12 -95t27.5 -71zM234 285q110 0 159.5 23.5t49.5 86.5t-84 63
q-131 0 -184 -173h59zM346 610l19 78h51l-18 -78h-52z" />
    <glyph glyph-name="Eogonek" unicode="&#x118;" horiz-adv-x="507" 
d="M347 -126q0 -22 28 -22l51 6l-6 -51q-42 -9 -71 -9q-68 0 -68 59.5t98 142.5h-298l160 695h383l-13 -55h-321l-60 -258h266l-13 -55h-265l-63 -272h321l-13 -55h-22q-31 -24 -62.5 -62.5t-31.5 -63.5z" />
    <glyph glyph-name="eogonek" unicode="&#x119;" horiz-adv-x="458" 
d="M317 -182q-68 0 -68 60q0 49 73 120q-42 -8 -82 -8q-70 0 -108.5 37.5t-38.5 107t16.5 133.5t48 119t84.5 88.5t120 33.5q141 0 141 -114q0 -88 -68 -123.5t-213 -35.5h-56q-12 -50 -12 -95t27.5 -71t67.5 -26q77 0 147 18l24 7l-4 -49q-5 -2 -12 -4q-31 -26 -60 -62
t-29 -60q0 -22 28 -22l51 6l-6 -51q-42 -9 -71 -9zM234 285q110 0 159.5 23.5t49.5 86.5t-84 63q-131 0 -184 -173h59z" />
    <glyph glyph-name="Ecaron" unicode="&#x11a;" horiz-adv-x="507" 
d="M617 934l-156 -134h-36l-98 134h59l65 -89l103 89h63zM81 0l160 695h383l-13 -55h-321l-60 -258h266l-13 -55h-265l-63 -272h321l-13 -55h-382z" />
    <glyph glyph-name="ecaron" unicode="&#x11b;" horiz-adv-x="458" 
d="M181.5 70q27.5 -26 67.5 -26q77 0 147 18l24 7l-4 -49q-87 -30 -166 -30q-157 0 -157 148q0 136 65 249q31 55 84 88.5t120 33.5q141 0 141 -114q0 -88 -68 -123.5t-213 -35.5h-56q-12 -50 -12 -95t27.5 -71zM234 285q110 0 159.5 23.5t49.5 86.5t-84 63
q-131 0 -184 -173h59zM399 590h-32l-85 145h55l57 -95l99 95h62z" />
    <glyph glyph-name="Gcircumflex" unicode="&#x11c;" horiz-adv-x="573" 
d="M349 785l151 145h42l86 -145h-61l-54 92l-97 -92h-67zM320 -10q-204 0 -204 192q0 195 84 352q42 77 111.5 124t157.5 47q84 0 171 -22l27 -7l-16 -48q-101 22 -180.5 22t-135.5 -45t-89 -117q-66 -146 -66 -307q0 -136 146 -136q56 0 116 13l20 5l56 238h-115l12 53h177
l-79 -336q-93 -28 -193 -28z" />
    <glyph glyph-name="gcircumflex" unicode="&#x11d;" horiz-adv-x="464" 
d="M189 -237q-78 0 -123.5 35.5t-45.5 94.5q0 85 135 157q-15 15 -15 38t13 47.5t27 38.5l13 15q-69 31 -69 112.5t54.5 145t145.5 63.5q46 0 79 -12l11 -4l148 6l-12 -53h-97q19 -29 19 -73q0 -75 -55.5 -138t-155.5 -63l-30 2q-35 -44 -35 -67.5t18.5 -31t88 -16
t104 -34.5t34.5 -81q0 -74 -69 -128t-183 -54zM111 -28q-33 -32 -33 -69.5t30 -62.5t96.5 -25t122 35t55.5 91q0 34 -23 48.5t-85.5 21.5t-84.5 16q-45 -23 -78 -55zM269 224q70 0 108 47.5t38 94.5t-22 69.5t-78.5 22.5t-94.5 -47.5t-38 -100.5q0 -86 87 -86zM218 590
l151 145h31l87 -145h-56l-54 92l-97 -92h-62z" />
    <glyph glyph-name="Gbreve" unicode="&#x11e;" horiz-adv-x="573" 
d="M442 922q-2 -7 -2 -28t17.5 -37.5t54 -16.5t64.5 22.5t38 59.5h57q-17 -62 -65 -101t-107.5 -39t-88 29.5t-29.5 74.5q0 18 3 36h58zM320 -10q-204 0 -204 192q0 195 84 352q42 77 111.5 124t157.5 47q84 0 171 -22l27 -7l-16 -48q-101 22 -180.5 22t-135.5 -45t-89 -117
q-66 -146 -66 -307q0 -136 146 -136q56 0 116 13l20 5l56 238h-115l12 53h177l-79 -336q-93 -28 -193 -28z" />
    <glyph glyph-name="gbreve" unicode="&#x11f;" horiz-adv-x="464" 
d="M189 -237q-78 0 -123.5 35.5t-45.5 94.5q0 85 135 157q-15 15 -15 38t13 47.5t27 38.5l13 15q-69 31 -69 112.5t54.5 145t145.5 63.5q46 0 79 -12l11 -4l148 6l-12 -53h-97q19 -29 19 -73q0 -75 -55.5 -138t-155.5 -63l-30 2q-35 -44 -35 -67.5t18.5 -31t88 -16
t104 -34.5t34.5 -81q0 -74 -69 -128t-183 -54zM111 -28q-33 -32 -33 -69.5t30 -62.5t96.5 -25t122 35t55.5 91q0 34 -23 48.5t-85.5 21.5t-84.5 16q-45 -23 -78 -55zM269 224q70 0 108 47.5t38 94.5t-22 69.5t-78.5 22.5t-94.5 -47.5t-38 -100.5q0 -86 87 -86zM327 727
q-3 -13 -3 -29t10 -32q17 -23 59 -23q83 0 106 84h52q-38 -133 -173 -133q-62 0 -88 37q-18 25 -18 51t4 45h51z" />
    <glyph glyph-name="Gdotaccent" unicode="&#x120;" horiz-adv-x="573" 
d="M476 813l18 78h57l-18 -78h-57zM320 -10q-204 0 -204 192q0 195 84 352q42 77 111.5 124t157.5 47q84 0 171 -22l27 -7l-16 -48q-101 22 -180.5 22t-135.5 -45t-89 -117q-66 -146 -66 -307q0 -136 146 -136q56 0 116 13l20 5l56 238h-115l12 53h177l-79 -336
q-93 -28 -193 -28z" />
    <glyph glyph-name="gdotaccent" unicode="&#x121;" horiz-adv-x="464" 
d="M189 -237q-78 0 -123.5 35.5t-45.5 94.5q0 85 135 157q-15 15 -15 38t13 47.5t27 38.5l13 15q-69 31 -69 112.5t54.5 145t145.5 63.5q46 0 79 -12l11 -4l148 6l-12 -53h-97q19 -29 19 -73q0 -75 -55.5 -138t-155.5 -63l-30 2q-35 -44 -35 -67.5t18.5 -31t88 -16
t104 -34.5t34.5 -81q0 -74 -69 -128t-183 -54zM111 -28q-33 -32 -33 -69.5t30 -62.5t96.5 -25t122 35t55.5 91q0 34 -23 48.5t-85.5 21.5t-84.5 16q-45 -23 -78 -55zM269 224q70 0 108 47.5t38 94.5t-22 69.5t-78.5 22.5t-94.5 -47.5t-38 -100.5q0 -86 87 -86zM331 610
l19 78h51l-18 -78h-52z" />
    <glyph glyph-name="Gcommaaccent" unicode="&#x122;" horiz-adv-x="573" 
d="M320 -10q-204 0 -204 192q0 195 84 352q42 77 111.5 124t157.5 47q84 0 171 -22l27 -7l-16 -48q-101 22 -180.5 22t-135.5 -45t-89 -117q-66 -146 -66 -307q0 -136 146 -136q56 0 116 13l20 5l56 238h-115l12 53h177l-79 -336q-93 -28 -193 -28zM264 -73h56l-93 -203h-48
z" />
    <glyph glyph-name="gcommaaccent" unicode="&#x123;" horiz-adv-x="464" 
d="M412 788h49l-85 -203h-56zM189 -237q-78 0 -123.5 35.5t-45.5 94.5q0 85 135 157q-15 15 -15 38t13 47.5t27 38.5l13 15q-69 31 -69 112.5t54.5 145t145.5 63.5q46 0 79 -12l11 -4l148 6l-12 -53h-97q19 -29 19 -73q0 -75 -55.5 -138t-155.5 -63l-30 2q-35 -44 -35 -67.5
t18.5 -31t88 -16t104 -34.5t34.5 -81q0 -74 -69 -128t-183 -54zM111 -28q-33 -32 -33 -69.5t30 -62.5t96.5 -25t122 35t55.5 91q0 34 -23 48.5t-85.5 21.5t-84.5 16q-45 -23 -78 -55zM269 224q70 0 108 47.5t38 94.5t-22 69.5t-78.5 22.5t-94.5 -47.5t-38 -100.5
q0 -86 87 -86z" />
    <glyph glyph-name="Hcircumflex" unicode="&#x124;" horiz-adv-x="624" 
d="M482 0l74 322h-340l-74 -322h-61l160 695h62l-74 -318h340l74 318h61l-160 -695h-62zM342 797l161 134h30l97 -134h-56l-61 86l-105 -86h-66z" />
    <glyph glyph-name="hcircumflex" unicode="&#x125;" horiz-adv-x="495" 
d="M393 510q56 0 86 -33t30 -84.5t-20 -138.5l-59 -254h-59l59 252q18 77 18 125q0 79 -74 79q-33 0 -75 -31.5t-68 -62.5l-26 -32l-76 -330h-60l167 722h60l-74 -320q51 68 118 96q28 12 53 12zM295 767l161 134h30l97 -134h-56l-61 86l-105 -86h-66z" />
    <glyph glyph-name="Hbar" unicode="&#x126;" horiz-adv-x="641" 
d="M123 508v1l12 56h84l30 130h59l-30 -130h346l30 130h58l-30 -130h83l-15 -57h-81l-117 -508h-58l73 320h-346l-73 -320h-59l117 508h-83zM235 379h346l30 129h-346z" />
    <glyph glyph-name="hbar" unicode="&#x127;" horiz-adv-x="495" 
d="M393 510q56 0 86 -33t30 -84.5t-20 -138.5l-59 -254h-59l59 252q18 77 18 125q0 79 -74 79q-33 0 -75 -31.5t-68 -62.5l-26 -32l-76 -330h-60l136 591h-55l12 53h56l18 78h60l-18 -78h151l-13 -53h-151l-43 -189q51 68 118 96q28 12 53 12z" />
    <glyph glyph-name="Itilde" unicode="&#x128;" horiz-adv-x="223" 
d="M370 805q-23 0 -74 29.5t-62 29.5q-20 0 -74 -38l-17 -13l-2 44q67 59 97.5 59t80.5 -29t61 -29q19 0 67 36l16 12l3 -42q-63 -59 -96 -59zM81 0l160 695h62l-161 -695h-61z" />
    <glyph glyph-name="itilde" unicode="&#x129;" horiz-adv-x="197" 
d="M68 0l116 500h60l-116 -500h-60zM301 620q-19 0 -67 24.5t-59 24.5q-20 0 -65 -33l-15 -11l-2 47q60 50 94 50q22 0 68 -24.5t55 -24.5q18 0 61 31l14 10l4 -46q-54 -48 -88 -48z" />
    <glyph glyph-name="Imacron" unicode="&#x12a;" horiz-adv-x="223" 
d="M154 838l10 46h286l-12 -46h-284zM81 0l160 695h62l-161 -695h-61z" />
    <glyph glyph-name="imacron" unicode="&#x12b;" horiz-adv-x="197" 
d="M68 0l116 500h60l-116 -500h-60zM105 642l11 47h267l-12 -47h-266z" />
    <glyph glyph-name="Ibreve" unicode="&#x12c;" horiz-adv-x="223" 
d="M240 921q-2 -12 -2 -29t14 -31.5t50 -14.5t64.5 21t37.5 54h53q-17 -59 -59.5 -91t-104 -32t-89.5 31q-20 22 -20 60q0 15 3 32h53zM81 0l160 695h62l-161 -695h-61z" />
    <glyph glyph-name="ibreve" unicode="&#x12d;" horiz-adv-x="197" 
d="M68 0l116 500h60l-116 -500h-60zM176 727q-3 -13 -3 -29t11 -32q16 -23 58 -23q83 0 106 84h52q-38 -133 -173 -133q-62 0 -89 37q-17 25 -17 51t4 45h51z" />
    <glyph glyph-name="Iogonek" unicode="&#x12e;" horiz-adv-x="223" 
d="M44 -202q-68 0 -68 60q0 34 34 76t72 72l159 689h62l-161 -695q-33 -23 -66.5 -61.5t-33.5 -64.5q0 -22 28 -22l51 6l-6 -51q-42 -9 -71 -9z" />
    <glyph glyph-name="iogonek" unicode="&#x12f;" horiz-adv-x="198" 
d="M32 -202q-68 0 -68 60q0 34 34 76.5t72 72.5l115 493h60l-116 -500q-34 -26 -66.5 -63t-32.5 -63q0 -22 28 -22l51 6l-6 -51q-42 -9 -71 -9zM211 616l18 80h61l-18 -80h-61z" />
    <glyph glyph-name="Idotaccent" unicode="&#x130;" horiz-adv-x="223" 
d="M274 844l17 78h50l-17 -78h-50zM81 0l160 695h62l-161 -695h-61z" />
    <glyph glyph-name="dotlessi" unicode="&#x131;" horiz-adv-x="197" 
d="M68 0l116 500h60l-116 -500h-60z" />
    <glyph glyph-name="Jcircumflex" unicode="&#x134;" horiz-adv-x="260" 
d="M343 695l-134 -581q-22 -92 -39.5 -123.5t-38.5 -41.5q-42 -20 -124 -20l10 55q67 1 89.5 24.5t42.5 112.5l133 574h61zM181 797l161 134h30l97 -134h-56l-61 86l-105 -86h-66z" />
    <glyph glyph-name="jcircumflex" unicode="&#x135;" horiz-adv-x="197" 
d="M68 0l116 500h60l-116 -500q-26 -113 -56.5 -149t-143.5 -88l-20 49q93 47 116.5 75t43.5 113zM91 590l151 145h31l87 -145h-56l-54 92l-97 -92h-62z" />
    <glyph glyph-name="Kcommaaccent" unicode="&#x136;" horiz-adv-x="516" 
d="M233 -73h56l-93 -203h-48zM432 0l-112 315l-106 -2l-72 -313h-61l160 695h62l-76 -327l98 2l262 325h70l-283 -351l123 -344h-65z" />
    <glyph glyph-name="kcommaaccent" unicode="&#x137;" horiz-adv-x="440" 
d="M95 -276l85 203h56l-93 -203h-48zM129 0h-60l167 722h60l-98 -425l71 2l195 201h71l-221 -230l102 -270h-64l-94 247l-73 -1z" />
    <glyph glyph-name="Lacute" unicode="&#x139;" horiz-adv-x="436" 
d="M319 790l-8 45l219 95l9 -52zM429 0h-348l160 695h62l-148 -640h286z" />
    <glyph glyph-name="lacute" unicode="&#x13a;" horiz-adv-x="207" 
d="M74 0l167 722h59l-167 -722h-59zM252 790l-8 45l219 95l9 -52z" />
    <glyph glyph-name="Lcommaaccent" unicode="&#x13b;" horiz-adv-x="436" 
d="M218 -73h56l-93 -203h-48zM429 0h-348l160 695h62l-148 -640h286z" />
    <glyph glyph-name="lcommaaccent" unicode="&#x13c;" horiz-adv-x="207" 
d="M60 -73h56l-93 -203h-48zM74 0l167 722h59l-167 -722h-59z" />
    <glyph glyph-name="Lcaron" unicode="&#x13d;" horiz-adv-x="450" 
d="M545 695l-53 -228h-55l53 228h55zM429 0h-348l160 695h62l-148 -640h286z" />
    <glyph glyph-name="lcaron" unicode="&#x13e;" horiz-adv-x="239" 
d="M410 695l-54 -228h-54l53 228h55zM74 0l167 722h59l-167 -722h-59z" />
    <glyph glyph-name="Lslash" unicode="&#x141;" horiz-adv-x="437" 
d="M431 0h-348l65 283l-60 -38v1l-20 45l95 60l80 344h62l-70 -299l161 100l19 -45l-195 -123l-63 -273h286z" />
    <glyph glyph-name="lslash" unicode="&#x142;" horiz-adv-x="265" 
d="M100 0l68 293l-74 -45l-21 43l110 68l84 363h59l-74 -320l76 48l20 -45l-112 -69l-77 -336h-59z" />
    <glyph glyph-name="Nacute" unicode="&#x143;" horiz-adv-x="625" 
d="M405 790l-8 45l219 95l9 -52zM81 0l160 695h116l121 -634h21l146 634h60l-160 -695h-112l-124 636h-22l-147 -636h-59z" />
    <glyph glyph-name="nacute" unicode="&#x144;" horiz-adv-x="494" 
d="M373 456q-40 0 -91 -44q-20 -16 -40 -37.5t-26.5 -30t-10.5 -13.5l-77 -331h-60l116 500h58l-21 -97l23 27q22 26 65 53t91.5 27t78.5 -33t30 -85t-20 -136l-60 -256h-59l59 252q19 81 19 125q0 79 -75 79zM302 601l-6 46l218 94l7 -53z" />
    <glyph glyph-name="Ncommaaccent" unicode="&#x145;" horiz-adv-x="625" 
d="M281 -73h56l-93 -203h-48zM81 0l160 695h116l121 -634h21l146 634h60l-160 -695h-112l-124 636h-22l-147 -636h-59z" />
    <glyph glyph-name="ncommaaccent" unicode="&#x146;" horiz-adv-x="494" 
d="M392 510q57 0 87 -33t30 -85t-20 -136l-60 -256h-59l59 252q19 81 19 125q0 79 -75 79q-33 0 -75 -31t-68 -63l-25 -31l-77 -331h-60l116 500h58l-21 -97q50 67 119 95q27 12 52 12zM132 -276l85 203h56l-93 -203h-48z" />
    <glyph glyph-name="Ncaron" unicode="&#x147;" horiz-adv-x="625" 
d="M663 926l-156 -134h-36l-98 134h59l65 -89l103 89h63zM81 0l160 695h116l121 -634h21l146 634h60l-160 -695h-112l-124 636h-22l-147 -636h-59z" />
    <glyph glyph-name="ncaron" unicode="&#x148;" horiz-adv-x="494" 
d="M392 510q57 0 87 -33t30 -85t-20 -136l-60 -256h-59l59 252q19 81 19 125q0 79 -75 79q-33 0 -75 -31t-68 -63l-25 -31l-77 -331h-60l116 500h58l-21 -97q50 67 119 95q27 12 52 12zM397 590h-32l-85 145h55l57 -95l99 95h62z" />
    <glyph glyph-name="Eng" unicode="&#x14a;" horiz-adv-x="625" 
d="M81 0l160 695h117l121 -634h21l146 634h59l-159 -691q-14 -64 -25 -95t-33.5 -54.5t-53.5 -29.5t-88 -6l10 55q65 0 87.5 22.5t41.5 103.5h-53l-124 636h-21l-148 -636h-58z" />
    <glyph glyph-name="eng" unicode="&#x14b;" horiz-adv-x="489" 
d="M300 484q45 25 97 25t79 -25q30 -26 30 -80t-21 -145l-61 -261q-22 -90 -61.5 -135t-140.5 -96l-12 55q84 45 113.5 80t48.5 113l57 244q19 80 19 119.5t-19 56t-56 16.5t-76 -19.5t-62 -38.5l-23 -19l-88 -374h-56l117 500h57l-18 -70q31 29 76 54z" />
    <glyph glyph-name="Omacron" unicode="&#x14c;" horiz-adv-x="631" 
d="M215 80q35 -35 112 -35t130 42q73 58 112.5 174t39.5 234q0 80 -37 117.5t-109 37.5t-123 -40q-75 -58 -117.5 -178.5t-42.5 -232.5q0 -84 35 -119zM630 241.5q-43 -121.5 -121.5 -186.5t-185 -65t-156.5 48t-50 167t41.5 238t120 190.5t180.5 71.5q214 0 214 -207
q0 -135 -43 -256.5zM360 828l10 46h286l-12 -46h-284z" />
    <glyph glyph-name="omacron" unicode="&#x14d;" horiz-adv-x="494" 
d="M345 509q168 0 168 -165q0 -148 -70.5 -251t-184.5 -103q-164 0 -164 158q0 149 71.5 255t179.5 106zM258 43q86 0 140 88.5t54 213.5q0 51 -27 81.5t-80 30.5q-83 0 -137 -92t-54 -217q0 -105 104 -105zM250 642l11 47h267l-12 -47h-266z" />
    <glyph glyph-name="Obreve" unicode="&#x14e;" horiz-adv-x="631" 
d="M438 922q-2 -12 -2 -29t14 -31.5t50 -14.5t64.5 21t37.5 54h53q-17 -59 -59.5 -91t-104 -32t-89.5 31q-20 22 -20 60q0 15 3 32h53zM215 80q35 -35 112 -35t130 42q73 58 112.5 174t39.5 234q0 80 -37 117.5t-109 37.5t-123 -40q-75 -58 -117.5 -178.5t-42.5 -232.5
q0 -84 35 -119zM630 241.5q-43 -121.5 -121.5 -186.5t-185 -65t-156.5 48t-50 167t41.5 238t120 190.5t180.5 71.5q214 0 214 -207q0 -135 -43 -256.5z" />
    <glyph glyph-name="obreve" unicode="&#x14f;" horiz-adv-x="494" 
d="M345 509q168 0 168 -165q0 -148 -70.5 -251t-184.5 -103q-164 0 -164 158q0 149 71.5 255t179.5 106zM258 43q86 0 140 88.5t54 213.5q0 51 -27 81.5t-80 30.5q-83 0 -137 -92t-54 -217q0 -105 104 -105zM325 727q-3 -13 -3 -29t10 -32q17 -23 59 -23q83 0 106 84h52
q-38 -133 -173 -133q-62 0 -88 37q-18 25 -18 51t4 45h51z" />
    <glyph glyph-name="Ohungarumlaut" unicode="&#x150;" horiz-adv-x="631" 
d="M566 779l-28 28l177 114l33 -29zM381 780l-30 27l180 115l31 -30zM215 80q35 -35 112 -35t130 42q73 58 112.5 174t39.5 234q0 80 -37 117.5t-109 37.5t-123 -40q-75 -58 -117.5 -178.5t-42.5 -232.5q0 -84 35 -119zM630 241.5q-43 -121.5 -121.5 -186.5t-185 -65
t-156.5 48t-50 167t41.5 238t120 190.5t180.5 71.5q214 0 214 -207q0 -135 -43 -256.5z" />
    <glyph glyph-name="ohungarumlaut" unicode="&#x151;" horiz-adv-x="494" 
d="M345 509q168 0 168 -165q0 -148 -70.5 -251t-184.5 -103q-164 0 -164 158q0 149 71.5 255t179.5 106zM258 43q86 0 140 88.5t54 213.5q0 51 -27 81.5t-80 30.5q-83 0 -137 -92t-54 -217q0 -105 104 -105zM440 586l-28 35l172 126l32 -36zM261 586l-28 35l172 126l31 -36z
" />
    <glyph glyph-name="OE" unicode="&#x152;" horiz-adv-x="865" 
d="M298 -10q-97 0 -142 44q-46 46 -46 137q0 67 24 174q44 183 121.5 272.5t211.5 89.5q57 0 137 -10h380l-13 -61h-323l-61 -251h266l-13 -60l-265 2l-63 -266h322l-15 -62h-378q-103 -9 -143 -9zM172 187q0 -135 134 -135q68 0 146 8l138 579q-56 7 -132 7
q-109 0 -167.5 -72t-94.5 -228q-24 -94 -24 -159z" />
    <glyph glyph-name="oe" unicode="&#x153;" horiz-adv-x="809" 
d="M498 225q-13 -56 -13 -94.5t24 -61t64 -22.5q56 0 155 7l29 2l-9 -52q-104 -14 -181 -14q-115 0 -134 93q-30 -48 -74.5 -70.5t-118 -22.5t-110.5 29q-39 31 -39 108q0 57 18 131q31 132 89 191.5t170 59.5q126 0 142 -103q61 103 189 103q141 0 144 -133v-29t-13 -75
l-14 -49zM236 408q-42 -45 -64 -139.5t-22 -138t25.5 -63.5t72.5 -20t75 11t46 27t33 46q22 45 39 114.5t17 97.5t-3 42q-14 68 -95.5 68t-123.5 -45zM687 452q-135 0 -177 -176l261 -2q13 53 13 92q-1 86 -97 86z" />
    <glyph glyph-name="Racute" unicode="&#x154;" horiz-adv-x="566" 
d="M629 535q0 -112 -56 -176.5t-128 -80.5l81 -278h-62l-77 270h-182l-63 -270h-61l160 695h216q87 0 129.5 -37.5t42.5 -122.5zM565 533q0 59 -27.5 83.5t-88.5 24.5h-159l-73 -317h162q84 0 135 58t51 151zM363 790l-8 45l219 95l9 -52z" />
    <glyph glyph-name="racute" unicode="&#x155;" horiz-adv-x="311" 
d="M68 0l117 500h59l-18 -75q96 66 187 85l-15 -61q-58 -14 -152 -63l-31 -16l-86 -370h-61zM205 601l-6 46l218 94l7 -53z" />
    <glyph glyph-name="Rcommaaccent" unicode="&#x156;" horiz-adv-x="566" 
d="M172 -276l85 203h56l-93 -203h-48zM457 695q87 0 129.5 -37.5t42.5 -122.5q0 -112 -56 -176.5t-128 -80.5l81 -278h-62l-77 270h-182l-63 -270h-61l160 695h216zM565 533q0 59 -27.5 83.5t-88.5 24.5h-159l-73 -317h162q84 0 135 58t51 151z" />
    <glyph glyph-name="rcommaaccent" unicode="&#x157;" horiz-adv-x="311" 
d="M68 0l117 500h59l-18 -75q96 66 187 85l-15 -61q-58 -14 -152 -63l-31 -16l-86 -370h-61zM60 -73h56l-93 -203h-48z" />
    <glyph glyph-name="Rcaron" unicode="&#x158;" horiz-adv-x="566" 
d="M609 926l-156 -134h-36l-98 134h59l65 -89l103 89h63zM629 535q0 -112 -56 -176.5t-128 -80.5l81 -278h-62l-77 270h-182l-63 -270h-61l160 695h216q87 0 129.5 -37.5t42.5 -122.5zM565 533q0 59 -27.5 83.5t-88.5 24.5h-159l-73 -317h162q84 0 135 58t51 151z" />
    <glyph glyph-name="rcaron" unicode="&#x159;" horiz-adv-x="311" 
d="M68 0l117 500h59l-18 -75q96 66 187 85l-15 -61q-58 -14 -152 -63l-31 -16l-86 -370h-61zM311 590h-32l-85 145h55l57 -95l99 95h62z" />
    <glyph glyph-name="Sacute" unicode="&#x15a;" horiz-adv-x="500" 
d="M580 632q-104 18 -180.5 18t-124 -41t-47.5 -119q0 -43 27 -62t105.5 -45t110 -57t31.5 -96q0 -111 -66.5 -175.5t-179.5 -64.5q-76 0 -170 18l-29 5l11 50q117 -18 197 -18t127 48t47 133q0 45 -23 64.5t-100.5 44.5t-114 56t-36.5 95q0 104 67 161.5t179 57.5
q78 0 155 -19l25 -7zM354 790l-8 45l219 95l9 -52z" />
    <glyph glyph-name="sacute" unicode="&#x15b;" horiz-adv-x="428" 
d="M470 443q-93 14 -153 14t-95 -32t-35 -77q0 -27 19.5 -40t87 -29t98 -37t30.5 -72q0 -87 -60.5 -133.5t-154.5 -46.5q-69 0 -133 16l-22 5l11 48q92 -16 154 -16t103 29t41 86q0 32 -21 44.5t-87 28t-96 37t-30 67.5q0 76 54.5 125t139.5 49q66 0 138 -13l24 -5zM282 601
l-6 46l218 94l7 -53z" />
    <glyph glyph-name="Scircumflex" unicode="&#x15c;" horiz-adv-x="500" 
d="M580 632q-104 18 -180.5 18t-124 -41t-47.5 -119q0 -43 27 -62t105.5 -45t110 -57t31.5 -96q0 -111 -66.5 -175.5t-179.5 -64.5q-76 0 -170 18l-29 5l11 50q117 -18 197 -18t127 48t47 133q0 45 -23 64.5t-100.5 44.5t-114 56t-36.5 95q0 104 67 161.5t179 57.5
q78 0 155 -19l25 -7zM288 797l161 134h30l97 -134h-56l-61 86l-105 -86h-66z" />
    <glyph glyph-name="scircumflex" unicode="&#x15d;" horiz-adv-x="428" 
d="M470 443q-93 14 -153 14t-95 -32t-35 -77q0 -27 19.5 -40t87 -29t98 -37t30.5 -72q0 -87 -60.5 -133.5t-154.5 -46.5q-69 0 -133 16l-22 5l11 48q92 -16 154 -16t103 29t41 86q0 32 -21 44.5t-87 28t-96 37t-30 67.5q0 76 54.5 125t139.5 49q66 0 138 -13l24 -5zM221 590
l151 145h31l87 -145h-56l-54 92l-97 -92h-62z" />
    <glyph glyph-name="Scedilla" unicode="&#x15e;" horiz-adv-x="500" 
d="M260 -48q83 0 83 -54q0 -10 -3 -22q-19 -83 -104 -83l-78 6l11 44q39 -4 67 -4q42 0 52 39q1 6 1 11q0 25 -35 25h-44l18 77q-75 2 -147 17l-24 5l11 50q117 -18 197 -18t127 48t47 133q0 45 -23 64.5t-100.5 44.5t-114 56t-36.5 95q0 104 67 161.5t179 57.5
q78 0 155 -19l25 -7l-11 -47q-104 18 -180.5 18t-124 -41t-47.5 -119q0 -43 27 -62t105.5 -45t110 -57t31.5 -96q0 -109 -64 -173t-173 -67l-10 -38h5z" />
    <glyph glyph-name="scedilla" unicode="&#x15f;" horiz-adv-x="428" 
d="M213 -48q83 0 83 -54q0 -10 -3 -22q-19 -83 -104 -83l-78 6l11 44q39 -4 67 -4q42 0 52 39q1 6 1 11q0 25 -35 25h-44l18 77q-58 2 -112 15l-18 5l11 48q92 -16 154 -16t103 29t41 86q0 32 -21 44.5t-87 28t-96 37t-30 67.5q0 76 54.5 125t139.5 49q66 0 138 -13l24 -5
l-13 -48q-93 14 -153 14t-95 -32t-35 -77q0 -27 19.5 -40t87 -29t98 -37t30.5 -72q0 -84 -57 -130.5t-146 -49.5l-10 -38h5z" />
    <glyph glyph-name="Scaron" unicode="&#x160;" horiz-adv-x="500" 
d="M616 930l-156 -134h-36l-98 134h59l65 -89l103 89h63zM580 632q-104 18 -180.5 18t-124 -41t-47.5 -119q0 -43 27 -62t105.5 -45t110 -57t31.5 -96q0 -111 -66.5 -175.5t-179.5 -64.5q-76 0 -170 18l-29 5l11 50q117 -18 197 -18t127 48t47 133q0 45 -23 64.5
t-100.5 44.5t-114 56t-36.5 95q0 104 67 161.5t179 57.5q78 0 155 -19l25 -7z" />
    <glyph glyph-name="scaron" unicode="&#x161;" horiz-adv-x="428" 
d="M470 443q-93 14 -153 14t-95 -32t-35 -77q0 -27 19.5 -40t87 -29t98 -37t30.5 -72q0 -87 -60.5 -133.5t-154.5 -46.5q-69 0 -133 16l-22 5l11 48q92 -16 154 -16t103 29t41 86q0 32 -21 44.5t-87 28t-96 37t-30 67.5q0 76 54.5 125t139.5 49q66 0 138 -13l24 -5zM370 590
h-32l-85 145h55l57 -95l99 95h62z" />
    <glyph glyph-name="Tcedilla" unicode="&#x162;" horiz-adv-x="472" 
d="M246 -48q83 0 83 -54q0 -10 -3 -22q-19 -83 -104 -83l-78 6l11 44q39 -4 67 -4q42 0 52 39q1 6 1 11q0 25 -35 25h-44l21 86h-13l147 640h-194l13 55h450l-13 -55h-194l-148 -640h-12l-12 -48h5z" />
    <glyph glyph-name="tcedilla" unicode="&#x163;" horiz-adv-x="315" 
d="M210 -48q83 0 83 -54q0 -10 -3 -22q-19 -83 -104 -83l-78 6l11 44q39 -4 67 -4q42 0 52 39q1 6 1 11q0 25 -35 25h-44l19 81q-63 16 -63 87q0 36 17 104l61 261h-68l13 53h68l37 153h60l-38 -153h149l-13 -53h-148l-62 -264q-13 -56 -13 -89q0 -51 55 -51l80 6l-4 -47
q-52 -12 -94 -12h-1l-10 -38h5z" />
    <glyph glyph-name="Tcaron" unicode="&#x164;" horiz-adv-x="472" 
d="M580 926l-156 -134h-36l-98 134h59l65 -89l103 89h63zM157 640l13 55h450l-13 -55h-194l-148 -640h-61l147 640h-194z" />
    <glyph glyph-name="tcaron" unicode="&#x165;" horiz-adv-x="387" 
d="M553 695l-53 -228h-55l53 228h55zM179 94q0 -51 55 -51l80 6l-4 -47q-52 -12 -96.5 -12t-71 24t-26.5 64t17 108l61 261h-68l13 53h68l37 153h60l-38 -153h149l-13 -53h-148l-62 -264q-13 -56 -13 -89z" />
    <glyph glyph-name="Tbar" unicode="&#x166;" horiz-adv-x="477" 
d="M159 640l13 55h450l-13 -55h-194l-64 -276h162l-15 -57h-160l-71 -307h-61l70 307h-158l13 57h158l64 276h-194z" />
    <glyph glyph-name="tbar" unicode="&#x167;" horiz-adv-x="320" 
d="M182 94q0 -51 55 -51l80 6l-4 -47q-52 -12 -96.5 -12t-71 24t-26.5 64t17 108l19 82h-55l12 53h55l30 126h-68l13 53h68l37 153h60l-38 -153h149l-13 -53h-148l-30 -126h144l-13 -53h-143l-20 -85q-13 -56 -13 -89z" />
    <glyph glyph-name="Utilde" unicode="&#x168;" horiz-adv-x="593" 
d="M553 808q-23 0 -74 29.5t-63 29.5q-21 0 -72 -38l-18 -13l-2 44q67 59 97.5 59t80.5 -29t60 -29q20 0 68 36l16 12l3 -42q-63 -59 -96 -59zM176 139q0 -93 139 -93q84 0 126.5 38.5t61.5 121.5l113 489h62l-113 -490q-26 -110 -85 -162.5t-160 -52.5q-205 0 -205 142
q0 45 11 86l110 477h61l-111 -482q-10 -40 -10 -74z" />
    <glyph glyph-name="utilde" unicode="&#x169;" horiz-adv-x="494" 
d="M453 620q-19 0 -67 24.5t-59 24.5q-20 0 -65 -33l-15 -11l-2 47q60 50 94 50q22 0 68 -24.5t55 -24.5q18 0 61 31l14 10l4 -46q-54 -48 -88 -48zM217 -10q-56 0 -86.5 33t-30.5 85t20 136l60 256h59l-59 -252q-19 -81 -19 -122q0 -82 75 -82q33 0 75 31t67 62l26 31
l77 332h60l-116 -500h-58l21 97q-50 -67 -118 -95q-28 -12 -53 -12z" />
    <glyph glyph-name="Umacron" unicode="&#x16a;" horiz-adv-x="593" 
d="M176 139q0 -93 139 -93q84 0 126.5 38.5t61.5 121.5l113 489h62l-113 -490q-26 -110 -85 -162.5t-160 -52.5q-205 0 -205 142q0 45 11 86l110 477h61l-111 -482q-10 -40 -10 -74zM338 828l10 46h286l-12 -46h-284z" />
    <glyph glyph-name="umacron" unicode="&#x16b;" horiz-adv-x="494" 
d="M217 -10q-56 0 -86.5 33t-30.5 85t20 136l60 256h59l-59 -252q-19 -81 -19 -122q0 -82 75 -82q33 0 75 31t67 62l26 31l77 332h60l-116 -500h-58l21 97q-50 -67 -118 -95q-28 -12 -53 -12zM248 642l11 47h267l-12 -47h-266z" />
    <glyph glyph-name="Ubreve" unicode="&#x16c;" horiz-adv-x="593" 
d="M414 922q-2 -12 -2 -29t14 -31.5t50 -14.5t64.5 21t37.5 54h53q-17 -59 -59.5 -91t-104 -32t-89.5 31q-20 22 -20 60q0 15 3 32h53zM176 139q0 -93 139 -93q84 0 126.5 38.5t61.5 121.5l113 489h62l-113 -490q-26 -110 -85 -162.5t-160 -52.5q-205 0 -205 142q0 45 11 86
l110 477h61l-111 -482q-10 -40 -10 -74z" />
    <glyph glyph-name="ubreve" unicode="&#x16d;" horiz-adv-x="494" 
d="M217 -10q-56 0 -86.5 33t-30.5 85t20 136l60 256h59l-59 -252q-19 -81 -19 -122q0 -82 75 -82q33 0 75 31t67 62l26 31l77 332h60l-116 -500h-58l21 97q-50 -67 -118 -95q-28 -12 -53 -12zM319 727q-3 -13 -3 -29t10 -32q17 -23 59 -23q83 0 106 84h52
q-38 -133 -173 -133q-62 0 -88 37q-18 25 -18 51t4 45h51z" />
    <glyph glyph-name="Uring" unicode="&#x16e;" horiz-adv-x="593" 
d="M548 772q-32 -25 -78.5 -25t-67.5 25q-12 16 -12 34.5t5 35.5q13 47 44.5 71.5t76 24.5t65.5 -24q13 -15 13 -35q0 -70 -46 -107zM436 842q-2 -8 -2 -18t9 -22t36 -12q57 0 70 52q1 7 1 18t-10 23t-35 12q-57 0 -69 -53zM176 139q0 -93 139 -93q84 0 126.5 38.5
t61.5 121.5l113 489h62l-113 -490q-26 -110 -85 -162.5t-160 -52.5q-205 0 -205 142q0 45 11 86l110 477h61l-111 -482q-10 -40 -10 -74z" />
    <glyph glyph-name="uring" unicode="&#x16f;" horiz-adv-x="494" 
d="M335 711q31 28 70 28t55 -19.5t16 -49.5q0 -55 -34.5 -88t-78 -33t-59.5 26q-11 17 -11 36q0 62 42 100zM373 590q22 0 43.5 18.5t21.5 51.5q0 9 -9 22.5t-30.5 13.5t-43.5 -17.5t-22 -51.5q0 -9 9 -23t31 -14zM217 -10q-56 0 -86.5 33t-30.5 85t20 136l60 256h59
l-59 -252q-19 -81 -19 -122q0 -82 75 -82q33 0 75 31t67 62l26 31l77 332h60l-116 -500h-58l21 97q-50 -67 -118 -95q-28 -12 -53 -12z" />
    <glyph glyph-name="Uhungarumlaut" unicode="&#x170;" horiz-adv-x="593" 
d="M532 759l-28 28l177 114l33 -29zM347 760l-30 27l180 115l31 -30zM176 139q0 -93 139 -93q84 0 126.5 38.5t61.5 121.5l113 489h62l-113 -490q-26 -110 -85 -162.5t-160 -52.5q-205 0 -205 142q0 45 11 86l110 477h61l-111 -482q-10 -40 -10 -74z" />
    <glyph glyph-name="uhungarumlaut" unicode="&#x171;" horiz-adv-x="494" 
d="M461 586l-28 35l172 126l32 -36zM282 586l-28 35l172 126l31 -36zM217 -10q-56 0 -86.5 33t-30.5 85t20 136l60 256h59l-59 -252q-19 -81 -19 -122q0 -82 75 -82q33 0 75 31t67 62l26 31l77 332h60l-116 -500h-58l21 97q-50 -67 -118 -95q-28 -12 -53 -12z" />
    <glyph glyph-name="Uogonek" unicode="&#x172;" horiz-adv-x="594" 
d="M176 139q0 -93 139 -93q84 0 126.5 38.5t61.5 121.5l113 489h62l-113 -490q-22 -95 -68.5 -146.5t-127.5 -63.5q-31 -26 -59 -61.5t-28 -59.5q0 -22 28 -22l51 6l-6 -51q-42 -9 -71 -9q-68 0 -68 60q0 54 87 132q-89 2 -138.5 37t-49.5 105q0 45 11 86l110 477h61
l-111 -482q-10 -40 -10 -74z" />
    <glyph glyph-name="uogonek" unicode="&#x173;" horiz-adv-x="494" 
d="M327 -126q0 -22 28 -22l51 6l-6 -51q-42 -9 -71 -9q-68 0 -68 60q0 34 34.5 76t72.5 73l20 90q-50 -67 -118 -95q-28 -12 -53 -12q-56 0 -86.5 33t-30.5 85t20 136l60 256h59l-59 -252q-19 -81 -19 -122q0 -82 75 -82q33 0 75 31t67 62l26 31l77 332h60l-116 -500
q-32 -24 -65 -62t-33 -64z" />
    <glyph glyph-name="Wcircumflex" unicode="&#x174;" horiz-adv-x="820" 
d="M438 793l161 134h30l97 -134h-56l-61 86l-105 -86h-66zM190 695h61l-29 -639h30l280 629h66l-15 -629h28l272 639h62l-299 -695h-117l16 589l-261 -589h-120z" />
    <glyph glyph-name="wcircumflex" unicode="&#x175;" horiz-adv-x="723" 
d="M146 500h60l-3 -448h17l217 438h72l10 -438h18l208 448h61l-232 -500h-111l-8 413l-202 -413h-109zM348 590l151 145h31l87 -145h-56l-54 92l-97 -92h-62z" />
    <glyph glyph-name="Ycircumflex" unicode="&#x176;" horiz-adv-x="490" 
d="M278 793l161 134h30l97 -134h-56l-61 86l-105 -86h-66zM635 695l-295 -397l-70 -298h-59l70 304l-108 391h62l89 -337l245 337h66z" />
    <glyph glyph-name="ycircumflex" unicode="&#x177;" horiz-adv-x="452" 
d="M142 500h59l14 -448h34l229 448h63l-374 -724h-61l118 224h-65zM224 590l151 145h31l87 -145h-56l-54 92l-97 -92h-62z" />
    <glyph glyph-name="Ydieresis" unicode="&#x178;" horiz-adv-x="490" 
d="M304 819l18 83h50l-20 -83h-48zM488 819l20 83h49l-20 -83h-49zM635 695l-295 -397l-70 -298h-59l70 304l-108 391h62l89 -337l245 337h66z" />
    <glyph glyph-name="Zacute" unicode="&#x179;" horiz-adv-x="496" 
d="M340 790l-8 45l219 95l9 -52zM188 640l13 55h416l-22 -93l-472 -523l-6 -24h350l-13 -55h-416l21 90l471 522l7 28h-349z" />
    <glyph glyph-name="zacute" unicode="&#x17a;" horiz-adv-x="418" 
d="M155 500h340l-11 -52l-363 -396h271l-12 -52h-341l9 52l362 395h-269zM263 601l-6 46l218 94l7 -53z" />
    <glyph glyph-name="Zdotaccent" unicode="&#x17b;" horiz-adv-x="496" 
d="M400 844l17 78h50l-17 -78h-50zM188 640l13 55h416l-22 -93l-472 -523l-6 -24h350l-13 -55h-416l21 90l471 522l7 28h-349z" />
    <glyph glyph-name="zdotaccent" unicode="&#x17c;" horiz-adv-x="418" 
d="M155 500h340l-11 -52l-363 -396h271l-12 -52h-341l9 52l362 395h-269zM313 610l19 78h51l-18 -78h-52z" />
    <glyph glyph-name="Zcaron" unicode="&#x17d;" horiz-adv-x="496" 
d="M600 925l-156 -134h-36l-98 134h59l65 -89l103 89h63zM188 640l13 55h416l-22 -93l-472 -523l-6 -24h350l-13 -55h-416l21 90l471 522l7 28h-349z" />
    <glyph glyph-name="zcaron" unicode="&#x17e;" horiz-adv-x="418" 
d="M350 590h-32l-85 145h55l57 -95l99 95h62zM141 447l14 53h340l-11 -52l-363 -396h271l-12 -52h-341l9 52l362 395h-269z" />
    <glyph glyph-name="florin" unicode="&#x192;" 
d="M93 -243q-33 0 -65 7l13 53q35 -3 67 -3q66 0 97 123l100 418h-107l12 58h108l14 59q30 118 69.5 163.5t109.5 45.5t106 -9l-14 -54q-71 4 -99 4q-46 0 -70.5 -37t-46.5 -129l-10 -43h163l-14 -58h-162l-101 -423q-23 -95 -64 -135t-106 -40z" />
    <glyph glyph-name="Aringacute" unicode="&#x1fa;" horiz-adv-x="555" 
d="M370 671q-16 17 -16 37t5 37q13 47 44.5 71.5t76 24.5t65.5 -24q13 -15 13 -35q0 -72 -50 -109l23 -673h-61l-8 191h-274l-99 -191h-62zM417 640l-202 -395h247l-13 395h-32zM395 881l-6 46l218 94l7 -53zM398 728q0 -26 27 -33h38q39 9 50 50q1 7 1 18t-10 23t-35 12
q-57 0 -69 -53q-2 -9 -2 -17z" />
    <glyph glyph-name="aringacute" unicode="&#x1fb;" horiz-adv-x="493" 
d="M340 771l-7 51l218 94l8 -58zM216 -10q-125 0 -125 141q0 131 63 249q30 57 79.5 93.5t108.5 36.5q54 0 159 -18l35 -6l-76 -325q-14 -56 -24 -134l-4 -26l-58 -2q15 93 19 114q-4 -5 -10.5 -13.5t-26 -29.5t-39.5 -37t-48 -29.5t-53 -13.5zM467 442q-72 15 -127.5 15
t-100.5 -55t-65.5 -127.5t-20.5 -130t18.5 -79.5t55.5 -22t80 35t71 70l28 36zM345 711q31 28 70 28t55 -19.5t16 -49.5q0 -55 -34.5 -88t-78 -33t-59.5 26q-11 17 -11 36q0 62 42 100zM383 590q22 0 43.5 18.5t21.5 51.5q0 9 -9 22.5t-30.5 13.5t-43.5 -17.5t-22 -51.5
q0 -9 9 -23t31 -14z" />
    <glyph glyph-name="AEacute" unicode="&#x1fc;" horiz-adv-x="786" 
d="M357 0l44 191h-216l-99 -191h-59l355 697h523l-12 -57l-326 2l-63 -260h270l-12 -56h-270l-64 -269h325l-12 -57h-384zM412 640l-200 -393h202l95 393h-97zM560 790l-8 45l219 95l9 -52z" />
    <glyph glyph-name="aeacute" unicode="&#x1fd;" horiz-adv-x="757" 
d="M438 142q0 -95 84 -95q57 0 156 7l29 2l-11 -52q-104 -14 -179 -14q-94 0 -125 56q-49 -21 -116 -38.5t-111 -17.5q-62 0 -85 44q-16 28 -16 57q0 107 63 153q45 32 120 43.5t156 16.5q16 48 16 80q0 66 -67 66q-49 0 -150 -8l-29 -3l9 57q112 13 171 13q113 0 123 -81
q62 81 173 81q139 0 142 -135q0 -53 -14 -103l-13 -48l-314 2q-12 -51 -12 -83zM127 110q0 -64 56 -64q70 0 195 44q-4 20 -4 53t19 109q-110 -11 -152 -17q-90 -14 -109 -92q-5 -17 -5 -33zM732 360q0 94 -96 94q-67 0 -110 -42.5t-65 -135.5l258 -2q13 53 13 86zM441 601
l-6 46l218 94l7 -53z" />
    <glyph glyph-name="Oslashacute" unicode="&#x1fe;" horiz-adv-x="633" 
d="M163 42q-45 48 -45 165t41.5 236t120 190.5t180.5 71.5q84 0 134 -31l82 120l41 -18l-89 -130q46 -50 46 -148q0 -135 -43 -256.5t-121.5 -186.5t-171.5 -65t-140 25l-88 -128l-37 22zM560 624q-36 26 -102 26t-117 -40q-75 -58 -117.5 -178.5t-42.5 -232.5
q0 -67 20 -101zM233 66q34 -21 103 -21t122 42q73 58 112.5 174t39.5 234q0 58 -20 95zM428 783l-9 52l219 95l10 -58z" />
    <glyph glyph-name="oslashacute" unicode="&#x1ff;" horiz-adv-x="494" 
d="M345 509q50 0 89 -17l69 112l38 -16l-74 -117q46 -43 46 -127q0 -148 -70.5 -251t-184.5 -103q-51 0 -84 13l-71 -115l-38 16l75 119q-46 39 -46 125q0 149 71.5 255t179.5 106zM345 457q-83 0 -137 -92t-54 -217q0 -46 20 -72l230 367q-25 14 -59 14zM258 43
q86 0 140 88.5t54 213.5q0 44 -19 72l-112 -177l-116 -187q20 -10 53 -10zM298 601l-6 46l218 94l7 -53z" />
    <glyph glyph-name="Scommaaccent" unicode="&#x218;" horiz-adv-x="500" 
d="M219 -73h56l-93 -203h-48zM580 632q-104 18 -180.5 18t-124 -41t-47.5 -119q0 -43 27 -62t105.5 -45t110 -57t31.5 -96q0 -111 -66.5 -175.5t-179.5 -64.5q-76 0 -170 18l-29 5l11 50q117 -18 197 -18t127 48t47 133q0 45 -23 64.5t-100.5 44.5t-114 56t-36.5 95
q0 104 67 161.5t179 57.5q78 0 155 -19l25 -7z" />
    <glyph glyph-name="scommaaccent" unicode="&#x219;" horiz-adv-x="427" 
d="M469 443q-93 14 -153 14t-95 -32t-35 -77q0 -27 19.5 -40t87 -29t98 -37t30.5 -72q0 -87 -60.5 -133.5t-154.5 -46.5q-69 0 -132 16l-23 5l11 48q92 -16 154 -16t103 29t41 86q0 32 -21 44.5t-87 28t-96 37t-30 67.5q0 76 54.5 125t139.5 49q66 0 138 -13l24 -5zM176 -73
h56l-93 -203h-48z" />
    <glyph glyph-name="Tcommaaccent" unicode="&#x21a;" horiz-adv-x="472" 
d="M194 -73h56l-93 -203h-48zM157 640l13 55h450l-13 -55h-194l-148 -640h-61l147 640h-194z" />
    <glyph glyph-name="tcommaaccent" unicode="&#x21b;" horiz-adv-x="315" 
d="M179 94q0 -51 55 -51l80 6l-4 -47q-52 -12 -96.5 -12t-71 24t-26.5 64t17 108l61 261h-68l13 53h68l37 153h60l-38 -153h149l-13 -53h-148l-62 -264q-13 -56 -13 -89zM148 -73h56l-93 -203h-48z" />
    <glyph glyph-name="circumflex" unicode="&#x2c6;" horiz-adv-x="791" 
d="M392 590l151 145h31l87 -145h-56l-54 92l-97 -92h-62z" />
    <glyph glyph-name="caron" unicode="&#x2c7;" horiz-adv-x="791" 
d="M541 590h-32l-85 145h55l57 -95l99 95h62z" />
    <glyph glyph-name="breve" unicode="&#x2d8;" horiz-adv-x="433" 
d="M295 727q-3 -13 -3 -29t10 -32q17 -23 59 -23q83 0 106 84h52q-38 -133 -173 -133q-62 0 -88 37q-18 25 -18 51t4 45h51z" />
    <glyph glyph-name="dotaccent" unicode="&#x2d9;" horiz-adv-x="217" 
d="M225 610l19 78h51l-18 -78h-52z" />
    <glyph glyph-name="ring" unicode="&#x2da;" horiz-adv-x="791" 
d="M354 711q31 28 70 28t55 -19.5t16 -49.5q0 -55 -34.5 -88t-78 -33t-59.5 26q-11 17 -11 36q0 62 42 100zM392 590q22 0 43.5 18.5t21.5 51.5q0 9 -9 22.5t-30.5 13.5t-43.5 -17.5t-22 -51.5q0 -9 9 -23t31 -14z" />
    <glyph glyph-name="ogonek" unicode="&#x2db;" horiz-adv-x="421" 
d="M205 -202q-68 0 -68 60q0 36 37.5 80.5t74.5 72.5l52 -8q-31 -23 -64.5 -63t-33.5 -66q0 -22 28 -22l51 6l-6 -51q-42 -9 -71 -9z" />
    <glyph glyph-name="tilde" unicode="&#x2dc;" horiz-adv-x="422" 
d="M433 620q-20 0 -67.5 24.5t-58.5 24.5q-20 0 -65 -33l-15 -11l-2 47q60 50 94 50q22 0 68 -24.5t55 -24.5q18 0 61 31l14 10l4 -46q-54 -48 -88 -48z" />
    <glyph glyph-name="hungarumlaut" unicode="&#x2dd;" horiz-adv-x="660" 
d="M490 586l-28 35l172 126l32 -36zM311 586l-28 35l172 126l31 -36z" />
    <glyph glyph-name="pi" unicode="&#x3c0;" 
d="M433 154v293h-175l-28 -447h-61l31 447q-61 0 -101 -10l-12 -3v52q58 14 140 14h231q63 0 119 12l17 3v-52q-29 -12 -102 -14v-295q0 -64 18.5 -84t73.5 -20v-53q-91 0 -121 31t-30 126z" />
    <glyph glyph-name="Wgrave" unicode="&#x1e80;" horiz-adv-x="820" 
d="M506 925l175 -95l-26 -43l-178 88zM190 695h61l-29 -639h30l280 629h66l-15 -629h28l272 639h62l-299 -695h-117l16 589l-261 -589h-120z" />
    <glyph glyph-name="wgrave" unicode="&#x1e81;" horiz-adv-x="723" 
d="M381 734l176 -94l-28 -41l-177 88zM146 500h60l-3 -448h17l217 438h72l10 -438h18l208 448h61l-232 -500h-111l-8 413l-202 -413h-109z" />
    <glyph glyph-name="Wacute" unicode="&#x1e82;" horiz-adv-x="820" 
d="M505 790l-8 45l219 95l9 -52zM190 695h61l-29 -639h30l280 629h66l-15 -629h28l272 639h62l-299 -695h-117l16 589l-261 -589h-120z" />
    <glyph glyph-name="wacute" unicode="&#x1e83;" horiz-adv-x="723" 
d="M146 500h60l-3 -448h17l217 438h72l10 -438h18l208 448h61l-232 -500h-111l-8 413l-202 -413h-109zM407 601l-6 46l218 94l7 -53z" />
    <glyph glyph-name="Wdieresis" unicode="&#x1e84;" horiz-adv-x="820" 
d="M472 820l18 83h50l-20 -83h-48zM656 820l20 83h49l-20 -83h-49zM190 695h61l-29 -639h30l280 629h66l-15 -629h28l272 639h62l-299 -695h-117l16 589l-261 -589h-120z" />
    <glyph glyph-name="wdieresis" unicode="&#x1e85;" horiz-adv-x="723" 
d="M146 500h60l-3 -448h17l217 438h72l10 -438h18l208 448h61l-232 -500h-111l-8 413l-202 -413h-109zM377 625l19 82h49l-19 -82h-49zM556 625l18 82h49l-19 -82h-48z" />
    <glyph glyph-name="uni1EAB" unicode="&#x1eab;" horiz-adv-x="493" 
d="M216 -10q-125 0 -125 141q0 131 63 249q30 57 79.5 93.5t108.5 36.5q54 0 159 -18l35 -6l-76 -325q-14 -56 -24 -134l-4 -26l-58 -2q15 93 19 114q-4 -5 -10.5 -13.5t-26 -29.5t-39.5 -37t-48 -29.5t-53 -13.5zM467 442q-72 15 -127.5 15t-100.5 -55t-65.5 -127.5
t-20.5 -130t18.5 -79.5t55.5 -22t80 35t71 70l28 36zM502 735q-20 0 -67 24.5t-59 24.5q-20 0 -65 -33l-15 -11l-2 47q60 50 94 50q22 0 68 -24.5t56 -24.5q19 0 60 30l14 11l4 -46q-54 -48 -88 -48zM256 560l151 145h31l87 -145h-56l-54 92l-97 -92h-62z" />
    <glyph glyph-name="uni1EB0" unicode="&#x1eb0;" horiz-adv-x="555" 
d="M441 1072l176 -94l-28 -41l-177 88zM27 0l355 695h126l23 -695h-61l-8 191h-274l-99 -191h-62zM417 640l-202 -395h247l-13 395h-32zM405 882q-2 -12 -2 -29t14 -31.5t50 -14.5t64.5 21t37.5 54h53q-17 -59 -59.5 -91t-104 -32t-89.5 31q-20 22 -20 60q0 15 3 32h53z" />
    <glyph glyph-name="uni1EC5" unicode="&#x1ec5;" horiz-adv-x="458" 
d="M484 735q-20 0 -67 24.5t-59 24.5q-20 0 -65 -33l-15 -11l-2 47q60 50 94 50q22 0 68 -24.5t56 -24.5q19 0 60 30l14 11l4 -46q-54 -48 -88 -48zM181.5 70q27.5 -26 67.5 -26q77 0 147 18l24 7l-4 -49q-87 -30 -166 -30q-157 0 -157 148q0 136 65 249q31 55 84 88.5
t120 33.5q141 0 141 -114q0 -88 -68 -123.5t-213 -35.5h-56q-12 -50 -12 -95t27.5 -71zM234 285q110 0 159.5 23.5t49.5 86.5t-84 63q-131 0 -184 -173h59zM241 560l151 145h31l87 -145h-56l-54 92l-97 -92h-62z" />
    <glyph glyph-name="uni1ED7" unicode="&#x1ed7;" horiz-adv-x="494" 
d="M345 509q168 0 168 -165q0 -148 -70.5 -251t-184.5 -103q-164 0 -164 158q0 149 71.5 255t179.5 106zM258 43q86 0 140 88.5t54 213.5q0 51 -27 81.5t-80 30.5q-83 0 -137 -92t-54 -217q0 -105 104 -105zM491 735q-20 0 -67.5 24.5t-58.5 24.5q-20 0 -65 -33l-15 -11
l-2 47q60 50 94 50q22 0 68 -24.5t55 -24.5q20 0 61 30l14 11l4 -46q-54 -48 -88 -48zM240 560l151 145h31l87 -145h-56l-54 92l-97 -92h-62z" />
    <glyph glyph-name="Ygrave" unicode="&#x1ef2;" horiz-adv-x="490" 
d="M342 925l175 -95l-26 -43l-178 88zM635 695l-295 -397l-70 -298h-59l70 304l-108 391h62l89 -337l245 337h66z" />
    <glyph glyph-name="ygrave" unicode="&#x1ef3;" horiz-adv-x="452" 
d="M251 734l176 -94l-28 -41l-177 88zM142 500h59l14 -448h34l229 448h63l-374 -724h-61l118 224h-65z" />
    <glyph glyph-name="uni1EF8" unicode="&#x1ef8;" horiz-adv-x="490" 
d="M500 818q-20 0 -67 24.5t-59 24.5q-20 0 -65 -33l-15 -11l-2 47q60 50 94 50q22 0 68 -24.5t56 -24.5q17 0 60 31l14 10l4 -46q-54 -48 -88 -48zM635 695l-295 -397l-70 -298h-59l70 304l-108 391h62l89 -337l245 337h66z" />
    <glyph glyph-name="uni1EF9" unicode="&#x1ef9;" horiz-adv-x="452" 
d="M440 620q-20 0 -67 24.5t-59 24.5q-20 0 -65 -33l-15 -11l-2 47q60 50 94 50q22 0 68 -24.5t56 -24.5q17 0 60 31l14 10l4 -46q-54 -48 -88 -48zM142 500h59l14 -448h34l229 448h63l-374 -724h-61l118 224h-65z" />
    <glyph glyph-name="endash" unicode="&#x2013;" horiz-adv-x="611" 
d="M118 295h500v-54h-500v54z" />
    <glyph glyph-name="emdash" unicode="&#x2014;" horiz-adv-x="1111" 
d="M118 295h1000v-54h-1000v54z" />
    <glyph glyph-name="quoteleft" unicode="&#x2018;" horiz-adv-x="182" 
d="M256 694h46l-88 -215h-62z" />
    <glyph glyph-name="quoteright" unicode="&#x2019;" horiz-adv-x="182" 
d="M200 480h-46l88 215h62z" />
    <glyph glyph-name="quotesinglbase" unicode="&#x201a;" horiz-adv-x="178" 
d="M44 -127h-46l88 215h62z" />
    <glyph glyph-name="quotedblleft" unicode="&#x201c;" horiz-adv-x="332" 
d="M255 695h46l-88 -215h-62zM406 695h46l-88 -215h-62z" />
    <glyph glyph-name="quotedblright" unicode="&#x201d;" horiz-adv-x="332" 
d="M200 480h-46l88 215h62zM350 480h-46l88 215h62z" />
    <glyph glyph-name="quotedblbase" unicode="&#x201e;" horiz-adv-x="319" 
d="M243 88h46l-88 -215h-62zM91 88h46l-88 -215h-62z" />
    <glyph glyph-name="dagger" unicode="&#x2020;" horiz-adv-x="442" 
d="M129 435l14 63l163 -2l46 194h56l-44 -192h163l-14 -63l-165 2l-121 -513h-55l119 511h-162z" />
    <glyph glyph-name="daggerdbl" unicode="&#x2021;" horiz-adv-x="483" 
d="M194 -76l45 192h-164l14 61l164 -1l61 259h-162l14 63l163 -2l46 194h56l-45 -192h164l-15 -63l-164 2l-61 -260h164l-15 -61l-164 2l-45 -194h-56z" />
    <glyph glyph-name="bullet" unicode="&#x2022;" horiz-adv-x="492" 
d="M179 107v288h250v-288h-250z" />
    <glyph glyph-name="ellipsis" unicode="&#x2026;" horiz-adv-x="647" 
d="M57 0l23 100h61l-23 -100h-61zM295 0l23 100h61l-23 -100h-61zM530 0l23 100h61l-23 -100h-61z" />
    <glyph glyph-name="perthousand" unicode="&#x2030;" horiz-adv-x="812" 
d="M294 657q-57 0 -79 -92q-8 -30 -8 -50q0 -47 40 -47q57 0 79 86q9 39 9 59q0 44 -41 44zM159 5l361 701l43 -12l-361 -699zM164 565q34 136 141 136q81 0 81 -79q0 -25 -8 -58q-17 -70 -54.5 -105t-87.5 -35t-70 35q-10 19 -10 46t8 60zM413 0q-81 0 -81 83q0 25 8 58
q34 136 141 136q82 0 82 -79q0 -25 -8 -58q-17 -70 -54.5 -105t-87.5 -35zM384 92q0 -48 39 -48q57 0 81 96q7 27 7 46q0 47 -41 47q-30 0 -48.5 -22.5t-28 -60.5t-9.5 -58zM671 0q-81 0 -81 83q0 25 8 58q34 136 141 136q82 0 82 -79q0 -25 -8 -58q-17 -70 -54.5 -105
t-87.5 -35zM769 188q0 45 -41 45q-30 0 -48.5 -22.5t-28 -60.5t-9.5 -58q0 -48 39 -48q57 0 81 96q7 28 7 48z" />
    <glyph glyph-name="guilsinglleft" unicode="&#x2039;" horiz-adv-x="262" 
d="M303 402l-19 -63l-136 -92l91 -102l-17 -56l-135 145l11 31z" />
    <glyph glyph-name="guilsinglright" unicode="&#x203a;" horiz-adv-x="262" 
d="M73 89l19 63l136 92l-91 102l17 56l135 -145l-11 -31z" />
    <glyph glyph-name="fraction" unicode="&#x2044;" horiz-adv-x="8" 
d="M-97 -24l-57 21l427 690l56 -21z" />
    <glyph glyph-name="zerosuperior" unicode="&#x2070;" horiz-adv-x="280" 
d="M244 775q29 24 84 24q84 0 84 -85q0 -33 -10 -80q-27 -106 -74 -141q-33 -25 -84 -25q-86 0 -86 90q0 33 11 77q26 103 75 140zM357 702q0 48 -43 48q-32 0 -53 -26.5t-34 -79.5t-13 -79q0 -47 43 -47q31 0 52 26t34.5 79t13.5 79z" />
    <glyph glyph-name="foursuperior" unicode="&#x2074;" horiz-adv-x="280" 
d="M279 478l12 51h-143l12 46l130 215h59l-130 -211h84l26 87h50l-22 -87h30l-12 -50h-30l-13 -51h-53z" />
    <glyph glyph-name="fivesuperior" unicode="&#x2075;" horiz-adv-x="280" 
d="M327 597q0 31 -32.5 31t-66.5 -18l-42 5l53 175h182l-11 -49h-136l-27 -83q28 18 67.5 18t59.5 -24q12 -15 12 -35.5t-4 -39.5q-28 -108 -133 -108q-36 0 -86 10l-15 3l17 47q51 -11 83 -11q62 0 76 58q3 12 3 21z" />
    <glyph glyph-name="sixsuperior" unicode="&#x2076;" horiz-adv-x="280" 
d="M309 682q82 0 82 -68q0 -15 -5 -34q-28 -112 -136 -112q-85 0 -85 89q0 32 11 75q23 90 62 128.5t103 38.5q27 0 71 -7l12 -2l-14 -46q-45 7 -81 7q-66 0 -88 -85q41 16 68 16zM335 605q0 30 -35 30q-36 0 -54 -9t-18 -10q-7 -29 -7 -50q0 -49 40 -49q54 0 70 62
q4 15 4 26z" />
    <glyph glyph-name="sevensuperior" unicode="&#x2077;" horiz-adv-x="280" 
d="M203 738l13 52h202l-18 -71l-169 -250l-60 14l167 233l5 22h-140z" />
    <glyph glyph-name="eightsuperior" unicode="&#x2078;" horiz-adv-x="280" 
d="M327 799q94 0 94 -60q0 -11 -3 -24q-14 -60 -67 -74q38 -12 38 -51q0 -11 -3 -25q-14 -55 -49 -76t-93 -21q-97 0 -97 65q0 13 4 28q16 61 74 81q-34 13 -34 50q0 11 3 24q21 83 133 83zM261.5 515q56.5 0 68.5 50q2 9 2 16q0 25 -35 36h-30q-27 -7 -41 -19
q-21 -19 -21 -51t56.5 -32zM315 753q-56 0 -67 -41q-2 -8 -2 -16t5.5 -16.5t26.5 -16.5h30q26 8 38 18q18 15 18 35t-9 28.5t-40 8.5z" />
    <glyph glyph-name="ninesuperior" unicode="&#x2079;" horiz-adv-x="280" 
d="M242 518q69 0 92 83q-41 -14 -80 -14t-59 28q-12 17 -12 37.5t5 39.5q12 51 48 79t88 28q84 0 84 -90q0 -32 -11 -77q-22 -91 -59.5 -127.5t-104.5 -36.5q-30 0 -73 8l-12 3l15 45q42 -6 79 -6zM241 673q0 -40 39 -40q22 0 56 13l11 4q7 30 7 50q0 51 -41 51
q-55 0 -70 -59q-2 -10 -2 -19z" />
    <glyph glyph-name="zeroinferior" unicode="&#x2080;" horiz-adv-x="280" 
d="M135 297q29 24 84 24q84 0 84 -85q0 -33 -10 -80q-27 -106 -74 -141q-33 -25 -84 -25q-86 0 -86 90q0 33 11 77q26 103 75 140zM248 224q0 48 -43 48q-32 0 -53 -26.5t-34 -79.5t-13 -79q0 -47 43 -47q31 0 52 26t34.5 79t13.5 79z" />
    <glyph glyph-name="oneinferior" unicode="&#x2081;" horiz-adv-x="280" 
d="M86 143l118 69h51l-77 -312h-54l63 253l-86 -50z" />
    <glyph glyph-name="twoinferior" unicode="&#x2082;" horiz-adv-x="280" 
d="M215 142q0 28 -44 28q-27 0 -73 -8l-16 -2l10 49q60 12 102 12q79 0 79 -58q0 -72 -96 -146l-83 -68h134l-12 -49h-204l12 48l115 93q34 27 51.5 46t21 34t3.5 21z" />
    <glyph glyph-name="threeinferior" unicode="&#x2083;" horiz-adv-x="280" 
d="M209 63q37 -12 37 -43q0 -14 -5 -34q-23 -96 -129 -96q-37 0 -91 8l-16 3l15 47q54 -8 104 -8t62 47q3 10 3 18q0 31 -42 31h-65l11 47h65q16 0 33.5 15t22.5 35t-4.5 29.5t-33.5 9.5q-42 0 -84 -6l-14 -2l8 47q60 10 103 10q85 0 85 -56q0 -35 -24 -69q-15 -20 -41 -33z
" />
    <glyph glyph-name="fourinferior" unicode="&#x2084;" horiz-adv-x="280" 
d="M153 -100l12 51h-143l12 46l130 215h59l-130 -211h84l26 87h50l-22 -87h30l-12 -50h-30l-13 -51h-53z" />
    <glyph glyph-name="fiveinferior" unicode="&#x2085;" horiz-adv-x="280" 
d="M187 19q0 31 -32.5 31t-66.5 -18l-42 5l53 175h182l-11 -49h-136l-27 -83q28 18 67.5 18t59.5 -24q12 -15 12 -35.5t-4 -39.5q-28 -108 -133 -108q-36 0 -86 10l-15 3l17 47q51 -11 83 -11q62 0 76 58q3 12 3 21z" />
    <glyph glyph-name="sixinferior" unicode="&#x2086;" horiz-adv-x="280" 
d="M174 104q82 0 82 -68q0 -15 -5 -34q-28 -112 -136 -112q-85 0 -85 89q0 32 11 75q23 90 62 128.5t103 38.5q27 0 70 -7l13 -2l-14 -46q-45 7 -81 7q-66 0 -88 -85q41 16 68 16zM200 27q0 30 -35 30q-36 0 -54 -9t-18 -10q-7 -29 -7 -50q0 -49 40 -49q54 0 70 62
q4 15 4 26z" />
    <glyph glyph-name="seveninferior" unicode="&#x2087;" horiz-adv-x="280" 
d="M75 160l13 52h202l-18 -71l-169 -250l-60 14l167 233l5 22h-140z" />
    <glyph glyph-name="eightinferior" unicode="&#x2088;" horiz-adv-x="280" 
d="M194 221q94 0 94 -60q0 -11 -3 -24q-14 -60 -67 -74q38 -12 38 -51q0 -11 -3 -25q-14 -55 -49 -76t-93 -21q-97 0 -97 65q0 13 4 28q16 61 74 81q-34 13 -34 50q0 11 3 24q21 83 133 83zM128 -63q56 0 69 50q2 9 2 16q0 25 -35 36h-30q-27 -7 -40 -19q-22 -19 -22 -51
t56 -32zM182 175q-56 0 -67 -41q-2 -8 -2 -16t5.5 -16.5t26.5 -16.5h30q26 8 38 18q18 15 18 35t-9 28.5t-40 8.5z" />
    <glyph glyph-name="nineinferior" unicode="&#x2089;" horiz-adv-x="280" 
d="M107 -60q69 0 92 83q-41 -14 -80 -14t-59 28q-12 17 -12 37.5t5 39.5q12 51 48 79t88 28q84 0 84 -90q0 -32 -11 -77q-22 -91 -59.5 -127.5t-104.5 -36.5q-30 0 -72 8l-13 3l15 45q42 -6 79 -6zM106 95q0 -40 39 -40q20 0 56 13l11 4q7 30 7 50q0 51 -41 51
q-55 0 -70 -59q-2 -10 -2 -19z" />
    <glyph glyph-name="Euro" unicode="&#x20ac;" 
d="M332 -10q-181 0 -181 190q0 24 1 36h-50l12 50h43q9 67 24 115h-41l12 50h46q41 107 113 173.5t172 66.5q62 0 135 -16l22 -5l-13 -48q-77 16 -148 16t-126.5 -51t-91.5 -136h283l-11 -50h-290q-19 -59 -26 -115h290l-11 -50h-283q-1 -12 -1 -34q0 -71 31 -104.5
t98 -33.5q66 0 132 12l22 4l-3 -49q-85 -21 -160 -21z" />
    <glyph glyph-name="trademark" unicode="&#x2122;" horiz-adv-x="702" 
d="M220 584v43h200v-43h-73v-252h-46v252h-81zM452 331v296h64l73 -221l76 221h63v-296h-44v237l-75 -224h-40l-72 224v-237h-45z" />
    <glyph glyph-name="Omega" unicode="&#x2126;" 
d="M95 45h131q-13 22 -31.5 58t-49.5 124t-31 147q0 155 46.5 225.5t170.5 70.5t170.5 -70.5t46.5 -225.5q0 -59 -28 -141.5t-56 -134.5l-29 -53h132v-54h-194v46q12 24 30.5 62.5t49.5 124t31 133.5q0 141 -29.5 199.5t-123.5 58.5q-75 0 -112 -41q-31 -33 -38 -124
q-3 -37 -3 -89t27.5 -132t54.5 -136l28 -56v-46h-193v54z" />
    <glyph glyph-name="partialdiff" unicode="&#x2202;" 
d="M350 732q118 0 173.5 -86.5t55.5 -279t-53.5 -284t-171.5 -91.5q-220 0 -220 223q0 98 55.5 156t151.5 58q71 0 149 -24l25 -7q-3 149 -43 215t-133 66q-32 0 -71.5 -12t-63.5 -24l-23 -11l-4 49q33 20 83.5 36t89.5 16zM516 342q-90 32 -165 32t-114.5 -44t-39.5 -121
t40 -120.5t120.5 -43.5t118.5 73t40 224z" />
    <glyph glyph-name="Delta" unicode="&#x2206;" 
d="M534 0h-448v45l167 615h113l168 -615v-45zM322 606h-25l-148 -552h321z" />
    <glyph glyph-name="product" unicode="&#x220f;" 
d="M498 -158v855h-229v-855h-62v855h-73v55h500v-55h-75v-855h-61z" />
    <glyph glyph-name="summation" unicode="&#x2211;" 
d="M116 752h463v-56h-399v-24l267 -340v-46l-267 -361v-28h399v-55h-463v91l274 377l-274 352v90z" />
    <glyph glyph-name="minus" unicode="&#x2212;" 
d="M125 223v56h425v-56h-425z" />
    <glyph glyph-name="radical" unicode="&#x221a;" 
d="M117 392v55h112l137 -532h9l242 859h62l-261 -912h-98l-142 530h-61z" />
    <glyph glyph-name="infinity" unicode="&#x221e;" 
d="M219 121q-121 0 -121 171q0 82 30 126.5t83.5 44.5t83 -28t52.5 -86q22 58 51.5 86t83.5 28t84 -44.5t30 -126.5q0 -171 -122 -171q-46 0 -75.5 27.5t-51.5 84.5q-24 -65 -51 -88.5t-77 -23.5zM223 408q-66 0 -66 -116t66 -116q21 0 34.5 4.5t24.5 19.5t16 28
q20 46 26 64q-3 6 -10 23.5t-10 24.5t-10 20.5t-13 20t-15 13.5q-16 14 -43 14zM470 176q67 0 67 116t-67 116q-41 0 -64 -38q-11 -18 -22.5 -45t-14.5 -33q3 -7 11.5 -27t12.5 -28t13 -22.5t17 -20.5q22 -18 47 -18z" />
    <glyph glyph-name="integral" unicode="&#x222b;" 
d="M378 -4q0 -99 -32 -139.5t-101 -40.5l-86 7l3 52q42 -4 80 -4t56.5 27.5t18.5 98.5v574q0 115 32 161.5t100 46.5q39 0 77 -6l12 -2l-3 -51q-38 5 -77.5 5t-59.5 -34.5t-20 -119.5v-575z" />
    <glyph glyph-name="approxequal" unicode="&#x2248;" 
d="M437 271q-30 0 -105 33t-94 33q-34 0 -88 -37l-17 -12l-11 51q62 54 116 54q29 0 103 -33t93 -33q35 0 88 36l17 12l11 -50q-60 -54 -113 -54zM437 95q-30 0 -105 33t-94 33q-34 0 -88 -37l-17 -12l-11 51q62 54 116 54q29 0 103 -33t93 -33q35 0 88 36l17 12l11 -50
q-60 -54 -113 -54z" />
    <glyph glyph-name="notequal" unicode="&#x2260;" 
d="M122 312v56h228l69 156l50 -20l-60 -136h142v-56h-166l-54 -123h220v-56h-245l-67 -154l-50 20l58 134h-125v56h150l54 123h-204z" />
    <glyph glyph-name="lessequal" unicode="&#x2264;" 
d="M534 431l-351 -115l351 -125v-61l-423 156v56l423 151v-62zM111 23v55h423v-55h-423z" />
    <glyph glyph-name="greaterequal" unicode="&#x2265;" 
d="M477 316l-351 115v62l423 -151v-56l-423 -156v61zM549 78v-55h-423v55h423z" />
    <glyph glyph-name="lozenge" unicode="&#x25ca;" 
d="M514 330l-145 165h36l174 -165l-174 -165h-36zM131 330l174 165h34l-143 -165l143 -165h-34zM367 162h-25l-3 3h30zM339 495l3 3h25l2 -3h-30z" />
    <glyph glyph-name="dotlessj" unicode="&#xf6be;" horiz-adv-x="197" 
d="M68 0l116 500h60l-116 -500q-26 -113 -56.5 -149t-143.5 -88l-20 49q93 47 116.5 75t43.5 113z" />
    <glyph glyph-name="commaaccent" unicode="&#xf6c3;" horiz-adv-x="161" 
d="M-37 -276l85 203h56l-93 -203h-48z" />
    <glyph glyph-name="questiondown.cap" horiz-adv-x="396" 
d="M108 25.5q-43 30.5 -43 87.5t16.5 93.5t47.5 66.5t103 87q71 57 82 108l8 39h57q-2 -29 -7 -55q-13 -66 -103 -135q-85 -68 -112.5 -104t-27.5 -90q0 -72 108 -72q57 0 121 14l23 5l-3 -50q-88 -25 -157.5 -25t-112.5 30.5zM418 699l-22 -103h-62l23 103h61z" />
    <glyph glyph-name="endash.cap" horiz-adv-x="611" 
d="M124 325h500v-54h-500v54z" />
    <glyph glyph-name="emdash.cap" horiz-adv-x="1111" 
d="M124 325h1000v-54h-1000v54z" />
    <glyph glyph-name="periodcentered.cap" horiz-adv-x="174" 
d="M122 287l23 104h62l-23 -104h-62z" />
    <glyph glyph-name="exclamdown.cap" horiz-adv-x="195" 
d="M236 472l-109 -477h-60l116 477h53zM286 695l-23 -100h-61l23 100h61z" />
    <glyph glyph-name="parenleft.cap" horiz-adv-x="224" 
d="M181 323q-24 -99 -24 -173q0 -138 11 -218l3 -26h-56q-20 84 -20 204t23 219.5t56 176.5q69 160 122 238l23 34h58q-138 -214 -196 -455z" />
    <glyph glyph-name="parenright.cap" horiz-adv-x="226" 
d="M204 367q24 99 24 173q0 138 -10 218l-4 26h56q20 -84 20 -204t-23 -219.5t-56 -176.5q-69 -160 -122 -238l-23 -34h-58q138 214 196 455z" />
    <glyph glyph-name="bracketleft.cap" horiz-adv-x="284" 
d="M245 777h187l-12 -53h-127l-179 -763h127l-14 -53h-186z" />
    <glyph glyph-name="bracketright.cap" horiz-adv-x="282" 
d="M196 -91h-187l12 53h127l179 763h-127l14 53h186z" />
    <glyph glyph-name="braceleft.cap" horiz-adv-x="319" 
d="M228 253q0 -18 -24 -103.5t-24 -115.5q0 -74 96 -74l-15 -56q-141 4 -141 113q0 33 24 118.5t24 109.5q0 49 -73 73l12 50q65 17 89 42.5t35 79.5q3 13 9 44q12 74 19 94q25 79 72.5 114t136.5 39l-10 -55q-69 -4 -103 -34.5t-47 -92.5q0 -2 -9 -53t-13 -65
q-14 -62 -40.5 -92t-80.5 -48q63 -25 63 -88z" />
    <glyph glyph-name="braceright.cap" horiz-adv-x="320" 
d="M249 430q0 18 24 103t24 116q0 74 -96 74l15 56q141 -4 141 -113q0 -33 -24 -118.5t-24 -109.5q0 -49 73 -73l-12 -50q-65 -17 -89 -42.5t-35 -79.5q-3 -13 -8 -45q-13 -73 -20 -93q-25 -79 -72.5 -114t-136.5 -39l10 55q69 4 103 34.5t47 92.5q0 2 9 53t13 65
q14 62 40.5 92t80.5 48q-63 24 -63 88z" />
    </font>
</defs>
</svg>
