<?xml version="1.0" standalone="no"?>
<!DOCTYPE svg PUBLIC "-//W3C//DTD SVG 1.1//EN" "http://www.w3.org/Graphics/SVG/1.1/DTD/svg11.dtd" >
<svg xmlns="http://www.w3.org/2000/svg" xmlns:xlink="http://www.w3.org/1999/xlink" version="1.1">
<metadata>
Created by FontForge 20170731 at Fri May  5 14:19:03 2017
 By Aleksey,,,
Copyright (c) 2009-2011 by Accademia di Belle Arti di Urbino and students of MA course of Visual design. Some rights reserved.
</metadata>
<defs>
<font id="TitilliumWeb-Italic" horiz-adv-x="560" >
  <font-face 
    font-family="Titillium Web"
    font-weight="400"
    font-style="italic"
    font-stretch="normal"
    units-per-em="1000"
    panose-1="0 0 5 0 0 0 0 0 0 0"
    ascent="800"
    descent="-200"
    x-height="500"
    cap-height="692"
    bbox="-154 -283 1115 1083"
    underline-thickness="30"
    underline-position="-130"
    slope="-13"
    unicode-range="U+0020-F6C3"
  />
<missing-glyph horiz-adv-x="223" 
 />
    <glyph glyph-name=".notdef" horiz-adv-x="223" 
 />
    <glyph glyph-name=".null" horiz-adv-x="0" 
 />
    <glyph glyph-name="nonmarkingreturn" horiz-adv-x="333" 
 />
    <glyph glyph-name="space" unicode=" " horiz-adv-x="220" 
 />
    <glyph glyph-name="exclam" unicode="!" horiz-adv-x="189" 
d="M112 230l106 470h77l-116 -470h-67zM59 0l25 111h76l-25 -111h-76z" />
    <glyph glyph-name="quotedbl" unicode="&#x22;" horiz-adv-x="313" 
d="M303 466h-82l52 228h87z" />
    <glyph glyph-name="numbersign" unicode="#" 
d="M574 180h-110l-44 -180h-68l44 180h-155l-44 -180h-68l44 180h-110l16 64h110l44 178h-110l16 64h110l46 180h68l-46 -180h155l45 180h68l-45 -180h110l-16 -64h-110l-44 -178h110zM412 244l44 178h-155l-44 -178h155z" />
    <glyph glyph-name="dollar" unicode="$" 
d="M524 219q0 -106 -64.5 -167.5t-172.5 -61.5q-14 0 -38 2l-44 -112h-53l45 116q-41 5 -89 16l-13 3l12 58q57 -9 115 -15l102 259q-68 24 -98 55t-30 90q0 98 63 154t168 56q24 0 36 -1l44 111h54l-47 -117q49 -8 80 -17l11 -3l-12 -55q-51 8 -103 13l-93 -237
q71 -26 99 -56.5t28 -90.5zM448 212q0 35 -16 52.5t-61 35.5l-97 -245h16q75 0 116.5 41t41.5 116zM270 468q0 -32 17 -49.5t63 -35.5l88 224h-14q-72 0 -113 -35.5t-41 -103.5z" />
    <glyph glyph-name="percent" unicode="%" 
d="M295 650q-48 0 -69 -78q-9 -37 -9 -56q0 -43 34 -43q27 0 43.5 22t26.5 59.5t10 57.5q0 38 -36 38zM155 6l360 703l50 -15l-359 -703zM164 564q34 138 144 138q83 0 83 -81q0 -25 -8 -58q-18 -70 -55.5 -105.5t-89 -35.5t-72.5 36q-10 18 -10 45.5t8 60.5zM484 280
q84 0 84 -81q0 -25 -8 -58q-18 -70 -55.5 -105.5t-89.5 -35.5t-73 36q-10 18 -10 45.5t8 60.5q34 138 144 138zM507 189q0 39 -36 39q-26 0 -42.5 -20.5t-26 -57.5t-9.5 -56q0 -43 34 -43q27 0 43.5 22t26.5 59.5t10 56.5z" />
    <glyph glyph-name="ampersand" unicode="&#x26;" horiz-adv-x="635" 
d="M443 702q143 0 143 -123q0 -76 -47.5 -127.5t-149.5 -90.5l111 -152q37 59 59 135h72q-30 -103 -89 -187l93 -118l-52 -46l-88 113q-97 -116 -231 -116q-100 0 -144.5 40.5t-44.5 129t48.5 148.5t157.5 101q-27 51 -27 99q0 92 51 143t138 51zM275 56q51 0 99 26.5
t82 73.5l-146 204q-87 -33 -122 -81t-35 -122q0 -101 122 -101zM359 601.5q-28 -36.5 -28 -94t29 -100.5q82 34 115.5 72.5t33.5 95.5q0 63 -69 63q-53 0 -81 -36.5z" />
    <glyph glyph-name="quotesingle" unicode="'" horiz-adv-x="162" 
d="M220 466h-66l52 228h71z" />
    <glyph glyph-name="parenleft" unicode="(" horiz-adv-x="227" 
d="M182 296q-24 -98 -24 -172q0 -128 12 -220l3 -28h-71q-21 87 -21 207.5t23.5 219.5t56.5 175q69 158 123 236l23 34h71q-79 -123 -143 -282q-29 -72 -53 -170z" />
    <glyph glyph-name="parenright" unicode=")" horiz-adv-x="227" 
d="M190 334q24 98 24 172q0 128 -12 220l-3 28h71q21 -87 21 -207.5t-23.5 -219.5t-56.5 -175q-69 -158 -123 -236l-23 -34h-71q79 123 143 282q29 72 53 170z" />
    <glyph glyph-name="asterisk" unicode="*" horiz-adv-x="413" 
d="M492 511h-131l40 -125l-48 -15l-42 126l-107 -79l-30 40l108 79l-106 77l30 42l107 -78l40 126l50 -16l-41 -127h130v-50z" />
    <glyph glyph-name="plus" unicode="+" 
d="M113 217v68h189v195h69v-195h191v-68h-191v-197h-69v197h-189z" />
    <glyph glyph-name="comma" unicode="," horiz-adv-x="183" 
d="M49 -129h-61l98 240h83z" />
    <glyph glyph-name="hyphen" unicode="-" horiz-adv-x="337" 
d="M98 233l17 69h247l-17 -69h-247z" />
    <glyph glyph-name="period" unicode="." horiz-adv-x="168" 
d="M46 0l26 111h76l-26 -111h-76z" />
    <glyph glyph-name="slash" unicode="/" horiz-adv-x="419" 
d="M112 -10l-70 25l427 692l70 -26z" />
    <glyph glyph-name="zero" unicode="0" 
d="M410 671q200 0 200 -196q0 -127 -36.5 -236.5t-108.5 -179t-167.5 -69.5t-145.5 49t-50 143q0 123 35 233t107 183t166 73zM409 604q-55 0 -100.5 -41t-72.5 -105q-56 -131 -56 -266t120 -135q72 0 126.5 67t80 158.5t25.5 184.5q0 137 -123 137z" />
    <glyph glyph-name="one" unicode="1" 
d="M231 526l240 135h66l-151 -661h-76l130 568l-189 -104z" />
    <glyph glyph-name="two" unicode="2" 
d="M522 512q0 50 -30.5 71t-95.5 21q-72 0 -152 -16l-29 -5l8 59q100 29 189 29q188 0 188 -145q0 -80 -54 -146q-45 -55 -128 -121l-241 -192h329l-16 -67h-423l15 63l256 215q96 80 140 132t44 102z" />
    <glyph glyph-name="three" unicode="3" 
d="M415 671q178 0 178 -136q0 -129 -135 -184q40 -19 59.5 -48.5t19.5 -84.5q0 -104 -76 -166t-194 -62q-43 0 -91.5 8.5t-75.5 17.5l-28 8l17 57q108 -24 185 -24t131 43t54 114q0 94 -116 95h-129l15 61l130 2q53 1 104.5 43t51.5 94.5t-27.5 73.5t-77.5 21
q-82 0 -169 -14l-27 -5l7 56q96 30 194 30z" />
    <glyph glyph-name="four" unicode="4" 
d="M359 -2l29 126h-311l14 57l314 479h85l-317 -471h230l50 216h76l-50 -216h80l-16 -65h-79l-29 -126h-76z" />
    <glyph glyph-name="five" unicode="5" 
d="M385 414q171 0 171 -146q0 -118 -79 -197.5t-195 -79.5q-45 0 -98 8.5t-84 16.5l-30 9l19 61q112 -28 192.5 -28t138.5 58t58 140q0 91 -115 91q-31 0 -70 -10.5t-62 -20.5l-23 -11l-60 12l105 343h377l-15 -67h-314l-74 -222q91 43 158 43z" />
    <glyph glyph-name="six" unicode="6" 
d="M610 588q-80 16 -143.5 16t-104.5 -20.5t-69 -55.5q-53 -68 -79 -157q92 43 180 43t131.5 -42t43.5 -118q0 -119 -70.5 -191.5t-195.5 -72.5q-91 0 -141 58t-50 169q0 123 56 239q63 133 171 186q60 29 131 29q69 0 140 -15l23 -5zM371 347q-37 0 -79.5 -10t-66.5 -20
l-24 -10q-10 -36 -10 -100t28.5 -107t86.5 -43q89 0 137 51t48 132q0 55 -28.5 81t-91.5 26z" />
    <glyph glyph-name="seven" unicode="7" 
d="M216 592l16 68h398l-27 -114l-387 -559l-70 23l383 546l8 36h-321z" />
    <glyph glyph-name="eight" unicode="8" 
d="M440 671q100 0 149.5 -35.5t49.5 -99t-41 -115.5t-115 -76q51 -21 69.5 -52.5t18.5 -65.5t-8.5 -62.5t-30.5 -60.5t-55 -57t-86.5 -41.5t-120.5 -16.5q-204 0 -204 142t164 214q-43 24 -57.5 49t-14.5 63q0 85 72 149.5t210 64.5zM287 56q99 0 151.5 50t52.5 98.5
t-21.5 68t-72.5 35.5h-100q-62 -18 -105 -57.5t-43 -105.5q0 -89 138 -89zM423 604q-94 0 -140.5 -42t-46.5 -99q0 -31 17 -52t60 -38h100q52 15 97.5 51.5t45.5 88.5q0 91 -133 91z" />
    <glyph glyph-name="nine" unicode="9" 
d="M427 671q168 0 168 -203q0 -48 -10 -106q-27 -189 -120.5 -280.5t-228.5 -91.5q-70 0 -135 16l-23 5l26 67q72 -17 154.5 -17t144.5 56t91 168q-119 -36 -185 -36q-166 0 -166 145q0 22 4 47q17 97 92.5 163.5t187.5 66.5zM220 406q0 -88 113 -88q57 0 149 24l30 8
q15 60 15 107q0 143 -117 143q-69 0 -121.5 -42t-64.5 -113q-4 -21 -4 -39z" />
    <glyph glyph-name="colon" unicode=":" horiz-adv-x="171" 
d="M123 330l26 111h76l-26 -111h-76zM47 0l26 111h76l-26 -111h-76z" />
    <glyph glyph-name="semicolon" unicode=";" horiz-adv-x="201" 
d="M-2 -129l98 240h83l-120 -240h-61zM142 330l26 111h76l-26 -111h-76z" />
    <glyph glyph-name="less" unicode="&#x3c;" 
d="M523 409l-339 -157l339 -160v-79l-417 205v66l417 203v-78z" />
    <glyph glyph-name="equal" unicode="=" 
d="M122 309v69h432v-69h-432zM122 124v69h432v-69h-432z" />
    <glyph glyph-name="greater" unicode="&#x3e;" 
d="M490 252l-339 157v78l417 -203v-66l-417 -205v79z" />
    <glyph glyph-name="question" unicode="?" horiz-adv-x="414" 
d="M504 571q0 -71 -32 -114.5t-132 -120.5q-69 -53 -78 -101l-8 -39h-71q1 33 7 62q11 61 101 130q80 63 106.5 96.5t26.5 81.5q0 68 -101 68q-54 0 -121 -14l-23 -4l6 61q88 25 154 25q165 0 165 -131zM141 1l25 116h77l-26 -116h-76z" />
    <glyph glyph-name="at" unicode="@" horiz-adv-x="933" 
d="M639 721q95 0 163.5 -22.5t107.5 -60.5q72 -70 72 -196q0 -64 -24.5 -167t-61 -171.5t-75.5 -91t-97 -22.5q-86 0 -98 56q-112 -56 -191 -56q-40 0 -66.5 15t-38.5 37q-20 34 -20 96q0 32 9 78q54 294 254 294q51 0 195 -25q-81 -330 -81 -385q0 -23 12.5 -31t40.5 -8
q50 0 85 50t69 196q19 77 19 122.5t-11.5 87t-42.5 71.5q-69 67 -233 67q-187 0 -292.5 -92t-155.5 -298q-19 -81 -19 -145q0 -255 300 -255l136 9l-13 -66q-96 -9 -160 -9t-128.5 19t-103.5 53q-83 71 -98 175q-5 39 -5 65.5t2 61t16 92.5q58 247 184 351.5t350 104.5z
M453 57q66 0 160 52q6 64 69 322q-61 14 -112 14q-71 0 -111.5 -58.5t-64.5 -171.5q-8 -47 -8 -79.5t16.5 -55.5t50.5 -23z" />
    <glyph glyph-name="A" unicode="A" horiz-adv-x="554" 
d="M24 0l345 692h149l14 -692h-76l-6 177h-259l-89 -177h-78zM414 624l-191 -380h228l-7 380h-30z" />
    <glyph glyph-name="B" unicode="B" horiz-adv-x="577" 
d="M460 692q83 0 124.5 -32t41.5 -104.5t-35.5 -122.5t-93.5 -75q84 -33 84 -119q0 -109 -69 -174t-196 -65h-238l159 692h223zM386 320h-158l-58 -253h162q79 0 124 46t45 124q0 83 -115 83zM447 625h-149l-55 -239h154q67 0 109 45.5t42 113.5q0 44 -23.5 62t-77.5 18z
" />
    <glyph glyph-name="C" unicode="C" horiz-adv-x="504" 
d="M305 -10q-193 0 -193 198q0 178 82 336q40 78 109.5 128t157.5 50q66 0 142 -18l24 -5l-17 -60q-77 15 -146 15t-121 -41.5t-84 -106.5q-67 -138 -67 -294q0 -68 29.5 -101t93.5 -33q76 0 140 12l23 5l-5 -63q-89 -22 -168 -22z" />
    <glyph glyph-name="D" unicode="D" horiz-adv-x="607" 
d="M317 0h-239l160 692h222q95 0 143.5 -49t48.5 -157q0 -139 -52 -262q-27 -64 -65 -113.5t-94.5 -80t-123.5 -30.5zM556.5 351.5q15.5 70.5 15.5 139t-30 101t-97 32.5h-147l-127 -556h157q59 0 107.5 42t77 106.5t44 135z" />
    <glyph glyph-name="E" unicode="E" horiz-adv-x="505" 
d="M78 0l159 692h386l-16 -68h-309l-55 -238h254l-16 -68h-253l-58 -250h309l-15 -68h-386z" />
    <glyph glyph-name="F" unicode="F" horiz-adv-x="482" 
d="M78 0l160 692h377l-16 -68h-301l-62 -273h256l-16 -67h-256l-66 -284h-76z" />
    <glyph glyph-name="G" unicode="G" horiz-adv-x="572" 
d="M322 -10q-209 0 -209 196q0 197 85 350q42 75 112.5 120.5t158.5 45.5q85 0 171 -24l28 -7l-19 -58q-100 21 -190 21q-54 0 -99 -28.5t-75 -75t-51 -106.5q-41 -112 -41 -239t137 -127q44 0 103 12l18 3l52 220h-105l15 66h182l-80 -342q-88 -27 -193 -27z" />
    <glyph glyph-name="H" unicode="H" horiz-adv-x="624" 
d="M469 0l73 316h-315l-73 -316h-76l160 692h76l-71 -309h315l71 309h77l-160 -692h-77z" />
    <glyph glyph-name="I" unicode="I" horiz-adv-x="232" 
d="M78 0l160 692h76l-160 -692h-76z" />
    <glyph glyph-name="J" unicode="J" horiz-adv-x="265" 
d="M350 692l-132 -574q-20 -86 -39 -122t-56 -51t-116 -15l12 68q62 0 83 21.5t40 104.5l132 568h76z" />
    <glyph glyph-name="K" unicode="K" horiz-adv-x="521" 
d="M422 0l-98 307l-100 -3l-70 -304h-76l160 692h76l-74 -320l91 3l245 317h86l-269 -349l110 -343h-81z" />
    <glyph glyph-name="L" unicode="L" horiz-adv-x="433" 
d="M427 0h-349l160 692h76l-144 -624h272z" />
    <glyph glyph-name="M" unicode="M" horiz-adv-x="780" 
d="M78 0l160 692h129l44 -586l320 586h131l-160 -692h-76l145 624h-11l-326 -599h-80l-46 599h-10l-144 -624h-76z" />
    <glyph glyph-name="N" unicode="N" horiz-adv-x="631" 
d="M78 0l160 692h136l104 -613h19l141 613h75l-160 -692h-131l-108 617h-20l-143 -617h-73z" />
    <glyph glyph-name="O" unicode="O" horiz-adv-x="628" 
d="M225 90.5q32 -32.5 104.5 -32.5t121.5 40q68 56 104.5 168t36.5 224q0 75 -33.5 109.5t-102 34.5t-114.5 -37q-69 -57 -109 -173t-40 -208.5t32 -125zM629.5 239q-42.5 -121 -120.5 -185t-185.5 -64t-158.5 48.5t-51 167.5t41.5 237t118.5 188.5t183 70.5q215 0 215 -207
q0 -135 -42.5 -256z" />
    <glyph glyph-name="P" unicode="P" horiz-adv-x="547" 
d="M359 232h-151l-54 -232h-76l160 692h218q89 0 130 -40.5t41 -123.5q0 -133 -70.5 -214.5t-197.5 -81.5zM371 300q85 0 130.5 64t45.5 163q0 49 -23.5 73t-76.5 24h-149l-74 -324h147z" />
    <glyph glyph-name="Q" unicode="Q" horiz-adv-x="628" 
d="M326 -10q-110 0 -161 48.5t-51 167.5t41.5 237t118.5 188.5t183 70.5q215 0 215 -207q0 -135 -42.5 -256t-123.5 -188q-20 -17 -46 -30l48 -142l-73 -24l-45 142q-35 -7 -64 -7zM225 90.5q32 -32.5 104.5 -32.5t121.5 40q68 56 104.5 168t36.5 224q0 75 -33.5 109.5
t-102 34.5t-114.5 -37q-69 -57 -109 -173t-40 -208.5t32 -125z" />
    <glyph glyph-name="R" unicode="R" horiz-adv-x="564" 
d="M449 692q91 0 135.5 -39t44.5 -137.5t-53.5 -162.5t-124.5 -84l76 -269h-77l-71 259h-164l-61 -259h-76l160 692h211zM549 523q0 56 -25 79t-83 23h-142l-69 -299h147q78 0 125 55t47 142z" />
    <glyph glyph-name="S" unicode="S" horiz-adv-x="499" 
d="M577 617q-106 18 -179 18t-115.5 -37.5t-42.5 -108.5q0 -40 24.5 -58t102 -45.5t108 -59.5t30.5 -97q0 -112 -67 -175.5t-181 -63.5q-85 0 -172 20l-29 6l13 60q116 -18 193 -18t120.5 42.5t43.5 121.5q0 41 -22 60.5t-97 45.5t-110 58t-35 97q0 102 65.5 160.5
t176.5 58.5q82 0 160 -21l26 -7z" />
    <glyph glyph-name="T" unicode="T" horiz-adv-x="469" 
d="M154 624l16 68h447l-16 -68h-186l-144 -624h-76l144 624h-185z" />
    <glyph glyph-name="U" unicode="U" horiz-adv-x="594" 
d="M189 144q0 -86 128 -86q79 0 118.5 37t57.5 116l111 481h77l-111 -481q-26 -114 -86.5 -167.5t-163.5 -53.5q-207 0 -207 144q0 49 11 91l108 467h77l-110 -475q-10 -40 -10 -73z" />
    <glyph glyph-name="V" unicode="V" horiz-adv-x="545" 
d="M601 692h77l-330 -692h-158l-9 692h77l3 -624h45z" />
    <glyph glyph-name="W" unicode="W" horiz-adv-x="829" 
d="M187 692h76l-31 -621h26l269 611h84l-19 -611h26l262 621h77l-298 -692h-133l19 570l-248 -570h-137z" />
    <glyph glyph-name="X" unicode="X" horiz-adv-x="513" 
d="M261 692l90 -288l224 288h84l-276 -349l112 -343h-79l-92 287l-227 -287h-85l280 347l-111 345h80z" />
    <glyph glyph-name="Y" unicode="Y" horiz-adv-x="493" 
d="M641 692l-293 -396l-69 -296h-73l70 302l-106 390h78l81 -323l229 323h83z" />
    <glyph glyph-name="Z" unicode="Z" horiz-adv-x="495" 
d="M184 624l16 68h416l-24 -102l-448 -498l-6 -24h332l-16 -68h-416l22 99l448 498l6 27h-330z" />
    <glyph glyph-name="bracketleft" unicode="[" horiz-adv-x="276" 
d="M228 747h195l-15 -65h-119l-173 -739h119l-17 -65h-193z" />
    <glyph glyph-name="backslash" unicode="\" horiz-adv-x="426" 
d="M398 8l-78 -8l-132 693l79 8z" />
    <glyph glyph-name="bracketright" unicode="]" horiz-adv-x="276" 
d="M193 -121h-195l15 65h119l173 739h-119l17 65h193z" />
    <glyph glyph-name="asciicircum" unicode="^" 
d="M480 319l-144 267l-140 -267h-80l186 341h67l191 -341h-80z" />
    <glyph glyph-name="underscore" unicode="_" horiz-adv-x="577" 
d="M46 -79h448l-17 -73h-447z" />
    <glyph glyph-name="grave" unicode="`" horiz-adv-x="518" 
d="M316 741l185 -93l-33 -52l-188 86z" />
    <glyph glyph-name="a" unicode="a" horiz-adv-x="500" 
d="M217 -10q-128 0 -128 149q0 83 26.5 165.5t86.5 144t139 61.5q61 0 167 -18l38 -7l-76 -325q-14 -56 -24 -132l-4 -26l-73 -3q14 86 18 107q-5 -9 -29.5 -34.5t-43.5 -41t-46 -28t-51 -12.5zM459 431q-70 14 -120.5 14t-92.5 -51.5t-61 -120t-19 -122.5t17 -75t51 -21
t74.5 32.5t67.5 65.5l26 33z" />
    <glyph glyph-name="b" unicode="b" horiz-adv-x="499" 
d="M392 510q75 0 104 -40t29 -113q0 -95 -38 -189q-44 -108 -121 -153q-44 -25 -88 -25q-84 0 -176 18l-33 7l162 703h74l-65 -284q49 49 106 68q24 8 46 8zM155 68q70 -13 116 -13t83 35t56 86q38 104 38 163t-15.5 82.5t-62.5 23.5q-28 0 -65 -21.5t-59 -43.5l-23 -21z
" />
    <glyph glyph-name="c" unicode="c" horiz-adv-x="405" 
d="M355 510q47 0 107 -14l18 -5l-19 -58q-65 12 -108 12q-60 0 -103 -44q-81 -81 -81 -245q0 -50 24 -75.5t79 -25.5q39 0 92 11l20 4l-5 -59q-69 -21 -138.5 -21t-109 39.5t-39.5 112.5q0 214 116 315q61 53 147 53z" />
    <glyph glyph-name="d" unicode="d" horiz-adv-x="500" 
d="M215 -10q-126 0 -126 146q0 88 28 172t87 143t135 59q51 0 113 -14l20 -4l53 226h75l-167 -718h-72l19 89q-9 -13 -29.5 -32.5t-38.5 -32.5q-49 -34 -97 -34zM459 430q-66 15 -119.5 15t-94.5 -52t-60 -121t-19 -135q0 -82 72 -82q30 0 70 29.5t66 59.5l25 29z" />
    <glyph glyph-name="e" unicode="e" horiz-adv-x="462" 
d="M192 79.5q26 -23.5 64 -23.5q71 0 146 16l25 6l-6 -59q-89 -29 -171 -29q-159 0 -159 152q0 139 63 248q32 54 85.5 87t120.5 33q148 0 148 -122q0 -89 -67 -124.5t-213 -35.5h-51q-11 -39 -11 -82t26 -66.5zM242 287q102 0 147 21.5t45 78.5q0 60 -77 60
q-123 0 -170 -160h55z" />
    <glyph glyph-name="f" unicode="f" horiz-adv-x="309" 
d="M380 728q34 0 72 -10l12 -4l-14 -58q-40 7 -75 7t-54.5 -28t-36.5 -93l-10 -42h134l-16 -65h-132l-101 -435l-61 -222h-65l152 656h-57l16 66h55l11 43q24 102 61.5 143.5t108.5 41.5z" />
    <glyph glyph-name="g" unicode="g" horiz-adv-x="468" 
d="M197 -235q-83 0 -131 34.5t-48 96.5q0 85 132 153q-16 16 -16 39.5t14 47.5t28 38l13 15q-69 32 -69 115t55 144.5t146 61.5q46 0 83 -12l13 -4l148 6l-15 -64h-89q17 -28 17 -69q0 -75 -56.5 -136t-154.5 -61l-33 3q-31 -40 -31 -61t19 -28.5t86 -16t103 -35t36 -82.5
q0 -77 -68.5 -131t-181.5 -54zM119 -27q-30 -30 -30 -64t28 -57t91.5 -23t114.5 31t51 84q0 30 -21.5 43t-79.5 20t-84 16q-40 -20 -70 -50zM274 232q63 0 98 42.5t35 86.5t-21 65t-73.5 21t-87 -42.5t-34.5 -92.5q0 -80 83 -80z" />
    <glyph glyph-name="h" unicode="h" horiz-adv-x="499" 
d="M398 510q58 0 88 -34t30 -86t-21 -138l-58 -252h-74l58 249q18 82 18 120q0 75 -67 75q-49 0 -120 -73q-16 -17 -26 -29l-9 -11l-76 -331h-75l166 718h75l-71 -306q9 11 24 27.5t57.5 43.5t80.5 27z" />
    <glyph glyph-name="i" unicode="i" horiz-adv-x="206" 
d="M66 0l115 500h75l-116 -500h-74zM204 604l22 90h75l-21 -90h-76z" />
    <glyph glyph-name="j" unicode="j" horiz-adv-x="206" 
d="M66 0l115 500h75l-116 -500q-25 -111 -56 -146.5t-147 -88.5l-24 60q89 46 112 72t41 103zM205 602l21 90h75l-20 -90h-76z" />
    <glyph glyph-name="k" unicode="k" horiz-adv-x="445" 
d="M141 0h-75l166 718h75l-97 -418l64 3l181 197h87l-212 -232l95 -268h-79l-84 239l-67 -2z" />
    <glyph glyph-name="l" unicode="l" horiz-adv-x="215" 
d="M70 0l166 718h74l-165 -718h-75z" />
    <glyph glyph-name="m" unicode="m" horiz-adv-x="775" 
d="M438 369q0 75 -68 75q-29 0 -67.5 -28t-62.5 -56l-23 -28l-77 -332h-74l115 500h73l-18 -87q23 30 54 53q61 44 109 44q56 0 81 -31q23 -28 28 -58q9 10 25.5 25t60.5 39.5t81 24.5q58 0 87.5 -34t29.5 -84t-20 -140l-58 -252h-75l58 249q19 76 19 119q0 76 -66 76
q-28 0 -62.5 -22.5t-55.5 -45.5l-21 -22q-3 -47 -17 -102l-58 -252h-75l58 249q19 76 19 120z" />
    <glyph glyph-name="n" unicode="n" horiz-adv-x="498" 
d="M397 510q58 0 88 -34t30 -88t-20 -134l-59 -254h-74l58 249q19 76 19 120q0 75 -68 75q-30 0 -68.5 -28t-62.5 -56l-23 -28l-77 -332h-74l115 500h73l-18 -87q9 11 23.5 27t57 43t80.5 27z" />
    <glyph glyph-name="o" unicode="o" horiz-adv-x="494" 
d="M343 510q173 0 173 -170q0 -93 -29.5 -172t-88.5 -128.5t-136 -49.5q-171 0 -171 164q0 144 71.5 250t180.5 106zM262 55q80 0 129.5 84.5t49.5 201.5q0 48 -24.5 76t-73.5 28q-78 0 -127.5 -87.5t-49.5 -204.5q0 -98 96 -98z" />
    <glyph glyph-name="p" unicode="p" horiz-adv-x="499" 
d="M396 510q130 0 130 -147q0 -132 -64 -247q-30 -56 -79 -91t-107 -35t-114 14l-20 5l-53 -231h-74l166 722h73l-19 -89q9 11 24 27.5t57.5 44t79.5 27.5zM375 445q-28 0 -68 -29.5t-65 -59.5l-26 -29l-60 -257q65 -15 119 -15t95.5 53t60 121t18.5 131q0 85 -74 85z" />
    <glyph glyph-name="q" unicode="q" horiz-adv-x="498" 
d="M217 -10q-64 0 -96.5 38.5t-32.5 116.5t28 161.5t87 143.5t135 60q72 0 172 -18l35 -7l-162 -701h-74l70 305q-9 -12 -29 -32t-38 -33q-49 -34 -95 -34zM458 430q-64 15 -117.5 15t-95 -51t-61 -119.5t-19.5 -134.5q0 -85 75 -85q28 0 68 29t66 58l25 30z" />
    <glyph glyph-name="r" unicode="r" horiz-adv-x="316" 
d="M66 0l116 500h74l-18 -74q93 67 181 85l-20 -77q-54 -14 -145 -60l-30 -15l-83 -359h-75z" />
    <glyph glyph-name="s" unicode="s" horiz-adv-x="429" 
d="M470 431q-95 14 -152.5 14t-88.5 -28.5t-31 -68.5q0 -24 18 -36t83.5 -29t96.5 -38.5t31 -72.5q0 -88 -61 -135t-157 -47q-64 0 -135 18l-23 5l14 58q92 -16 152.5 -16t96.5 26t36 76q0 28 -19 39.5t-82.5 27t-94.5 37.5t-31 69q0 80 56 130t141 50q75 0 142 -16l23 -5z
" />
    <glyph glyph-name="t" unicode="t" horiz-adv-x="318" 
d="M191 101q0 -46 50 -46l77 6l-5 -57q-52 -14 -99 -14t-74 25t-27 67t16 106l58 247h-66l17 65h65l35 148h75l-36 -148h140l-16 -65h-140l-58 -251q-12 -48 -12 -83z" />
    <glyph glyph-name="u" unicode="u" horiz-adv-x="498" 
d="M216 -10q-58 0 -88 34t-30 88t20 134l59 254h74l-58 -249q-19 -76 -19 -120q0 -75 68 -75q30 0 68.5 28t61.5 56l24 28l77 332h74l-115 -500h-73l18 87q-9 -11 -23.5 -27t-57 -43t-80.5 -27z" />
    <glyph glyph-name="v" unicode="v" horiz-adv-x="454" 
d="M139 500h74l8 -436h31l217 436h77l-254 -500h-140z" />
    <glyph glyph-name="w" unicode="w" horiz-adv-x="731" 
d="M144 500h75l-9 -435h19l205 425h88l4 -425h19l196 435h76l-227 -500h-133l-3 393l-187 -393h-130z" />
    <glyph glyph-name="x" unicode="x" horiz-adv-x="419" 
d="M137 500h77l67 -197l156 197h80l-209 -256l89 -244h-78l-65 193l-154 -193h-81l206 250z" />
    <glyph glyph-name="y" unicode="y" horiz-adv-x="454" 
d="M139 500h74l8 -436h30l218 436h77l-365 -721h-76l115 221h-68z" />
    <glyph glyph-name="z" unicode="z" horiz-adv-x="418" 
d="M138 435l16 65h341l-14 -64l-341 -371h255l-15 -65h-342l12 64l340 371h-252z" />
    <glyph glyph-name="braceleft" unicode="{" horiz-adv-x="313" 
d="M230 222q0 -18 -24 -101t-24 -111q0 -69 89 -69l-19 -68q-144 3 -144 115q0 31 23.5 115t23.5 107q0 48 -72 75l14 59q65 17 87.5 41t33.5 74q3 13 9 45q15 83 20 95q25 80 73.5 115t139.5 39l-12 -68q-64 -4 -94.5 -31.5t-43.5 -83.5q-1 -6 -10.5 -57.5t-11.5 -62.5
q-14 -62 -40.5 -91t-80.5 -47q63 -29 63 -90z" />
    <glyph glyph-name="bar" unicode="|" horiz-adv-x="312" 
d="M176 -222v940h74v-940h-74z" />
    <glyph glyph-name="braceright" unicode="}" horiz-adv-x="312" 
d="M226 401q0 19 24 102t24 110q0 69 -89 69l19 68q144 -3 144 -115q0 -31 -23.5 -115t-23.5 -108q0 -47 72 -74l-14 -59q-65 -17 -87.5 -41t-33.5 -74q-3 -13 -9 -46q-15 -82 -20 -94q-25 -80 -73.5 -115t-139.5 -39l12 68q64 4 94.5 31.5t43.5 83.5q1 6 10.5 57.5
t11.5 62.5q14 62 40.5 91t80.5 47q-63 29 -63 90z" />
    <glyph glyph-name="asciitilde" unicode="~" 
d="M439 195q-27 0 -102.5 31t-94 31t-45 -11.5t-43.5 -23.5l-17 -12l-10 62q62 53 116 53q29 0 103.5 -30.5t93.5 -30.5q36 0 87 34l17 12l10 -61q-63 -54 -115 -54z" />
    <glyph glyph-name="uni00A0" unicode="&#xa0;" horiz-adv-x="220" 
 />
    <glyph glyph-name="exclamdown" unicode="&#xa1;" horiz-adv-x="178" 
d="M187 270l-106 -470h-77l116 470h67zM240 500l-25 -111h-76l25 111h76z" />
    <glyph glyph-name="cent" unicode="&#xa2;" 
d="M207 55.5q-30 18.5 -40.5 48t-10.5 47.5t0.5 37t10.5 60q27 104 83 158t135 57l28 119h63l-29 -120l92 -10l-20 -66q-81 7 -117 7q-125 0 -161 -145q-10 -44 -10 -74t25.5 -48.5t78.5 -18.5l124 6l-14 -65q-57 -7 -97 -8l-28 -120h-63l27 116q-47 1 -77 19.5z" />
    <glyph glyph-name="sterling" unicode="&#xa3;" 
d="M591 604q-70 8 -106 8t-53 -8t-27 -18t-19 -33q-11 -27 -28 -89l-10 -43h194l-15 -66h-194l-66 -290h138l76 17l-1 -64l-78 -18h-322l15 65h96l65 290h-75l16 66h75l12 51q26 110 64.5 158.5t124.5 48.5q43 0 113 -13l21 -4z" />
    <glyph glyph-name="currency" unicode="&#xa4;" 
d="M338 71q-54 0 -100 30l-70 -71l-52 53l70 70q-29 45 -29 99t29 99l-70 70l52 53l70 -71q46 29 100 29t99 -29l70 71l53 -53l-71 -71q29 -45 29 -98.5t-29 -98.5l71 -70l-53 -53l-70 71q-45 -30 -99 -30zM338 142q46 0 78 32t32 78t-32 78t-78 32t-78 -32t-32 -78t32 -78
t78 -32z" />
    <glyph glyph-name="yen" unicode="&#xa5;" 
d="M141 310l16 67h125l-114 284h82l113 -279l231 279h99l-239 -284h122l-15 -67h-160l-14 -17l-15 -66h170l-16 -67h-170l-37 -160h-76l37 160h-174l16 67h173l16 67l-4 16h-166z" />
    <glyph glyph-name="brokenbar" unicode="&#xa6;" horiz-adv-x="318" 
d="M179 718h74v-374h-74v374zM179 156h74v-378h-74v378z" />
    <glyph glyph-name="section" unicode="&#xa7;" horiz-adv-x="470" 
d="M528 567q-99 14 -155 14t-91.5 -30.5t-35.5 -82.5q0 -19 6.5 -31t24.5 -20q28 -12 81 -22q125 -24 125 -112q0 -74 -79 -164q17 -22 17 -50t-5 -51.5t-20.5 -54t-39.5 -54.5t-66 -40.5t-82 -16.5q-67 0 -148 12l-27 4l22 66q101 -14 157.5 -14t94.5 36.5t38 73
t-20.5 48.5t-92 27t-100.5 42.5t-29 68.5t20 80q32 60 67 84q-20 24 -20 76q0 74 60.5 134t165.5 60q61 0 126 -12l24 -5zM180 242q0 -28 19 -42.5t68 -23.5q63 -14 87 -27q9 7 30.5 48t21.5 67t-21 41t-79 26t-71 21q-55 -69 -55 -110z" />
    <glyph glyph-name="dieresis" unicode="&#xa8;" horiz-adv-x="680" 
d="M242 620l21 93h62l-22 -93h-61zM425 620l20 93h62l-22 -93h-60z" />
    <glyph glyph-name="copyright" unicode="&#xa9;" horiz-adv-x="644" 
d="M234 240q-75 79 -75 194.5t75 194t189 78.5t188.5 -79t74.5 -194.5t-74.5 -194t-188.5 -78.5t-189 79zM203 434q0 -96 62.5 -162.5t156.5 -66.5t157 66.5t63 162.5t-63 163t-156.5 67t-156.5 -67t-63 -163zM427 591q38 0 76 -10l-3 -53q-39 6 -73.5 6t-46 -22.5
t-11.5 -76t13 -78t47 -24.5l71 7l3 -52q-37 -12 -78 -12q-64 0 -90 37.5t-26 120t26 120t92 37.5z" />
    <glyph glyph-name="ordfeminine" unicode="&#xaa;" horiz-adv-x="344" 
d="M348 577q0 26 -40 26l-116 -7l8 48q74 15 127.5 15t74.5 -22q14 -14 14 -35.5t-4 -41.5l-32 -138q6 -12 25 -16l-13 -49q-38 0 -53 6t-24 20q-61 -26 -107 -26t-63 25q-11 16 -11 33.5t4 33.5q11 42 37.5 62.5t77.5 23.5l87 6l6 22q2 8 2 14zM202 436q0 -25 29 -25
q28 0 70 13l13 4l16 67l-75 -5q-43 -3 -51 -40q-2 -8 -2 -14z" />
    <glyph glyph-name="guillemotleft" unicode="&#xab;" horiz-adv-x="446" 
d="M497 409l-22 -77l-131 -87l88 -96l-20 -69l-142 149l14 38zM307 409l-22 -77l-131 -87l88 -96l-20 -69l-142 149l14 38z" />
    <glyph glyph-name="logicalnot" unicode="&#xac;" 
d="M123 342h428v-225h-70v157h-358v68z" />
    <glyph glyph-name="registered" unicode="&#xae;" horiz-adv-x="644" 
d="M234 240q-75 79 -75 194.5t75 194t189 78.5t188.5 -79t74.5 -194.5t-74 -194t-188.5 -78.5t-189.5 79zM266 597q-63 -67 -63 -162.5t63 -162.5t156.5 -67t156.5 66.5t63 162.5t-63 163t-156.5 67t-156.5 -67zM370 389v-107h-57v303h110q56 0 84.5 -22t28.5 -66.5t-11 -66
t-39 -33.5l55 -115h-62l-49 107h-60zM370 538v-102h59q51 0 51 51t-62 51h-48z" />
    <glyph glyph-name="macron" unicode="&#xaf;" horiz-adv-x="439" 
d="M229 639l14 59h275l-15 -59h-274z" />
    <glyph glyph-name="degree" unicode="&#xb0;" 
d="M306 458.5q-39 38.5 -39 102t39 102.5t102.5 39t102.5 -39t39 -102.5t-39 -102t-102.5 -38.5t-102.5 38.5zM317 561q0 -42 25 -67.5t66.5 -25.5t67.5 25.5t26 67t-26 67.5t-67.5 26t-66.5 -25.5t-25 -67.5z" />
    <glyph glyph-name="plusminus" unicode="&#xb1;" 
d="M103 293v68h188v126h70v-126h191v-68h-191v-127h-70v127h-188zM103 106h449v-68h-449v68z" />
    <glyph glyph-name="twosuperior" unicode="&#xb2;" horiz-adv-x="280" 
d="M327 800q82 0 82 -58q0 -77 -95 -146l-76 -60h127l-14 -58h-210l14 56l110 86q62 49 71 83q5 19 -6 27.5t-34 8.5l-87 -10l12 59q63 12 106 12z" />
    <glyph glyph-name="threesuperior" unicode="&#xb3;" horiz-adv-x="280" 
d="M413 742q0 -62 -62 -101q23 -8 28 -18.5t5 -23.5t-4 -34q-25 -97 -132 -97q-44 0 -94 8l-16 2l18 56q56 -7 102 -7t56 41q2 9 2 15q0 27 -37 27h-66l13 54h65q14 0 29.5 13t20 30.5t-4.5 25.5t-33 8l-93 -7l10 56q62 10 105 10q88 0 88 -58z" />
    <glyph glyph-name="acute" unicode="&#xb4;" horiz-adv-x="546" 
d="M279 596l-7 58l228 94l7 -66z" />
    <glyph glyph-name="mu" unicode="&#xb5;" 
d="M207 131q0 -75 68 -75q30 0 68.5 28t62.5 56l23 28l77 332h74l-115 -500h-73l18 87q-9 -11 -23.5 -27t-57 -43t-85 -27t-72.5 24l-55 -236h-74l167 722h74l-52 -222h1l-18 -78q-8 -38 -8 -69z" />
    <glyph glyph-name="paragraph" unicode="&#xb6;" horiz-adv-x="557" 
d="M145 473q0 85 64.5 156t159.5 71h310l-14 -64h-69l-151 -636h-63l151 636h-109l-152 -636h-64l81 332q-74 1 -109 41t-35 100z" />
    <glyph glyph-name="periodcentered" unicode="&#xb7;" horiz-adv-x="170" 
d="M103 245l26 117h77l-26 -117h-77z" />
    <glyph glyph-name="cedilla" unicode="&#xb8;" horiz-adv-x="791" 
d="M418 -45q85 0 85 -55q0 -11 -3 -24q-19 -87 -108 -87q-43 0 -70 5l-10 2l13 51q37 -3 62 -3q41 0 51 36q5 19 -4.5 26t-29.5 7h-39l21 92h40l-13 -50h5z" />
    <glyph glyph-name="onesuperior" unicode="&#xb9;" horiz-adv-x="280" 
d="M202 720l119 70h60l-77 -312h-64l60 242l-80 -47z" />
    <glyph glyph-name="ordmasculine" unicode="&#xba;" horiz-adv-x="341" 
d="M321 659q44 0 73 -18.5t32 -56.5q2 -10 2 -28.5t-8 -48.5q-18 -80 -58.5 -116t-101.5 -36q-114 0 -114 98q0 26 8 58q19 79 59 113.5t108 34.5zM264 415q36 0 56.5 21t30 60.5t9.5 60.5q0 43 -51 43q-36 0 -56 -19.5t-30 -59t-10 -58.5q0 -48 51 -48z" />
    <glyph glyph-name="guillemotright" unicode="&#xbb;" horiz-adv-x="480" 
d="M286 80l22 77l131 87l-88 96l20 69l142 -149l-14 -38zM63 80l22 77l131 87l-88 96l20 69l142 -149l-14 -38z" />
    <glyph glyph-name="onequarter" unicode="&#xbc;" horiz-adv-x="594" 
d="M178 720l119 70h60l-77 -312h-64l60 242l-80 -47zM178 -10l-70 25l427 692l70 -26zM484 0l11 48h-141l13 55l122 209h72l-124 -205h73l28 88h58l-23 -88h27l-14 -59h-27l-12 -48h-63z" />
    <glyph glyph-name="onehalf" unicode="&#xbd;" horiz-adv-x="617" 
d="M178 720l119 70h60l-77 -312h-64l60 242l-80 -47zM178 -10l-70 25l427 692l70 -26zM566 322q82 0 82 -58q0 -77 -95 -146l-76 -60h127l-14 -58h-210l14 56l110 86q62 49 71 83q5 19 -6 27.5t-34 8.5l-87 -10l12 59q63 12 106 12z" />
    <glyph glyph-name="threequarters" unicode="&#xbe;" horiz-adv-x="609" 
d="M409 742q0 -62 -62 -101q23 -8 28 -18.5t5 -23.5t-4 -34q-25 -97 -132 -97q-44 0 -94 8l-16 2l18 56q56 -7 102 -7t56 41q2 9 2 15q0 27 -37 27h-66l13 54h65q14 0 29.5 13t20 30.5t-4.5 25.5t-33 8l-93 -7l10 56q62 10 105 10q88 0 88 -58zM194 -10l-70 25l427 692
l70 -26zM501 0l11 48h-141l13 55l122 209h72l-124 -205h73l28 88h58l-23 -88h27l-14 -59h-27l-12 -48h-63z" />
    <glyph glyph-name="questiondown" unicode="&#xbf;" horiz-adv-x="407" 
d="M23 -70q0 71 32 114.5t132 120.5q69 53 78 101l8 39h71q-1 -33 -7 -62q-11 -61 -101 -130q-80 -63 -106.5 -96.5t-26.5 -81.5q0 -68 101 -68q54 0 122 13l22 5l-6 -61q-88 -25 -154 -25q-165 0 -165 131zM386 500l-25 -116h-77l26 116h76z" />
    <glyph glyph-name="Agrave" unicode="&#xc0;" horiz-adv-x="554" 
d="M363 930l185 -94l-34 -56l-188 86zM24 0l345 692h149l14 -692h-76l-6 177h-259l-89 -177h-78zM414 624l-191 -380h228l-7 380h-30z" />
    <glyph glyph-name="Aacute" unicode="&#xc1;" horiz-adv-x="554" 
d="M388 785l-9 57l228 94l9 -65zM24 0l345 692h149l14 -692h-76l-6 177h-259l-89 -177h-78zM414 624l-191 -380h228l-7 380h-30z" />
    <glyph glyph-name="Acircumflex" unicode="&#xc2;" horiz-adv-x="554" 
d="M303 793l164 138h41l96 -138h-69l-54 81l-96 -81h-82zM24 0l345 692h149l14 -692h-76l-6 177h-259l-89 -177h-78zM414 624l-191 -380h228l-7 380h-30z" />
    <glyph glyph-name="Atilde" unicode="&#xc3;" horiz-adv-x="554" 
d="M530 804q-23 0 -74.5 28t-63.5 28q-23 0 -73 -36l-17 -13l-2 54q67 60 105 60q27 0 77.5 -27.5t61.5 -27.5q19 0 67 34l16 12l3 -53q-63 -59 -100 -59zM24 0l345 692h149l14 -692h-76l-6 177h-259l-89 -177h-78zM414 624l-191 -380h228l-7 380h-30z" />
    <glyph glyph-name="Adieresis" unicode="&#xc4;" horiz-adv-x="554" 
d="M341 814l21 93h62l-23 -93h-60zM528 814l22 93h62l-23 -93h-61zM24 0l345 692h149l14 -692h-76l-6 177h-259l-89 -177h-78zM414 624l-191 -380h228l-7 380h-30z" />
    <glyph glyph-name="Aring" unicode="&#xc5;" horiz-adv-x="554" 
d="M358 669q-12 16 -12 35t4 36q13 50 47 75t81.5 25t69.5 -25q15 -16 15 -37t-4 -38q-13 -46 -41 -70l14 -670h-76l-6 177h-259l-89 -177h-78zM414 624l-191 -380h228l-7 380h-30zM400 740q-2 -7 -2 -16t8 -20t31 -12h10q50 2 61 48q1 7 1 17t-10 20.5t-33 10.5
q-54 0 -66 -48z" />
    <glyph glyph-name="AE" unicode="&#xc6;" horiz-adv-x="780" 
d="M348 0l41 177h-201l-90 -177h-73l345 696h530l-15 -72l-317 2l-57 -240h260l-15 -69h-261l-58 -245h315l-15 -72h-389zM408 624l-187 -377h185l90 377h-88z" />
    <glyph glyph-name="Ccedilla" unicode="&#xc7;" horiz-adv-x="504" 
d="M296 -45q85 0 85 -55q0 -11 -3 -24q-19 -87 -108 -87q-43 0 -70 5l-10 2l13 51q37 -3 62 -3q41 0 51 36q5 19 -4.5 26t-29.5 7h-39l18 80q-149 21 -149 195q0 178 82 336q40 78 109.5 128t157.5 50q66 0 142 -18l24 -5l-17 -60q-77 15 -146 15t-121 -41.5t-84 -106.5
q-67 -138 -67 -294q0 -68 29.5 -101t93.5 -33q76 0 140 12l23 5l-5 -63q-89 -22 -168 -22h-5l-9 -35h5z" />
    <glyph glyph-name="Egrave" unicode="&#xc8;" horiz-adv-x="505" 
d="M369 930l185 -94l-34 -56l-188 86zM78 0l159 692h386l-16 -68h-309l-55 -238h254l-16 -68h-253l-58 -250h309l-15 -68h-386z" />
    <glyph glyph-name="Eacute" unicode="&#xc9;" horiz-adv-x="505" 
d="M377 785l-9 57l228 94l9 -65zM78 0l159 692h386l-16 -68h-309l-55 -238h254l-16 -68h-253l-58 -250h309l-15 -68h-386z" />
    <glyph glyph-name="Ecircumflex" unicode="&#xca;" horiz-adv-x="505" 
d="M342 791l164 138h41l96 -138h-69l-54 81l-96 -81h-82zM78 0l159 692h386l-16 -68h-309l-55 -238h254l-16 -68h-253l-58 -250h309l-15 -68h-386z" />
    <glyph glyph-name="Edieresis" unicode="&#xcb;" horiz-adv-x="505" 
d="M332 814l21 93h62l-23 -93h-60zM519 814l22 93h62l-23 -93h-61zM78 0l159 692h386l-16 -68h-309l-55 -238h254l-16 -68h-253l-58 -250h309l-15 -68h-386z" />
    <glyph glyph-name="Igrave" unicode="&#xcc;" horiz-adv-x="232" 
d="M186 930l185 -94l-34 -56l-188 86zM78 0l160 692h76l-160 -692h-76z" />
    <glyph glyph-name="Iacute" unicode="&#xcd;" horiz-adv-x="232" 
d="M239 785l-9 57l228 94l9 -65zM78 0l160 692h76l-160 -692h-76z" />
    <glyph glyph-name="Icircumflex" unicode="&#xce;" horiz-adv-x="232" 
d="M143 791l164 138h41l96 -138h-69l-54 81l-96 -81h-82zM78 0l160 692h76l-160 -692h-76z" />
    <glyph glyph-name="Idieresis" unicode="&#xcf;" horiz-adv-x="232" 
d="M173 819l21 93h62l-23 -93h-60zM360 819l22 93h62l-23 -93h-61zM78 0l160 692h76l-160 -692h-76z" />
    <glyph glyph-name="Eth" unicode="&#xd0;" horiz-adv-x="611" 
d="M321 0h-239l71 309h-66l15 77h69l71 306h222q95 0 143.5 -49t48.5 -157q0 -139 -52 -262q-27 -64 -65 -113.5t-94.5 -80t-123.5 -30.5zM560.5 351.5q15.5 70.5 15.5 139t-30 101t-97 32.5h-147l-55 -238h142l-17 -77h-142l-55 -241h157q59 0 107.5 42t77 106.5t44 135z
" />
    <glyph glyph-name="Ntilde" unicode="&#xd1;" horiz-adv-x="631" 
d="M569 802q-23 0 -75 28t-64 28q-22 0 -72 -36l-17 -13l-2 54q67 60 105 60q27 0 77.5 -27.5t60.5 -27.5q20 0 68 34l16 12l3 -53q-63 -59 -100 -59zM78 0l160 692h136l104 -613h19l141 613h75l-160 -692h-131l-108 617h-20l-143 -617h-73z" />
    <glyph glyph-name="Ograve" unicode="&#xd2;" horiz-adv-x="628" 
d="M413 930l185 -94l-34 -56l-188 86zM225 90.5q32 -32.5 104.5 -32.5t121.5 40q68 56 104.5 168t36.5 224q0 75 -33.5 109.5t-102 34.5t-114.5 -37q-69 -57 -109 -173t-40 -208.5t32 -125zM629.5 239q-42.5 -121 -120.5 -185t-185.5 -64t-158.5 48.5t-51 167.5t41.5 237
t118.5 188.5t183 70.5q215 0 215 -207q0 -135 -42.5 -256z" />
    <glyph glyph-name="Oacute" unicode="&#xd3;" horiz-adv-x="628" 
d="M225 90.5q32 -32.5 104.5 -32.5t121.5 40q68 56 104.5 168t36.5 224q0 75 -33.5 109.5t-102 34.5t-114.5 -37q-69 -57 -109 -173t-40 -208.5t32 -125zM629.5 239q-42.5 -121 -120.5 -185t-185.5 -64t-158.5 48.5t-51 167.5t41.5 237t118.5 188.5t183 70.5q215 0 215 -207
q0 -135 -42.5 -256zM425 785l-9 57l228 94l9 -65z" />
    <glyph glyph-name="Ocircumflex" unicode="&#xd4;" horiz-adv-x="628" 
d="M225 90.5q32 -32.5 104.5 -32.5t121.5 40q68 56 104.5 168t36.5 224q0 75 -33.5 109.5t-102 34.5t-114.5 -37q-69 -57 -109 -173t-40 -208.5t32 -125zM629.5 239q-42.5 -121 -120.5 -185t-185.5 -64t-158.5 48.5t-51 167.5t41.5 237t118.5 188.5t183 70.5q215 0 215 -207
q0 -135 -42.5 -256zM347 793l164 138h41l96 -138h-69l-54 81l-96 -81h-82z" />
    <glyph glyph-name="Otilde" unicode="&#xd5;" horiz-adv-x="628" 
d="M581 802q-23 0 -75 28t-64 28q-22 0 -72 -36l-17 -13l-2 54q67 60 105 60q27 0 77.5 -27.5t60.5 -27.5q20 0 68 34l16 12l3 -53q-63 -59 -100 -59zM225 90.5q32 -32.5 104.5 -32.5t121.5 40q68 56 104.5 168t36.5 224q0 75 -33.5 109.5t-102 34.5t-114.5 -37
q-69 -57 -109 -173t-40 -208.5t32 -125zM629.5 239q-42.5 -121 -120.5 -185t-185.5 -64t-158.5 48.5t-51 167.5t41.5 237t118.5 188.5t183 70.5q215 0 215 -207q0 -135 -42.5 -256z" />
    <glyph glyph-name="Odieresis" unicode="&#xd6;" horiz-adv-x="628" 
d="M371 812l21 93h69l-22 -93h-68zM560 812l21 93h68l-21 -93h-68zM225 90.5q32 -32.5 104.5 -32.5t121.5 40q68 56 104.5 168t36.5 224q0 75 -33.5 109.5t-102 34.5t-114.5 -37q-69 -57 -109 -173t-40 -208.5t32 -125zM629.5 239q-42.5 -121 -120.5 -185t-185.5 -64
t-158.5 48.5t-51 167.5t41.5 237t118.5 188.5t183 70.5q215 0 215 -207q0 -135 -42.5 -256z" />
    <glyph glyph-name="multiply" unicode="&#xd7;" 
d="M177 459l160 -162l161 163l48 -48l-162 -161l162 -161l-48 -48l-161 162l-160 -162l-49 48l163 161l-162 160z" />
    <glyph glyph-name="Oslash" unicode="&#xd8;" horiz-adv-x="628" 
d="M159 44q-45 48 -45 164.5t41.5 234.5t118.5 188.5t183 70.5q80 0 130 -28l84 123l47 -21l-91 -134q45 -53 45 -147q0 -135 -42.5 -256t-120.5 -185t-183 -64q-79 0 -127 24l-88 -128l-42 25zM544 611q-32 23 -94 23t-108 -37q-69 -57 -109 -173t-40 -222q0 -57 14 -86z
M242 77q32 -19 96 -19t113 40q68 56 104.5 168t36.5 224q0 51 -14 80l-163 -241z" />
    <glyph glyph-name="Ugrave" unicode="&#xd9;" horiz-adv-x="594" 
d="M393 930l185 -94l-34 -56l-188 86zM189 144q0 -86 128 -86q79 0 118.5 37t57.5 116l111 481h77l-111 -481q-26 -114 -86.5 -167.5t-163.5 -53.5q-207 0 -207 144q0 49 11 91l108 467h77l-110 -475q-10 -40 -10 -73z" />
    <glyph glyph-name="Uacute" unicode="&#xda;" horiz-adv-x="594" 
d="M189 144q0 -86 128 -86q79 0 118.5 37t57.5 116l111 481h77l-111 -481q-26 -114 -86.5 -167.5t-163.5 -53.5q-207 0 -207 144q0 49 11 91l108 467h77l-110 -475q-10 -40 -10 -73zM386 785l-9 57l228 94l9 -65z" />
    <glyph glyph-name="Ucircumflex" unicode="&#xdb;" horiz-adv-x="594" 
d="M189 144q0 -86 128 -86q79 0 118.5 37t57.5 116l111 481h77l-111 -481q-26 -114 -86.5 -167.5t-163.5 -53.5q-207 0 -207 144q0 49 11 91l108 467h77l-110 -475q-10 -40 -10 -73zM322 793l164 138h41l96 -138h-69l-54 81l-96 -81h-82z" />
    <glyph glyph-name="Udieresis" unicode="&#xdc;" horiz-adv-x="594" 
d="M345 812l21 93h69l-22 -93h-68zM534 812l20 93h69l-22 -93h-67zM189 144q0 -86 128 -86q79 0 118.5 37t57.5 116l111 481h77l-111 -481q-26 -114 -86.5 -167.5t-163.5 -53.5q-207 0 -207 144q0 49 11 91l108 467h77l-110 -475q-10 -40 -10 -73z" />
    <glyph glyph-name="Yacute" unicode="&#xdd;" horiz-adv-x="493" 
d="M345 785l-9 57l228 94l9 -65zM641 692l-293 -396l-69 -296h-73l70 302l-106 390h78l81 -323l229 323h83z" />
    <glyph glyph-name="Thorn" unicode="&#xde;" horiz-adv-x="549" 
d="M354 194q127 0 169 165q8 30 8 58t-12 51q-21 42 -94 43l-155 1l-75 -318h159zM442 585q102 0 140 -63q24 -41 24 -84t-8 -79q-24 -110 -91 -174.5t-167 -64.5h-3h-159l-28 -120h-74l164 696h74l-27 -111h155z" />
    <glyph glyph-name="germandbls" unicode="&#xdf;" horiz-adv-x="539" 
d="M411 728q164 0 164 -120q0 -106 -96 -152q-48 -22 -65.5 -35.5t-17.5 -32.5t11.5 -31.5t58 -41t64.5 -51t18 -70.5q0 -94 -58 -149t-161 -55q-54 0 -107 14l-19 5l14 59q66 -13 108 -13q70 0 108.5 36t38.5 95q0 28 -14 44.5t-59.5 44t-61.5 49t-16 58t22 61.5t72 50.5
t67 48t17 57.5q0 64 -94 64q-64 0 -96.5 -32.5t-50.5 -110.5l-122 -520h-71l125 529q26 110 76.5 154.5t144.5 44.5z" />
    <glyph glyph-name="agrave" unicode="&#xe0;" horiz-adv-x="500" 
d="M217 -10q-128 0 -128 149q0 83 26.5 165.5t86.5 144t139 61.5q61 0 167 -18l38 -7l-76 -325q-14 -56 -24 -132l-4 -26l-73 -3q14 86 18 107q-5 -9 -29.5 -34.5t-43.5 -41t-46 -28t-51 -12.5zM459 431q-70 14 -120.5 14t-92.5 -51.5t-61 -120t-19 -122.5t17 -75t51 -21
t74.5 32.5t67.5 65.5l26 33zM338 741l185 -93l-33 -52l-188 86z" />
    <glyph glyph-name="aacute" unicode="&#xe1;" horiz-adv-x="500" 
d="M217 -10q-128 0 -128 149q0 83 26.5 165.5t86.5 144t139 61.5q61 0 167 -18l38 -7l-76 -325q-14 -56 -24 -132l-4 -26l-73 -3q14 86 18 107q-5 -9 -29.5 -34.5t-43.5 -41t-46 -28t-51 -12.5zM459 431q-70 14 -120.5 14t-92.5 -51.5t-61 -120t-19 -122.5t17 -75t51 -21
t74.5 32.5t67.5 65.5l26 33zM340 596l-7 58l228 94l7 -66z" />
    <glyph glyph-name="acircumflex" unicode="&#xe2;" horiz-adv-x="500" 
d="M241 587l155 151h53l86 -151h-75l-48 86l-89 -86h-82zM217 -10q-128 0 -128 149q0 83 26.5 165.5t86.5 144t139 61.5q61 0 167 -18l38 -7l-76 -325q-14 -56 -24 -132l-4 -26l-73 -3q14 86 18 107q-5 -9 -29.5 -34.5t-43.5 -41t-46 -28t-51 -12.5zM459 431
q-70 14 -120.5 14t-92.5 -51.5t-61 -120t-19 -122.5t17 -75t51 -21t74.5 32.5t67.5 65.5l26 33z" />
    <glyph glyph-name="atilde" unicode="&#xe3;" horiz-adv-x="500" 
d="M217 -10q-128 0 -128 149q0 83 26.5 165.5t86.5 144t139 61.5q61 0 167 -18l38 -7l-76 -325q-14 -56 -24 -132l-4 -26l-73 -3q14 86 18 107q-5 -9 -29.5 -34.5t-43.5 -41t-46 -28t-51 -12.5zM459 431q-70 14 -120.5 14t-92.5 -51.5t-61 -120t-19 -122.5t17 -75t51 -21
t74.5 32.5t67.5 65.5l26 33zM486 614q-21 0 -68 24t-58 24q-21 0 -67 -32l-15 -11l-3 56q62 53 99 53q24 0 69.5 -24t55.5 -24q19 0 61 30l15 11l5 -56q-57 -51 -94 -51z" />
    <glyph glyph-name="adieresis" unicode="&#xe4;" horiz-adv-x="500" 
d="M266 620l21 93h69l-22 -93h-68zM456 620l20 93h69l-22 -93h-67zM217 -10q-128 0 -128 149q0 83 26.5 165.5t86.5 144t139 61.5q61 0 167 -18l38 -7l-76 -325q-14 -56 -24 -132l-4 -26l-73 -3q14 86 18 107q-5 -9 -29.5 -34.5t-43.5 -41t-46 -28t-51 -12.5zM459 431
q-70 14 -120.5 14t-92.5 -51.5t-61 -120t-19 -122.5t17 -75t51 -21t74.5 32.5t67.5 65.5l26 33z" />
    <glyph glyph-name="aring" unicode="&#xe5;" horiz-adv-x="500" 
d="M217 -10q-128 0 -128 149q0 83 26.5 165.5t86.5 144t139 61.5q61 0 167 -18l38 -7l-76 -325q-14 -56 -24 -132l-4 -26l-73 -3q14 86 18 107q-5 -9 -29.5 -34.5t-43.5 -41t-46 -28t-51 -12.5zM459 431q-70 14 -120.5 14t-92.5 -51.5t-61 -120t-19 -122.5t17 -75t51 -21
t74.5 32.5t67.5 65.5l26 33zM378 732q31 28 71.5 28t56.5 -20.5t16 -48.5q0 -8 -1 -16q-4 -49 -37.5 -80t-78 -31t-61.5 28q-10 17 -10 36q0 65 44 104zM403.5 696q-16.5 -13 -20 -26t-3.5 -22t8.5 -22t28.5 -13t37 14q23 20 23 47q0 11 -8.5 23t-28.5 12t-36.5 -13z" />
    <glyph glyph-name="ae" unicode="&#xe6;" horiz-adv-x="749" 
d="M441 145q0 -85 90 -85q72 0 145 6l28 3l-13 -63q-101 -16 -188 -16t-121 54q-44 -19 -109.5 -36.5t-106.5 -17.5q-63 0 -88 46q-16 29 -16 57t5 51q13 69 57 102t114.5 44.5t153.5 14.5q15 44 15 73q0 59 -60 59q-72 0 -151 -8l-29 -3l12 69q114 15 172 15q110 0 124 -74
q61 74 166 74q141 0 144 -135q0 -53 -14 -103l-15 -55l-305 2q-10 -43 -10 -74zM139 118q0 -61 51 -61q62 0 176 38q-3 14 -3 46t17 103q-72 -6 -138 -14q-82 -13 -100 -84q-3 -15 -3 -28zM701 278q11 42 11 61.5v24.5q-3 78 -88 78q-62 0 -101 -39t-59 -123z" />
    <glyph glyph-name="ccedilla" unicode="&#xe7;" horiz-adv-x="406" 
d="M244 -45q85 0 85 -55q0 -11 -3 -24q-19 -87 -108 -87q-43 0 -70 5l-10 2l13 51q37 -3 62 -3q41 0 51 36q5 19 -4.5 26t-29.5 7h-39l18 80q-117 18 -117 149q0 214 116 315q61 53 147 53q47 0 107 -14l18 -5l-19 -58q-65 12 -108 12q-60 0 -103 -44q-81 -81 -81 -245
q0 -50 24 -75.5t79 -25.5q39 0 92 11l20 4l-5 -59q-69 -21 -131 -21l-9 -35h5z" />
    <glyph glyph-name="egrave" unicode="&#xe8;" horiz-adv-x="462" 
d="M192 79.5q26 -23.5 64 -23.5q71 0 146 16l25 6l-6 -59q-89 -29 -171 -29q-159 0 -159 152q0 139 63 248q32 54 85.5 87t120.5 33q148 0 148 -122q0 -89 -67 -124.5t-213 -35.5h-51q-11 -39 -11 -82t26 -66.5zM242 287q102 0 147 21.5t45 78.5q0 60 -77 60
q-123 0 -170 -160h55zM258 741l185 -93l-33 -52l-188 86z" />
    <glyph glyph-name="eacute" unicode="&#xe9;" horiz-adv-x="462" 
d="M192 79.5q26 -23.5 64 -23.5q71 0 146 16l25 6l-6 -59q-89 -29 -171 -29q-159 0 -159 152q0 139 63 248q32 54 85.5 87t120.5 33q148 0 148 -122q0 -89 -67 -124.5t-213 -35.5h-51q-11 -39 -11 -82t26 -66.5zM242 287q102 0 147 21.5t45 78.5q0 60 -77 60
q-123 0 -170 -160h55zM300 596l-7 58l228 94l7 -66z" />
    <glyph glyph-name="ecircumflex" unicode="&#xea;" horiz-adv-x="462" 
d="M220 587l155 151h53l86 -151h-75l-48 86l-89 -86h-82zM192 79.5q26 -23.5 64 -23.5q71 0 146 16l25 6l-6 -59q-89 -29 -171 -29q-159 0 -159 152q0 139 63 248q32 54 85.5 87t120.5 33q148 0 148 -122q0 -89 -67 -124.5t-213 -35.5h-51q-11 -39 -11 -82t26 -66.5z
M242 287q102 0 147 21.5t45 78.5q0 60 -77 60q-123 0 -170 -160h55z" />
    <glyph glyph-name="edieresis" unicode="&#xeb;" horiz-adv-x="462" 
d="M253 620l21 93h69l-22 -93h-68zM443 620l20 93h69l-22 -93h-67zM192 79.5q26 -23.5 64 -23.5q71 0 146 16l25 6l-6 -59q-89 -29 -171 -29q-159 0 -159 152q0 139 63 248q32 54 85.5 87t120.5 33q148 0 148 -122q0 -89 -67 -124.5t-213 -35.5h-51q-11 -39 -11 -82
t26 -66.5zM242 287q102 0 147 21.5t45 78.5q0 60 -77 60q-123 0 -170 -160h55z" />
    <glyph glyph-name="igrave" unicode="&#xec;" horiz-adv-x="206" 
d="M66 0l115 500h75l-116 -500h-74zM112 741l185 -93l-33 -52l-188 86z" />
    <glyph glyph-name="iacute" unicode="&#xed;" horiz-adv-x="206" 
d="M66 0l115 500h75l-116 -500h-74zM194 596l-7 58l228 94l7 -66z" />
    <glyph glyph-name="icircumflex" unicode="&#xee;" horiz-adv-x="206" 
d="M84 587l155 151h53l87 -151h-76l-48 86l-89 -86h-82zM66 0l115 500h75l-116 -500h-74z" />
    <glyph glyph-name="idieresis" unicode="&#xef;" horiz-adv-x="206" 
d="M103 620l22 93h69l-22 -93h-69zM293 620l20 93h69l-22 -93h-67zM66 0l115 500h75l-116 -500h-74z" />
    <glyph glyph-name="eth" unicode="&#xf0;" horiz-adv-x="517" 
d="M564 446q0 -41 -11 -89q-46 -192 -119 -279t-186 -87q-93 0 -135 51q-33 41 -33 97q0 14 2 30q10 117 82.5 189.5t173.5 72.5q32 0 68.5 -8.5t57.5 -17.5l21 -9q3 20 3 38q0 100 -95 160l-114 -74l-28 46l87 56q-48 19 -92 32l29 67q88 -19 143 -48l105 68l27 -46
l-82 -53q96 -73 96 -196zM470 324q-72 36 -141 36t-116 -53.5t-52 -134.5q-1 -10 -1 -19q0 -88 105 -88q139 0 205 259z" />
    <glyph glyph-name="ntilde" unicode="&#xf1;" horiz-adv-x="498" 
d="M371 444q-19 0 -42 -12q-55 -29 -102 -88l-10 -12l-77 -332h-74l115 500h73l-18 -87l22 25q21 24 61 48t78 24q58 0 88 -34t30 -88t-20 -134l-59 -254h-74l58 249q19 76 19 120q0 75 -68 75zM464 614q-21 0 -68 24t-58 24q-21 0 -67 -32l-15 -11l-3 56q62 53 99 53
q24 0 69.5 -24t55.5 -24q19 0 61 30l15 11l5 -56q-57 -51 -94 -51z" />
    <glyph glyph-name="ograve" unicode="&#xf2;" horiz-adv-x="494" 
d="M343 510q173 0 173 -170q0 -93 -29.5 -172t-88.5 -128.5t-136 -49.5q-171 0 -171 164q0 144 71.5 250t180.5 106zM262 55q80 0 129.5 84.5t49.5 201.5q0 48 -24.5 76t-73.5 28q-78 0 -127.5 -87.5t-49.5 -204.5q0 -98 96 -98zM286 741l185 -93l-33 -52l-188 86z" />
    <glyph glyph-name="oacute" unicode="&#xf3;" horiz-adv-x="494" 
d="M343 510q173 0 173 -170q0 -93 -29.5 -172t-88.5 -128.5t-136 -49.5q-171 0 -171 164q0 144 71.5 250t180.5 106zM262 55q80 0 129.5 84.5t49.5 201.5q0 48 -24.5 76t-73.5 28q-78 0 -127.5 -87.5t-49.5 -204.5q0 -98 96 -98zM302 596l-7 58l228 94l7 -66z" />
    <glyph glyph-name="ocircumflex" unicode="&#xf4;" horiz-adv-x="494" 
d="M235 587l155 151h53l87 -151h-76l-48 86l-89 -86h-82zM343 510q173 0 173 -170q0 -93 -29.5 -172t-88.5 -128.5t-136 -49.5q-171 0 -171 164q0 144 71.5 250t180.5 106zM262 55q80 0 129.5 84.5t49.5 201.5q0 48 -24.5 76t-73.5 28q-78 0 -127.5 -87.5t-49.5 -204.5
q0 -98 96 -98z" />
    <glyph glyph-name="otilde" unicode="&#xf5;" horiz-adv-x="494" 
d="M343 510q173 0 173 -170q0 -93 -29.5 -172t-88.5 -128.5t-136 -49.5q-171 0 -171 164q0 144 71.5 250t180.5 106zM262 55q80 0 129.5 84.5t49.5 201.5q0 48 -24.5 76t-73.5 28q-78 0 -127.5 -87.5t-49.5 -204.5q0 -98 96 -98zM449 614q-21 0 -68 24t-59 24q-20 0 -66 -32
l-15 -11l-3 56q62 53 99 53q24 0 69.5 -24t55.5 -24q19 0 62 30l14 11l5 -56q-57 -51 -94 -51z" />
    <glyph glyph-name="odieresis" unicode="&#xf6;" horiz-adv-x="494" 
d="M343 510q173 0 173 -170q0 -93 -29.5 -172t-88.5 -128.5t-136 -49.5q-171 0 -171 164q0 144 71.5 250t180.5 106zM262 55q80 0 129.5 84.5t49.5 201.5q0 48 -24.5 76t-73.5 28q-78 0 -127.5 -87.5t-49.5 -204.5q0 -98 96 -98zM262 620l21 93h62l-22 -93h-61zM445 620
l20 93h62l-22 -93h-60z" />
    <glyph glyph-name="divide" unicode="&#xf7;" 
d="M178 281v73h57v48h206v-48h56v-73h-319zM300 30v101h75v-101h-75z" />
    <glyph glyph-name="oslash" unicode="&#xf8;" horiz-adv-x="494" 
d="M344 512q49 0 85 -15l67 108l45 -20l-72 -113q48 -43 48 -133t-29.5 -169t-88.5 -128.5t-136 -49.5q-50 0 -87 14l-72 -117l-44 19l77 122q-45 40 -45 126q0 144 71.5 250t180.5 106zM263 57q80 0 129.5 84.5t49.5 201.5q0 37 -15 63l-106 -167l-107 -173q20 -9 49 -9z
M344 447q-78 0 -127.5 -87.5t-49.5 -204.5q0 -36 13 -58l103 162l109 178q-19 10 -48 10z" />
    <glyph glyph-name="ugrave" unicode="&#xf9;" horiz-adv-x="498" 
d="M288 741l185 -93l-33 -52l-188 86zM216 -10q-58 0 -88 34t-30 88t20 134l59 254h74l-58 -249q-19 -76 -19 -120q0 -75 68 -75q30 0 68.5 28t61.5 56l24 28l77 332h74l-115 -500h-73l18 87q-9 -11 -23.5 -27t-57 -43t-80.5 -27z" />
    <glyph glyph-name="uacute" unicode="&#xfa;" horiz-adv-x="498" 
d="M216 -10q-58 0 -88 34t-30 88t20 134l59 254h74l-58 -249q-19 -76 -19 -120q0 -75 68 -75q30 0 68.5 28t61.5 56l24 28l77 332h74l-115 -500h-73l18 87q-9 -11 -23.5 -27t-57 -43t-80.5 -27zM313 596l-7 58l228 94l7 -66z" />
    <glyph glyph-name="ucircumflex" unicode="&#xfb;" horiz-adv-x="498" 
d="M220 587l155 151h53l86 -151h-75l-48 86l-89 -86h-82zM216 -10q-58 0 -88 34t-30 88t20 134l59 254h74l-58 -249q-19 -76 -19 -120q0 -75 68 -75q30 0 68.5 28t61.5 56l24 28l77 332h74l-115 -500h-73l18 87q-9 -11 -23.5 -27t-57 -43t-80.5 -27z" />
    <glyph glyph-name="udieresis" unicode="&#xfc;" horiz-adv-x="498" 
d="M248 620l22 93h69l-22 -93h-69zM438 620l20 93h69l-22 -93h-67zM216 -10q-58 0 -88 34t-30 88t20 134l59 254h74l-58 -249q-19 -76 -19 -120q0 -75 68 -75q30 0 68.5 28t61.5 56l24 28l77 332h74l-115 -500h-73l18 87q-9 -11 -23.5 -27t-57 -43t-80.5 -27z" />
    <glyph glyph-name="yacute" unicode="&#xfd;" horiz-adv-x="454" 
d="M139 500h74l8 -436h30l218 436h77l-365 -721h-76l115 221h-68zM289 596l-7 58l228 94l7 -66z" />
    <glyph glyph-name="thorn" unicode="&#xfe;" horiz-adv-x="483" 
d="M384 510q50 0 81.5 -24.5t39 -60t7.5 -56t-1 -45t-13 -66.5q-38 -142 -99.5 -205t-166.5 -63q-41 0 -69 4t-28 5l-52 -219h-70l221 936h71l-63 -266q77 60 142 60zM437 335q0 104 -75 104q-28 0 -62.5 -16t-55.5 -31l-20 -15l-73 -308l94 -10q71 0 112 48.5t69 151.5
q11 36 11 76z" />
    <glyph glyph-name="ydieresis" unicode="&#xff;" horiz-adv-x="454" 
d="M228 620l21 93h69l-22 -93h-68zM418 620l20 93h69l-22 -93h-67zM139 500h74l8 -436h30l218 436h77l-365 -721h-76l115 221h-68z" />
    <glyph glyph-name="Amacron" unicode="&#x100;" horiz-adv-x="554" 
d="M315 829l13 60h294l-14 -60h-293zM24 0l345 692h149l14 -692h-76l-6 177h-259l-89 -177h-78zM414 624l-191 -380h228l-7 380h-30z" />
    <glyph glyph-name="amacron" unicode="&#x101;" horiz-adv-x="500" 
d="M217 -10q-128 0 -128 149q0 83 26.5 165.5t86.5 144t139 61.5q61 0 167 -18l38 -7l-76 -325q-14 -56 -24 -132l-4 -26l-73 -3q14 86 18 107q-5 -9 -29.5 -34.5t-43.5 -41t-46 -28t-51 -12.5zM459 431q-70 14 -120.5 14t-92.5 -51.5t-61 -120t-19 -122.5t17 -75t51 -21
t74.5 32.5t67.5 65.5l26 33zM285 639l14 59h275l-15 -59h-274z" />
    <glyph glyph-name="Abreve" unicode="&#x102;" horiz-adv-x="554" 
d="M459 795q-115 0 -115 97q0 14 3 30h66q-2 -10 -2 -25.5t13.5 -28.5t46 -13t58 18.5t34.5 48.5h66q-37 -127 -170 -127zM24 0l345 692h149l14 -692h-76l-6 177h-259l-89 -177h-78zM414 624l-191 -380h228l-7 380h-30z" />
    <glyph glyph-name="abreve" unicode="&#x103;" horiz-adv-x="500" 
d="M217 -10q-128 0 -128 149q0 83 26.5 165.5t86.5 144t139 61.5q61 0 167 -18l38 -7l-76 -325q-14 -56 -24 -132l-4 -26l-73 -3q14 86 18 107q-5 -9 -29.5 -34.5t-43.5 -41t-46 -28t-51 -12.5zM459 431q-70 14 -120.5 14t-92.5 -51.5t-61 -120t-19 -122.5t17 -75t51 -21
t74.5 32.5t67.5 65.5l26 33zM368 731q-3 -12 -3 -26.5t13 -32t51 -17.5q76 0 98 76h65q-40 -138 -181 -138q-65 0 -93 37q-19 26 -19 65q0 17 4 36h65z" />
    <glyph glyph-name="Aogonek" unicode="&#x104;" horiz-adv-x="554" 
d="M532 0h-5q-30 -25 -58.5 -59.5t-28.5 -57.5q0 -20 24 -20l48 5l-7 -63q-45 -9 -77 -9q-70 0 -70 63q0 33 30.5 72.5t67.5 69.5l-6 176h-259l-89 -177h-78l345 692h149l14 -688v-4zM414 624l-191 -380h228l-7 380h-30z" />
    <glyph glyph-name="aogonek" unicode="&#x105;" horiz-adv-x="500" 
d="M335 -204q-70 0 -70 63q0 34 34 76.5t71 72.5q2 8 8.5 48t8.5 50q-5 -9 -29.5 -34.5t-43.5 -41t-46 -28t-51 -12.5q-128 0 -128 149q0 83 26.5 165.5t86.5 144t139 61.5q61 0 167 -18l38 -7l-76 -325q-14 -56 -24 -132l-4 -26h-6q-29 -24 -59 -60t-30 -59q0 -20 24 -20
l48 5l-7 -63q-45 -9 -77 -9zM459 431q-70 14 -120.5 14t-92.5 -51.5t-61 -120t-19 -122.5t17 -75t51 -21t74.5 32.5t67.5 65.5l26 33z" />
    <glyph glyph-name="Cacute" unicode="&#x106;" horiz-adv-x="504" 
d="M305 -10q-193 0 -193 198q0 178 82 336q40 78 109.5 128t157.5 50q66 0 142 -18l24 -5l-17 -60q-77 15 -146 15t-121 -41.5t-84 -106.5q-67 -138 -67 -294q0 -68 29.5 -101t93.5 -33q76 0 140 12l23 5l-5 -63q-89 -22 -168 -22zM411 785l-9 57l228 94l9 -65z" />
    <glyph glyph-name="cacute" unicode="&#x107;" horiz-adv-x="405" 
d="M355 510q47 0 107 -14l18 -5l-19 -58q-65 12 -108 12q-60 0 -103 -44q-81 -81 -81 -245q0 -50 24 -75.5t79 -25.5q39 0 92 11l20 4l-5 -59q-69 -21 -138.5 -21t-109 39.5t-39.5 112.5q0 214 116 315q61 53 147 53zM294 596l-7 58l228 94l7 -66z" />
    <glyph glyph-name="Ccircumflex" unicode="&#x108;" horiz-adv-x="504" 
d="M305 -10q-193 0 -193 198q0 178 82 336q40 78 109.5 128t157.5 50q66 0 142 -18l24 -5l-17 -60q-77 15 -146 15t-121 -41.5t-84 -106.5q-67 -138 -67 -294q0 -68 29.5 -101t93.5 -33q76 0 140 12l23 5l-5 -63q-89 -22 -168 -22zM335 793l164 138h41l96 -138h-69l-54 81
l-96 -81h-82z" />
    <glyph glyph-name="ccircumflex" unicode="&#x109;" horiz-adv-x="405" 
d="M355 510q47 0 107 -14l18 -5l-19 -58q-65 12 -108 12q-60 0 -103 -44q-81 -81 -81 -245q0 -50 24 -75.5t79 -25.5q39 0 92 11l20 4l-5 -59q-69 -21 -138.5 -21t-109 39.5t-39.5 112.5q0 214 116 315q61 53 147 53zM226 587l155 151h40l87 -151h-69l-48 86l-89 -86h-76z
" />
    <glyph glyph-name="Cdotaccent" unicode="&#x10a;" horiz-adv-x="504" 
d="M305 -10q-193 0 -193 198q0 178 82 336q40 78 109.5 128t157.5 50q66 0 142 -18l24 -5l-17 -60q-77 15 -146 15t-121 -41.5t-84 -106.5q-67 -138 -67 -294q0 -68 29.5 -101t93.5 -33q76 0 140 12l23 5l-5 -63q-89 -22 -168 -22zM450 793l20 90h64l-21 -90h-63z" />
    <glyph glyph-name="cdotaccent" unicode="&#x10b;" horiz-adv-x="405" 
d="M355 510q47 0 107 -14l18 -5l-19 -58q-65 12 -108 12q-60 0 -103 -44q-81 -81 -81 -245q0 -50 24 -75.5t79 -25.5q39 0 92 11l20 4l-5 -59q-69 -21 -138.5 -21t-109 39.5t-39.5 112.5q0 214 116 315q61 53 147 53zM334 605l21 89h64l-21 -89h-64z" />
    <glyph glyph-name="Ccaron" unicode="&#x10c;" horiz-adv-x="504" 
d="M305 -10q-193 0 -193 198q0 178 82 336q40 78 109.5 128t157.5 50q66 0 142 -18l24 -5l-17 -60q-77 15 -146 15t-121 -41.5t-84 -106.5q-67 -138 -67 -294q0 -68 29.5 -101t93.5 -33q76 0 140 12l23 5l-5 -63q-89 -22 -168 -22zM666 929l-157 -137h-47l-98 137h74l58 -82
l93 82h77z" />
    <glyph glyph-name="ccaron" unicode="&#x10d;" horiz-adv-x="405" 
d="M392 587h-42l-85 151h69l51 -89l90 89h75zM355 510q47 0 107 -14l18 -5l-19 -58q-65 12 -108 12q-60 0 -103 -44q-81 -81 -81 -245q0 -50 24 -75.5t79 -25.5q39 0 92 11l20 4l-5 -59q-69 -21 -138.5 -21t-109 39.5t-39.5 112.5q0 214 116 315q61 53 147 53z" />
    <glyph glyph-name="Dcaron" unicode="&#x10e;" horiz-adv-x="607" 
d="M317 0h-239l160 692h222q95 0 143.5 -49t48.5 -157q0 -139 -52 -262q-27 -64 -65 -113.5t-94.5 -80t-123.5 -30.5zM542 591.5q-30 32.5 -97 32.5h-147l-127 -556h157q59 0 107.5 42t77 106.5t44 135t15.5 139t-30 101zM627 929l-157 -137h-47l-98 137h74l58 -82l93 82h77
z" />
    <glyph glyph-name="dcaron" unicode="&#x10f;" horiz-adv-x="551" 
d="M721 692l-54 -232h-69l55 232h68zM215 -10q-126 0 -126 146q0 88 28 172t87 143t135 59q51 0 113 -14l20 -4l53 226h75l-167 -718h-72l19 89q-9 -13 -29.5 -32.5t-38.5 -32.5q-49 -34 -97 -34zM459 430q-66 15 -119.5 15t-94.5 -52t-60 -121t-19 -135q0 -82 72 -82
q30 0 70 29.5t66 59.5l25 29z" />
    <glyph glyph-name="Dcroat" unicode="&#x110;" horiz-adv-x="611" 
d="M321 0h-239l71 309h-67l16 77h69l71 306h222q95 0 143.5 -49t48.5 -157q0 -139 -52 -262q-27 -64 -65 -113.5t-94.5 -80t-123.5 -30.5zM560.5 351.5q15.5 70.5 15.5 139t-30 101t-97 32.5h-147l-55 -238h142l-18 -77h-141l-55 -241h157q59 0 107.5 42t77 106.5t44 135z
" />
    <glyph glyph-name="dcroat" unicode="&#x111;" horiz-adv-x="500" 
d="M215 -10q-126 0 -126 146q0 88 28 172t87 143t135 59q51 0 113 -14l20 -4l22 97h-144l16 69h145l14 60h75l-14 -60h55l-16 -69h-55l-137 -589h-72l19 89q-9 -13 -29.5 -32.5t-38.5 -32.5q-49 -34 -97 -34zM459 430q-66 15 -119.5 15t-94.5 -52t-60 -121t-19 -135
q0 -82 72 -82q30 0 70 29.5t66 59.5l25 29z" />
    <glyph glyph-name="Emacron" unicode="&#x112;" horiz-adv-x="505" 
d="M305 823l13 60h294l-14 -60h-293zM78 0l159 692h386l-16 -68h-309l-55 -238h254l-16 -68h-253l-58 -250h309l-15 -68h-386z" />
    <glyph glyph-name="emacron" unicode="&#x113;" horiz-adv-x="462" 
d="M192 79.5q26 -23.5 64 -23.5q71 0 146 16l25 6l-6 -59q-89 -29 -171 -29q-159 0 -159 152q0 139 63 248q32 54 85.5 87t120.5 33q148 0 148 -122q0 -89 -67 -124.5t-213 -35.5h-51q-11 -39 -11 -82t26 -66.5zM242 287q102 0 147 21.5t45 78.5q0 60 -77 60
q-123 0 -170 -160h55zM255 639l14 59h275l-15 -59h-274z" />
    <glyph glyph-name="Ebreve" unicode="&#x114;" horiz-adv-x="505" 
d="M444 796q-115 0 -115 97q0 14 3 30h66q-2 -10 -2 -25.5t13.5 -28.5t46 -13t58 18.5t34.5 48.5h66q-37 -127 -170 -127zM78 0l159 692h386l-16 -68h-309l-55 -238h254l-16 -68h-253l-58 -250h309l-15 -68h-386z" />
    <glyph glyph-name="ebreve" unicode="&#x115;" horiz-adv-x="462" 
d="M192 79.5q26 -23.5 64 -23.5q71 0 146 16l25 6l-6 -59q-89 -29 -171 -29q-159 0 -159 152q0 139 63 248q32 54 85.5 87t120.5 33q148 0 148 -122q0 -89 -67 -124.5t-213 -35.5h-51q-11 -39 -11 -82t26 -66.5zM242 287q102 0 147 21.5t45 78.5q0 60 -77 60
q-123 0 -170 -160h55zM335 731q-3 -12 -3 -26.5t13 -32t51 -17.5q76 0 98 76h65q-40 -138 -181 -138q-65 0 -92 37q-20 26 -20 65q0 17 4 36h65z" />
    <glyph glyph-name="Edotaccent" unicode="&#x116;" horiz-adv-x="505" 
d="M418 830l20 90h64l-21 -90h-63zM78 0l159 692h386l-16 -68h-309l-55 -238h254l-16 -68h-253l-58 -250h309l-15 -68h-386z" />
    <glyph glyph-name="edotaccent" unicode="&#x117;" horiz-adv-x="462" 
d="M192 79.5q26 -23.5 64 -23.5q71 0 146 16l25 6l-6 -59q-89 -29 -171 -29q-159 0 -159 152q0 139 63 248q32 54 85.5 87t120.5 33q148 0 148 -122q0 -89 -67 -124.5t-213 -35.5h-51q-11 -39 -11 -82t26 -66.5zM242 287q102 0 147 21.5t45 78.5q0 60 -77 60
q-123 0 -170 -160h55zM338 605l21 89h64l-21 -89h-64z" />
    <glyph glyph-name="Eogonek" unicode="&#x118;" horiz-adv-x="505" 
d="M356 -117q0 -20 24 -20l48 5l-7 -63q-45 -9 -77 -9q-70 0 -70 63q0 32 29.5 71t66.5 70h-292l159 692h386l-16 -68h-309l-55 -238h254l-16 -68h-253l-58 -250h309l-15 -68h-21q-30 -25 -58.5 -59.5t-28.5 -57.5z" />
    <glyph glyph-name="eogonek" unicode="&#x119;" horiz-adv-x="462" 
d="M314 -184q-70 0 -70 63q0 49 69 116q-38 -5 -71 -5q-73 0 -112 38t-39 109.5t16 135t47.5 117.5t85 87t120.5 33q148 0 148 -122q0 -89 -67 -124.5t-213 -35.5h-51q-11 -39 -11 -82t26 -66.5t64 -23.5q71 0 146 16l25 6l-6 -59q-7 -3 -15 -5q-29 -24 -54.5 -56.5
t-25.5 -54.5q0 -20 24 -20l48 5l-7 -63q-45 -9 -77 -9zM242 287q102 0 147 21.5t45 78.5q0 60 -77 60q-123 0 -170 -160h55z" />
    <glyph glyph-name="Ecaron" unicode="&#x11a;" horiz-adv-x="505" 
d="M622 936l-157 -137h-47l-98 137h74l58 -82l93 82h77zM78 0l159 692h386l-16 -68h-309l-55 -238h254l-16 -68h-253l-58 -250h309l-15 -68h-386z" />
    <glyph glyph-name="ecaron" unicode="&#x11b;" horiz-adv-x="462" 
d="M192 79.5q26 -23.5 64 -23.5q71 0 146 16l25 6l-6 -59q-89 -29 -171 -29q-159 0 -159 152q0 139 63 248q32 54 85.5 87t120.5 33q148 0 148 -122q0 -89 -67 -124.5t-213 -35.5h-51q-11 -39 -11 -82t26 -66.5zM242 287q102 0 147 21.5t45 78.5q0 60 -77 60
q-123 0 -170 -160h55zM401 587h-42l-85 151h69l51 -89l90 89h75z" />
    <glyph glyph-name="Gcircumflex" unicode="&#x11c;" horiz-adv-x="572" 
d="M339 779l155 151h53l87 -151h-76l-48 86l-89 -86h-82zM322 -10q-209 0 -209 196q0 197 85 350q42 75 112.5 120.5t158.5 45.5q85 0 171 -24l28 -7l-19 -58q-100 21 -190 21q-54 0 -99 -28.5t-75 -75t-51 -106.5q-41 -112 -41 -239t137 -127q44 0 103 12l18 3l52 220h-105
l15 66h182l-80 -342q-88 -27 -193 -27z" />
    <glyph glyph-name="gcircumflex" unicode="&#x11d;" horiz-adv-x="468" 
d="M197 -235q-83 0 -131 34.5t-48 96.5q0 85 132 153q-16 16 -16 39.5t14 47.5t28 38l13 15q-69 32 -69 115t55 144.5t146 61.5q46 0 83 -12l13 -4l148 6l-15 -64h-89q17 -28 17 -69q0 -75 -56.5 -136t-154.5 -61l-33 3q-31 -40 -31 -61t19 -28.5t86 -16t103 -35t36 -82.5
q0 -77 -68.5 -131t-181.5 -54zM119 -27q-30 -30 -30 -64t28 -57t91.5 -23t114.5 31t51 84q0 30 -21.5 43t-79.5 20t-84 16q-40 -20 -70 -50zM274 232q63 0 98 42.5t35 86.5t-21 65t-73.5 21t-87 -42.5t-34.5 -92.5q0 -80 83 -80zM211 587l155 151h40l87 -151h-69l-48 86
l-89 -86h-76z" />
    <glyph glyph-name="Gbreve" unicode="&#x11e;" horiz-adv-x="572" 
d="M447 923q-1 -7 -1 -26t16 -34t50 -15t59.5 20.5t34.5 54.5h72q-19 -65 -69 -105t-113 -40t-92.5 30t-31.5 78q0 18 3 37h72zM322 -10q-209 0 -209 196q0 197 85 350q42 75 112.5 120.5t158.5 45.5q85 0 171 -24l28 -7l-19 -58q-100 21 -190 21q-54 0 -99 -28.5t-75 -75
t-51 -106.5q-41 -112 -41 -239t137 -127q44 0 103 12l18 3l52 220h-105l15 66h182l-80 -342q-88 -27 -193 -27z" />
    <glyph glyph-name="gbreve" unicode="&#x11f;" horiz-adv-x="468" 
d="M197 -235q-83 0 -131 34.5t-48 96.5q0 85 132 153q-16 16 -16 39.5t14 47.5t28 38l13 15q-69 32 -69 115t55 144.5t146 61.5q46 0 83 -12l13 -4l148 6l-15 -64h-89q17 -28 17 -69q0 -75 -56.5 -136t-154.5 -61l-33 3q-31 -40 -31 -61t19 -28.5t86 -16t103 -35t36 -82.5
q0 -77 -68.5 -131t-181.5 -54zM119 -27q-30 -30 -30 -64t28 -57t91.5 -23t114.5 31t51 84q0 30 -21.5 43t-79.5 20t-84 16q-40 -20 -70 -50zM274 232q63 0 98 42.5t35 86.5t-21 65t-73.5 21t-87 -42.5t-34.5 -92.5q0 -80 83 -80zM331 731q-3 -12 -3 -26.5t13 -32t51 -17.5
q76 0 98 76h65q-40 -138 -181 -138q-65 0 -92 37q-20 26 -20 65q0 17 4 36h65z" />
    <glyph glyph-name="Gdotaccent" unicode="&#x120;" horiz-adv-x="572" 
d="M465 797l21 89h70l-21 -89h-70zM322 -10q-209 0 -209 196q0 197 85 350q42 75 112.5 120.5t158.5 45.5q85 0 171 -24l28 -7l-19 -58q-100 21 -190 21q-54 0 -99 -28.5t-75 -75t-51 -106.5q-41 -112 -41 -239t137 -127q44 0 103 12l18 3l52 220h-105l15 66h182l-80 -342
q-88 -27 -193 -27z" />
    <glyph glyph-name="gdotaccent" unicode="&#x121;" horiz-adv-x="468" 
d="M197 -235q-83 0 -131 34.5t-48 96.5q0 85 132 153q-16 16 -16 39.5t14 47.5t28 38l13 15q-69 32 -69 115t55 144.5t146 61.5q46 0 83 -12l13 -4l148 6l-15 -64h-89q17 -28 17 -69q0 -75 -56.5 -136t-154.5 -61l-33 3q-31 -40 -31 -61t19 -28.5t86 -16t103 -35t36 -82.5
q0 -77 -68.5 -131t-181.5 -54zM119 -27q-30 -30 -30 -64t28 -57t91.5 -23t114.5 31t51 84q0 30 -21.5 43t-79.5 20t-84 16q-40 -20 -70 -50zM274 232q63 0 98 42.5t35 86.5t-21 65t-73.5 21t-87 -42.5t-34.5 -92.5q0 -80 83 -80zM324 605l21 89h64l-21 -89h-64z" />
    <glyph glyph-name="Gcommaaccent" unicode="&#x122;" horiz-adv-x="572" 
d="M322 -10q-209 0 -209 196q0 197 85 350q42 75 112.5 120.5t158.5 45.5q85 0 171 -24l28 -7l-19 -58q-100 21 -190 21q-54 0 -99 -28.5t-75 -75t-51 -106.5q-41 -112 -41 -239t137 -127q44 0 103 12l18 3l52 220h-105l15 66h182l-80 -342q-88 -27 -193 -27zM257 -73h70
l-96 -210h-61z" />
    <glyph glyph-name="gcommaaccent" unicode="&#x123;" horiz-adv-x="468" 
d="M409 794h61l-87 -210h-70zM197 -235q-83 0 -131 34.5t-48 96.5q0 85 132 153q-16 16 -16 39.5t14 47.5t28 38l13 15q-69 32 -69 115t55 144.5t146 61.5q46 0 83 -12l13 -4l148 6l-15 -64h-89q17 -28 17 -69q0 -75 -56.5 -136t-154.5 -61l-33 3q-31 -40 -31 -61t19 -28.5
t86 -16t103 -35t36 -82.5q0 -77 -68.5 -131t-181.5 -54zM119 -27q-30 -30 -30 -64t28 -57t91.5 -23t114.5 31t51 84q0 30 -21.5 43t-79.5 20t-84 16q-40 -20 -70 -50zM274 232q63 0 98 42.5t35 86.5t-21 65t-73.5 21t-87 -42.5t-34.5 -92.5q0 -80 83 -80z" />
    <glyph glyph-name="Hcircumflex" unicode="&#x124;" horiz-adv-x="624" 
d="M469 0l73 316h-315l-73 -316h-76l160 692h76l-71 -309h315l71 309h77l-160 -692h-77zM335 793l164 138h41l96 -138h-69l-54 81l-96 -81h-82z" />
    <glyph glyph-name="hcircumflex" unicode="&#x125;" horiz-adv-x="499" 
d="M398 510q58 0 88 -34t30 -86t-21 -138l-58 -252h-74l58 249q18 82 18 120q0 75 -67 75q-49 0 -120 -73q-16 -17 -26 -29l-9 -11l-76 -331h-75l166 718h75l-71 -306q9 11 24 27.5t57.5 43.5t80.5 27zM290 763l164 138h41l96 -138h-69l-54 81l-96 -81h-82z" />
    <glyph glyph-name="Hbar" unicode="&#x126;" horiz-adv-x="638" 
d="M122 503v1l15 68h80l28 120h73l-28 -120h322l28 120h73l-28 -120h79l-18 -69h-77l-115 -503h-74l72 312h-322l-72 -312h-73l116 503h-79zM247 385h322l27 118h-322z" />
    <glyph glyph-name="hbar" unicode="&#x127;" horiz-adv-x="499" 
d="M398 510q58 0 88 -34t30 -86t-21 -138l-58 -252h-74l58 249q18 82 18 120q0 75 -67 75q-49 0 -120 -73q-16 -17 -26 -29l-9 -11l-76 -331h-75l134 579h-55l15 65h55l17 74h75l-18 -74h146l-16 -65h-145l-38 -167q9 11 24 27.5t57.5 43.5t80.5 27z" />
    <glyph glyph-name="Itilde" unicode="&#x128;" horiz-adv-x="232" 
d="M374 798q-24 0 -75 28t-63 28q-23 0 -73 -36l-17 -13l-2 54q67 60 105 60q27 0 77.5 -27.5t61.5 -27.5q19 0 67 34l16 12l3 -53q-63 -59 -100 -59zM78 0l160 692h76l-160 -692h-76z" />
    <glyph glyph-name="itilde" unicode="&#x129;" horiz-adv-x="206" 
d="M66 0l115 500h75l-116 -500h-74zM304 614q-21 0 -68 24t-58 24q-21 0 -67 -32l-15 -11l-3 56q62 53 99 53q24 0 69.5 -24t55.5 -24q19 0 61 30l15 11l5 -56q-57 -51 -94 -51z" />
    <glyph glyph-name="Imacron" unicode="&#x12a;" horiz-adv-x="232" 
d="M153 833l13 60h294l-14 -60h-293zM78 0l160 692h76l-160 -692h-76z" />
    <glyph glyph-name="imacron" unicode="&#x12b;" horiz-adv-x="206" 
d="M66 0l115 500h75l-116 -500h-74zM105 639l14 59h275l-15 -59h-274z" />
    <glyph glyph-name="Ibreve" unicode="&#x12c;" horiz-adv-x="232" 
d="M298 795q-115 0 -115 97q0 14 3 30h66q-2 -10 -2 -25.5t13.5 -28.5t46 -13t58 18.5t34.5 48.5h66q-37 -127 -170 -127zM78 0l160 692h76l-160 -692h-76z" />
    <glyph glyph-name="ibreve" unicode="&#x12d;" horiz-adv-x="206" 
d="M66 0l115 500h75l-116 -500h-74zM187 731q-3 -12 -3 -26.5t13 -32t51 -17.5q76 0 98 76h65q-40 -138 -181 -138q-65 0 -92 37q-20 26 -20 65q0 17 4 36h65z" />
    <glyph glyph-name="Iogonek" unicode="&#x12e;" horiz-adv-x="232" 
d="M48 -204q-71 0 -71 63q0 59 101 144l160 689h76l-160 -692q-31 -20 -63 -56.5t-32 -60.5q0 -20 24 -20l49 5l-8 -63q-44 -9 -76 -9z" />
    <glyph glyph-name="iogonek" unicode="&#x12f;" horiz-adv-x="207" 
d="M35 -204q-71 0 -71 63q0 34 32.5 75t70.5 72l115 494h75l-116 -500q-32 -23 -63.5 -58t-31.5 -59q0 -20 24 -20l49 5l-8 -63q-44 -9 -76 -9zM205 604l21 90h76l-21 -90h-76z" />
    <glyph glyph-name="Idotaccent" unicode="&#x130;" horiz-adv-x="232" 
d="M270 830l20 90h64l-21 -90h-63zM78 0l160 692h76l-160 -692h-76z" />
    <glyph glyph-name="dotlessi" unicode="&#x131;" horiz-adv-x="207" 
d="M66 0l115 500h75l-116 -500h-74z" />
    <glyph glyph-name="Jcircumflex" unicode="&#x134;" horiz-adv-x="265" 
d="M350 692l-132 -574q-20 -86 -39 -122t-56 -51t-116 -15l12 68q62 0 83 21.5t40 104.5l132 568h76zM174 793l164 138h41l96 -138h-69l-54 81l-96 -81h-82z" />
    <glyph glyph-name="jcircumflex" unicode="&#x135;" horiz-adv-x="206" 
d="M66 0l115 500h75l-116 -500q-25 -111 -56 -146.5t-147 -88.5l-24 60q89 46 112 72t41 103zM89 587l155 151h40l87 -151h-69l-48 86l-89 -86h-76z" />
    <glyph glyph-name="Kcommaaccent" unicode="&#x136;" horiz-adv-x="521" 
d="M229 -73h70l-96 -210h-61zM422 0l-98 307l-100 -3l-70 -304h-76l160 692h76l-74 -320l91 3l245 317h86l-269 -349l110 -343h-81z" />
    <glyph glyph-name="kcommaaccent" unicode="&#x137;" horiz-adv-x="445" 
d="M91 -283l87 210h70l-96 -210h-61zM141 0h-75l166 718h75l-97 -418l64 3l181 197h87l-212 -232l95 -268h-79l-84 239l-67 -2z" />
    <glyph glyph-name="Lacute" unicode="&#x139;" horiz-adv-x="433" 
d="M316 785l-9 57l228 94l9 -65zM427 0h-349l160 692h76l-144 -624h272z" />
    <glyph glyph-name="lacute" unicode="&#x13a;" horiz-adv-x="215" 
d="M70 0l166 718h74l-165 -718h-75zM249 785l-9 57l228 94l9 -65z" />
    <glyph glyph-name="Lcommaaccent" unicode="&#x13b;" horiz-adv-x="433" 
d="M207 -73h70l-96 -210h-61zM427 0h-349l160 692h76l-144 -624h272z" />
    <glyph glyph-name="lcommaaccent" unicode="&#x13c;" horiz-adv-x="215" 
d="M57 -73h70l-96 -210h-61zM70 0l166 718h74l-165 -718h-75z" />
    <glyph glyph-name="Lcaron" unicode="&#x13d;" horiz-adv-x="453" 
d="M554 692l-55 -232h-68l55 232h68zM427 0h-349l160 692h76l-144 -624h272z" />
    <glyph glyph-name="lcaron" unicode="&#x13e;" horiz-adv-x="262" 
d="M432 692l-55 -232h-68l55 232h68zM70 0l166 718h74l-165 -718h-75z" />
    <glyph glyph-name="Lslash" unicode="&#x141;" horiz-adv-x="434" 
d="M429 0h-349l62 268l-54 -34v1l-25 54l98 61l79 342h76l-66 -287l148 93l23 -55l-190 -119l-59 -256h272z" />
    <glyph glyph-name="lslash" unicode="&#x142;" horiz-adv-x="270" 
d="M95 0l64 278l-65 -40l-26 53l110 68l83 359h74l-70 -305l69 43l24 -54l-112 -70l-76 -332h-75z" />
    <glyph glyph-name="Nacute" unicode="&#x143;" horiz-adv-x="631" 
d="M402 785l-9 57l228 94l9 -65zM78 0l160 692h136l104 -613h19l141 613h75l-160 -692h-131l-108 617h-20l-143 -617h-73z" />
    <glyph glyph-name="nacute" unicode="&#x144;" horiz-adv-x="498" 
d="M371 444q-19 0 -42 -12q-55 -29 -102 -88l-10 -12l-77 -332h-74l115 500h73l-18 -87l22 25q21 24 61 48t78 24q58 0 88 -34t30 -88t-20 -134l-59 -254h-74l58 249q19 76 19 120q0 75 -68 75zM300 596l-7 58l228 94l7 -66z" />
    <glyph glyph-name="Ncommaaccent" unicode="&#x145;" horiz-adv-x="631" 
d="M280 -73h70l-96 -210h-61zM78 0l160 692h136l104 -613h19l141 613h75l-160 -692h-131l-108 617h-20l-143 -617h-73z" />
    <glyph glyph-name="ncommaaccent" unicode="&#x146;" horiz-adv-x="498" 
d="M397 510q58 0 88 -34t30 -88t-20 -134l-59 -254h-74l58 249q19 76 19 120q0 75 -68 75q-30 0 -68.5 -28t-62.5 -56l-23 -28l-77 -332h-74l115 500h73l-18 -87q9 11 23.5 27t57 43t80.5 27zM125 -283l87 210h70l-96 -210h-61z" />
    <glyph glyph-name="Ncaron" unicode="&#x147;" horiz-adv-x="631" 
d="M669 926l-157 -137h-47l-98 137h74l58 -82l93 82h77zM78 0l160 692h136l104 -613h19l141 613h75l-160 -692h-131l-108 617h-20l-143 -617h-73z" />
    <glyph glyph-name="ncaron" unicode="&#x148;" horiz-adv-x="498" 
d="M397 510q58 0 88 -34t30 -88t-20 -134l-59 -254h-74l58 249q19 76 19 120q0 75 -68 75q-30 0 -68.5 -28t-62.5 -56l-23 -28l-77 -332h-74l115 500h73l-18 -87q9 11 23.5 27t57 43t80.5 27zM403 587h-42l-85 151h69l51 -89l90 89h75z" />
    <glyph glyph-name="Eng" unicode="&#x14a;" horiz-adv-x="631" 
d="M78 0l160 692h137l104 -613h18l142 613h74l-159 -690q-15 -66 -26.5 -98t-35 -55.5t-55.5 -29.5t-91 -6l12 68q61 1 82 21.5t39 97.5h-58l-107 617h-20l-143 -617h-73z" />
    <glyph glyph-name="eng" unicode="&#x14b;" horiz-adv-x="492" 
d="M236 435q86 75 151 75t92.5 -24.5t30.5 -80.5q1 -6 1 -14q0 -44 -20 -132l-61 -259q-22 -92 -63 -138.5t-144 -96.5l-16 66q82 44 110 76.5t46 105.5l58 246q17 74 17 111t-17.5 52.5t-50 15.5t-69 -17.5t-58.5 -34.5l-22 -18l-86 -368h-70l117 500h71z" />
    <glyph glyph-name="Omacron" unicode="&#x14c;" horiz-adv-x="628" 
d="M225 90.5q32 -32.5 104.5 -32.5t121.5 40q68 56 104.5 168t36.5 224q0 75 -33.5 109.5t-102 34.5t-114.5 -37q-69 -57 -109 -173t-40 -208.5t32 -125zM629.5 239q-42.5 -121 -120.5 -185t-185.5 -64t-158.5 48.5t-51 167.5t41.5 237t118.5 188.5t183 70.5q215 0 215 -207
q0 -135 -42.5 -256zM351 823l13 60h294l-14 -60h-293z" />
    <glyph glyph-name="omacron" unicode="&#x14d;" horiz-adv-x="494" 
d="M343 510q173 0 173 -170q0 -93 -29.5 -172t-88.5 -128.5t-136 -49.5q-171 0 -171 164q0 144 71.5 250t180.5 106zM262 55q80 0 129.5 84.5t49.5 201.5q0 48 -24.5 76t-73.5 28q-78 0 -127.5 -87.5t-49.5 -204.5q0 -98 96 -98zM245 639l14 59h275l-15 -59h-274z" />
    <glyph glyph-name="Obreve" unicode="&#x14e;" horiz-adv-x="628" 
d="M489 796q-115 0 -115 97q0 14 3 30h66q-2 -10 -2 -25.5t13.5 -28.5t46 -13t58 18.5t34.5 48.5h66q-37 -127 -170 -127zM225 90.5q32 -32.5 104.5 -32.5t121.5 40q68 56 104.5 168t36.5 224q0 75 -33.5 109.5t-102 34.5t-114.5 -37q-69 -57 -109 -173t-40 -208.5t32 -125z
M629.5 239q-42.5 -121 -120.5 -185t-185.5 -64t-158.5 48.5t-51 167.5t41.5 237t118.5 188.5t183 70.5q215 0 215 -207q0 -135 -42.5 -256z" />
    <glyph glyph-name="obreve" unicode="&#x14f;" horiz-adv-x="494" 
d="M343 510q173 0 173 -170q0 -93 -29.5 -172t-88.5 -128.5t-136 -49.5q-171 0 -171 164q0 144 71.5 250t180.5 106zM262 55q80 0 129.5 84.5t49.5 201.5q0 48 -24.5 76t-73.5 28q-78 0 -127.5 -87.5t-49.5 -204.5q0 -98 96 -98zM329 731q-3 -12 -3 -26.5t13 -32t51 -17.5
q76 0 98 76h65q-40 -138 -181 -138q-65 0 -92 37q-20 26 -20 65q0 17 4 36h65z" />
    <glyph glyph-name="Ohungarumlaut" unicode="&#x150;" horiz-adv-x="628" 
d="M577 771l-42 30l164 131l49 -32zM388 772l-43 29l166 132l46 -32zM225 90.5q32 -32.5 104.5 -32.5t121.5 40q68 56 104.5 168t36.5 224q0 75 -33.5 109.5t-102 34.5t-114.5 -37q-69 -57 -109 -173t-40 -208.5t32 -125zM629.5 239q-42.5 -121 -120.5 -185t-185.5 -64
t-158.5 48.5t-51 167.5t41.5 237t118.5 188.5t183 70.5q215 0 215 -207q0 -135 -42.5 -256z" />
    <glyph glyph-name="ohungarumlaut" unicode="&#x151;" horiz-adv-x="494" 
d="M343 510q173 0 173 -170q0 -93 -29.5 -172t-88.5 -128.5t-136 -49.5q-171 0 -171 164q0 144 71.5 250t180.5 106zM262 55q80 0 129.5 84.5t49.5 201.5q0 48 -24.5 76t-73.5 28q-78 0 -127.5 -87.5t-49.5 -204.5q0 -98 96 -98zM446 582l-39 41l169 139l43 -43zM264 582
l-39 41l168 138l43 -42z" />
    <glyph glyph-name="OE" unicode="&#x152;" horiz-adv-x="858" 
d="M295 -10q-96 0 -141 43q-47 45 -47 126.5t24 185.5q43 183 121.5 272t210.5 89q69 0 131 -10h385l-16 -75h-314l-57 -233h257l-16 -73l-256 2l-57 -242h313l-18 -76h-383q-101 -9 -137 -9zM319 65q26 0 127 8l131 551q-51 7 -124 7q-100 0 -155.5 -67.5t-90.5 -217.5
q-23 -95 -23 -157t31.5 -93t103.5 -31z" />
    <glyph glyph-name="oe" unicode="&#x153;" horiz-adv-x="799" 
d="M487 143q0 -83 94 -83q70 0 145 6l28 3l-12 -63q-101 -16 -182 -16q-112 0 -134 84q-60 -84 -181 -84q-77 0 -115 30q-42 32 -42 112q0 57 17 125q31 130 89.5 191.5t175 61.5t138.5 -94q61 94 181 94q143 0 147 -131v-31.5t-13 -73.5l-17 -57l-308 2q-11 -50 -11 -76z
M445 344q0 97 -94 97q-71 0 -110 -43t-59 -130.5t-20 -124.5v-11q2 -38 24.5 -55.5t69 -17.5t76 14t49 45t29.5 60q35 103 35 166zM751 278q12 47 12 65.5v21.5q-1 74 -88 74q-63 0 -103 -38t-60 -121z" />
    <glyph glyph-name="Racute" unicode="&#x154;" horiz-adv-x="564" 
d="M575.5 353q-53.5 -64 -124.5 -84l76 -269h-77l-71 259h-164l-61 -259h-76l160 692h211q91 0 135.5 -39t44.5 -137.5t-53.5 -162.5zM549 523q0 56 -25 79t-83 23h-142l-69 -299h147q78 0 125 55t47 142zM357 785l-9 57l228 94l9 -65z" />
    <glyph glyph-name="racute" unicode="&#x155;" horiz-adv-x="316" 
d="M66 0l116 500h74l-18 -74q93 67 181 85l-20 -77q-54 -14 -145 -60l-30 -15l-83 -359h-75zM202 596l-7 58l228 94l7 -66z" />
    <glyph glyph-name="Rcommaaccent" unicode="&#x156;" horiz-adv-x="564" 
d="M164 -283l87 210h70l-96 -210h-61zM449 692q91 0 135.5 -39t44.5 -137.5t-53.5 -162.5t-124.5 -84l76 -269h-77l-71 259h-164l-61 -259h-76l160 692h211zM549 523q0 56 -25 79t-83 23h-142l-69 -299h147q78 0 125 55t47 142z" />
    <glyph glyph-name="rcommaaccent" unicode="&#x157;" horiz-adv-x="316" 
d="M66 0l116 500h74l-18 -74q93 67 181 85l-20 -77q-54 -14 -145 -60l-30 -15l-83 -359h-75zM58 -73h70l-96 -210h-61z" />
    <glyph glyph-name="Rcaron" unicode="&#x158;" horiz-adv-x="564" 
d="M614 926l-157 -137h-47l-98 137h74l58 -82l93 82h77zM575.5 353q-53.5 -64 -124.5 -84l76 -269h-77l-71 259h-164l-61 -259h-76l160 692h211q91 0 135.5 -39t44.5 -137.5t-53.5 -162.5zM549 523q0 56 -25 79t-83 23h-142l-69 -299h147q78 0 125 55t47 142z" />
    <glyph glyph-name="rcaron" unicode="&#x159;" horiz-adv-x="316" 
d="M66 0l116 500h74l-18 -74q93 67 181 85l-20 -77q-54 -14 -145 -60l-30 -15l-83 -359h-75zM316 587h-42l-85 151h69l51 -89l90 89h75z" />
    <glyph glyph-name="Sacute" unicode="&#x15a;" horiz-adv-x="499" 
d="M577 617q-106 18 -179 18t-115.5 -37.5t-42.5 -108.5q0 -40 24.5 -58t102 -45.5t108 -59.5t30.5 -97q0 -112 -67 -175.5t-181 -63.5q-85 0 -172 20l-29 6l13 60q116 -18 193 -18t120.5 42.5t43.5 121.5q0 41 -22 60.5t-97 45.5t-110 58t-35 97q0 102 65.5 160.5
t176.5 58.5q82 0 160 -21l26 -7zM352 785l-9 57l228 94l9 -65z" />
    <glyph glyph-name="sacute" unicode="&#x15b;" horiz-adv-x="429" 
d="M470 431q-95 14 -152.5 14t-88.5 -28.5t-31 -68.5q0 -24 18 -36t83.5 -29t96.5 -38.5t31 -72.5q0 -88 -61 -135t-157 -47q-64 0 -135 18l-23 5l14 58q92 -16 152.5 -16t96.5 26t36 76q0 28 -19 39.5t-82.5 27t-94.5 37.5t-31 69q0 80 56 130t141 50q75 0 142 -16l23 -5z
M277 596l-7 58l228 94l7 -66z" />
    <glyph glyph-name="Scircumflex" unicode="&#x15c;" horiz-adv-x="499" 
d="M577 617q-106 18 -179 18t-115.5 -37.5t-42.5 -108.5q0 -40 24.5 -58t102 -45.5t108 -59.5t30.5 -97q0 -112 -67 -175.5t-181 -63.5q-85 0 -172 20l-29 6l13 60q116 -18 193 -18t120.5 42.5t43.5 121.5q0 41 -22 60.5t-97 45.5t-110 58t-35 97q0 102 65.5 160.5
t176.5 58.5q82 0 160 -21l26 -7zM279 793l164 138h41l96 -138h-69l-54 81l-96 -81h-82z" />
    <glyph glyph-name="scircumflex" unicode="&#x15d;" horiz-adv-x="429" 
d="M470 431q-95 14 -152.5 14t-88.5 -28.5t-31 -68.5q0 -24 18 -36t83.5 -29t96.5 -38.5t31 -72.5q0 -88 -61 -135t-157 -47q-64 0 -135 18l-23 5l14 58q92 -16 152.5 -16t96.5 26t36 76q0 28 -19 39.5t-82.5 27t-94.5 37.5t-31 69q0 80 56 130t141 50q75 0 142 -16l23 -5z
M213 587l155 151h40l87 -151h-69l-48 86l-89 -86h-76z" />
    <glyph glyph-name="Scedilla" unicode="&#x15e;" horiz-adv-x="499" 
d="M261 -45q85 0 85 -55q0 -11 -3 -24q-19 -87 -108 -87q-43 0 -69 5l-11 2l13 51q37 -3 62 -3q41 0 51 36q5 19 -4.5 26t-29.5 7h-39l17 78q-80 4 -145 19l-24 6l13 60q116 -18 193 -18t120.5 42.5t43.5 121.5q0 41 -22 60.5t-97 45.5t-110 58t-35 97q0 102 65.5 160.5
t176.5 58.5q82 0 160 -21l26 -7l-13 -57q-106 18 -179 18t-115.5 -37.5t-42.5 -108.5q0 -40 24.5 -58t102 -45.5t108 -59.5t30.5 -97q0 -110 -65 -173.5t-175 -65.5l-9 -35h5z" />
    <glyph glyph-name="scedilla" unicode="&#x15f;" horiz-adv-x="429" 
d="M216 -45q85 0 85 -55q0 -11 -3 -24q-19 -87 -108 -87q-43 0 -70 5l-10 2l13 51q37 -3 62 -3q41 0 51 36q5 19 -4.5 26t-29.5 7h-39l18 78q-60 4 -113 17l-17 5l14 58q92 -16 152.5 -16t96.5 26t36 76q0 28 -19 39.5t-82.5 27t-94.5 37.5t-31 69q0 80 56 130t141 50
q75 0 142 -16l23 -5l-15 -58q-95 14 -152.5 14t-88.5 -28.5t-31 -68.5q0 -24 18 -36t83.5 -29t96.5 -38.5t31 -72.5q0 -86 -57.5 -132.5t-149.5 -49.5l-9 -35h5z" />
    <glyph glyph-name="Scaron" unicode="&#x160;" horiz-adv-x="499" 
d="M621 929l-157 -137h-47l-98 137h74l58 -82l93 82h77zM577 617q-106 18 -179 18t-115.5 -37.5t-42.5 -108.5q0 -40 24.5 -58t102 -45.5t108 -59.5t30.5 -97q0 -112 -67 -175.5t-181 -63.5q-85 0 -172 20l-29 6l13 60q116 -18 193 -18t120.5 42.5t43.5 121.5q0 41 -22 60.5
t-97 45.5t-110 58t-35 97q0 102 65.5 160.5t176.5 58.5q82 0 160 -21l26 -7z" />
    <glyph glyph-name="scaron" unicode="&#x161;" horiz-adv-x="429" 
d="M470 431q-95 14 -152.5 14t-88.5 -28.5t-31 -68.5q0 -24 18 -36t83.5 -29t96.5 -38.5t31 -72.5q0 -88 -61 -135t-157 -47q-64 0 -135 18l-23 5l14 58q92 -16 152.5 -16t96.5 26t36 76q0 28 -19 39.5t-82.5 27t-94.5 37.5t-31 69q0 80 56 130t141 50q75 0 142 -16l23 -5z
M373 587h-42l-85 151h69l51 -89l90 89h75z" />
    <glyph glyph-name="Tcedilla" unicode="&#x162;" horiz-adv-x="469" 
d="M247 -45q85 0 85 -55q0 -11 -3 -24q-19 -87 -108 -87q-43 0 -69 5l-11 2l13 51q37 -3 62 -3q41 0 51 36q5 19 -4.5 26t-29.5 7h-39l20 87h-19l144 624h-185l16 68h447l-16 -68h-186l-144 -624h-18l-11 -45h5z" />
    <glyph glyph-name="tcedilla" unicode="&#x163;" horiz-adv-x="318" 
d="M210 -45q85 0 85 -55q0 -11 -3 -24q-19 -87 -108 -87q-43 0 -70 5l-10 2l13 51q37 -3 62 -3q41 0 51 36q5 19 -4.5 26t-29.5 7h-39l19 83q-63 17 -63 89q0 39 16 103l58 247h-66l17 65h65l35 148h75l-36 -148h140l-16 -65h-140l-58 -251q-12 -48 -12 -83q0 -46 50 -46
l77 6l-5 -57q-52 -14 -97 -14h-2l-9 -35h5z" />
    <glyph glyph-name="Tcaron" unicode="&#x164;" horiz-adv-x="469" 
d="M584 926l-157 -137h-47l-98 137h74l58 -82l93 82h77zM154 624l16 68h447l-16 -68h-186l-144 -624h-76l144 624h-185z" />
    <glyph glyph-name="tcaron" unicode="&#x165;" horiz-adv-x="403" 
d="M569 692l-55 -232h-68l55 232h68zM191 101q0 -46 50 -46l77 6l-5 -57q-52 -14 -99 -14t-74 25t-27 67t16 106l58 247h-66l17 65h65l35 148h75l-36 -148h140l-16 -65h-140l-58 -251q-12 -48 -12 -83z" />
    <glyph glyph-name="Tbar" unicode="&#x166;" horiz-adv-x="474" 
d="M156 624l16 68h447l-16 -68h-186l-60 -259h156l-18 -70h-154l-68 -295h-76l68 295h-151l16 70h151l60 259h-185z" />
    <glyph glyph-name="tbar" unicode="&#x167;" horiz-adv-x="322" 
d="M194 101q0 -46 50 -46l77 6l-5 -57q-52 -14 -99 -14t-74 25t-27 67t16 106l15 67h-54l15 65h55l27 115h-66l17 65h65l35 148h75l-36 -148h140l-16 -65h-140l-27 -115h134l-16 -65h-133l-16 -71q-12 -48 -12 -83z" />
    <glyph glyph-name="Utilde" unicode="&#x168;" horiz-adv-x="594" 
d="M550 802q-24 0 -75 28t-63 28q-23 0 -73 -36l-17 -13l-2 54q67 60 105 60q27 0 77.5 -27.5t61.5 -27.5q19 0 67 34l16 12l3 -53q-63 -59 -100 -59zM189 144q0 -86 128 -86q79 0 118.5 37t57.5 116l111 481h77l-111 -481q-26 -114 -86.5 -167.5t-163.5 -53.5
q-207 0 -207 144q0 49 11 91l108 467h77l-110 -475q-10 -40 -10 -73z" />
    <glyph glyph-name="utilde" unicode="&#x169;" horiz-adv-x="498" 
d="M453 614q-21 0 -68 24t-59 24q-20 0 -66 -32l-15 -11l-3 56q62 53 99 53q24 0 69.5 -24t55.5 -24q19 0 62 30l14 11l5 -56q-57 -51 -94 -51zM216 -10q-58 0 -88 34t-30 88t20 134l59 254h74l-58 -249q-19 -76 -19 -120q0 -75 68 -75q30 0 68.5 28t61.5 56l24 28l77 332
h74l-115 -500h-73l18 87q-9 -11 -23.5 -27t-57 -43t-80.5 -27z" />
    <glyph glyph-name="Umacron" unicode="&#x16a;" horiz-adv-x="594" 
d="M189 144q0 -86 128 -86q79 0 118.5 37t57.5 116l111 481h77l-111 -481q-26 -114 -86.5 -167.5t-163.5 -53.5q-207 0 -207 144q0 49 11 91l108 467h77l-110 -475q-10 -40 -10 -73zM331 823l13 60h294l-14 -60h-293z" />
    <glyph glyph-name="umacron" unicode="&#x16b;" horiz-adv-x="498" 
d="M216 -10q-58 0 -88 34t-30 88t20 134l59 254h74l-58 -249q-19 -76 -19 -120q0 -75 68 -75q30 0 68.5 28t61.5 56l24 28l77 332h74l-115 -500h-73l18 87q-9 -11 -23.5 -27t-57 -43t-80.5 -27zM244 639l14 59h275l-15 -59h-274z" />
    <glyph glyph-name="Ubreve" unicode="&#x16c;" horiz-adv-x="594" 
d="M466 796q-115 0 -115 97q0 14 3 30h66q-2 -10 -2 -25.5t13.5 -28.5t46 -13t58 18.5t34.5 48.5h66q-37 -127 -170 -127zM189 144q0 -86 128 -86q79 0 118.5 37t57.5 116l111 481h77l-111 -481q-26 -114 -86.5 -167.5t-163.5 -53.5q-207 0 -207 144q0 49 11 91l108 467h77
l-110 -475q-10 -40 -10 -73z" />
    <glyph glyph-name="ubreve" unicode="&#x16d;" horiz-adv-x="498" 
d="M216 -10q-58 0 -88 34t-30 88t20 134l59 254h74l-58 -249q-19 -76 -19 -120q0 -75 68 -75q30 0 68.5 28t61.5 56l24 28l77 332h74l-115 -500h-73l18 87q-9 -11 -23.5 -27t-57 -43t-80.5 -27zM328 731q-3 -12 -3 -26.5t13 -32t51 -17.5q76 0 98 76h65q-40 -138 -181 -138
q-65 0 -93 37q-19 26 -19 65q0 17 4 36h65z" />
    <glyph glyph-name="Uring" unicode="&#x16e;" horiz-adv-x="594" 
d="M552 768q-34 -27 -82.5 -27t-71.5 27q-15 17 -15 36.5t5 36.5q13 50 47 75t81.5 25t69.5 -25q15 -16 15 -37q0 -72 -49 -111zM438 841q-2 -7 -2 -16t9.5 -20.5t34.5 -11.5q55 0 66 48q1 7 1 17t-10 20.5t-33 10.5q-54 0 -66 -48zM189 144q0 -86 128 -86q79 0 118.5 37
t57.5 116l111 481h77l-111 -481q-26 -114 -86.5 -167.5t-163.5 -53.5q-207 0 -207 144q0 49 11 91l108 467h77l-110 -475q-10 -40 -10 -73z" />
    <glyph glyph-name="uring" unicode="&#x16f;" horiz-adv-x="498" 
d="M338 712q31 28 71.5 28t56.5 -20.5t16 -48.5q0 -8 -1 -16q-4 -49 -37.5 -80t-78 -31t-61.5 28q-10 17 -10 36q0 65 44 104zM363.5 676q-16.5 -13 -20 -26t-3.5 -22t8.5 -22t28.5 -13t37 14q23 20 23 47q0 11 -8.5 23t-28.5 12t-36.5 -13zM216 -10q-58 0 -88 34t-30 88
t20 134l59 254h74l-58 -249q-19 -76 -19 -120q0 -75 68 -75q30 0 68.5 28t61.5 56l24 28l77 332h74l-115 -500h-73l18 87q-9 -11 -23.5 -27t-57 -43t-80.5 -27z" />
    <glyph glyph-name="Uhungarumlaut" unicode="&#x170;" horiz-adv-x="594" 
d="M546 755l-42 30l164 131l49 -32zM357 756l-43 29l166 132l46 -32zM189 144q0 -86 128 -86q79 0 118.5 37t57.5 116l111 481h77l-111 -481q-26 -114 -86.5 -167.5t-163.5 -53.5q-207 0 -207 144q0 49 11 91l108 467h77l-110 -475q-10 -40 -10 -73z" />
    <glyph glyph-name="uhungarumlaut" unicode="&#x171;" horiz-adv-x="498" 
d="M468 582l-39 41l169 139l43 -43zM286 582l-39 41l168 138l43 -42zM216 -10q-58 0 -88 34t-30 88t20 134l59 254h74l-58 -249q-19 -76 -19 -120q0 -75 68 -75q30 0 68.5 28t61.5 56l24 28l77 332h74l-115 -500h-73l18 87q-9 -11 -23.5 -27t-57 -43t-80.5 -27z" />
    <glyph glyph-name="Uogonek" unicode="&#x172;" horiz-adv-x="595" 
d="M293 -9q22 18 26 21l63 -8q-29 -23 -60.5 -60t-31.5 -61q0 -20 24 -20l48 5l-7 -63q-45 -9 -77 -9q-70 0 -70 63q0 54 85 132q-84 3 -131.5 38.5t-47.5 104.5q0 49 11 91l108 467h77l-110 -475q-10 -40 -10 -73q0 -86 128 -86q79 0 118.5 37t57.5 116l111 481h77
l-111 -481q-26 -114 -86.5 -167.5t-172.5 -53.5q-4 0 -10 0.5t-9 0.5z" />
    <glyph glyph-name="uogonek" unicode="&#x173;" horiz-adv-x="498" 
d="M339 -117q0 -20 24 -20l48 5l-7 -63q-45 -9 -77 -9q-70 0 -70 63q0 34 32.5 74.5t70.5 71.5l17 82q-9 -11 -23.5 -27t-57 -43t-80.5 -27q-58 0 -88 34t-30 88t20 134l59 254h74l-58 -249q-19 -76 -19 -120q0 -75 68 -75q30 0 68.5 28t61.5 56l24 28l77 332h74l-115 -500
q-30 -21 -61.5 -57t-31.5 -60z" />
    <glyph glyph-name="Wcircumflex" unicode="&#x174;" horiz-adv-x="829" 
d="M436 790l164 138h41l96 -138h-69l-54 81l-96 -81h-82zM187 692h76l-31 -621h26l269 611h84l-19 -611h26l262 621h77l-298 -692h-133l19 570l-248 -570h-137z" />
    <glyph glyph-name="wcircumflex" unicode="&#x175;" horiz-adv-x="731" 
d="M144 500h75l-9 -435h19l205 425h88l4 -425h19l196 435h76l-227 -500h-133l-3 393l-187 -393h-130zM346 587l155 151h40l87 -151h-69l-48 86l-89 -86h-76z" />
    <glyph glyph-name="Ycircumflex" unicode="&#x176;" horiz-adv-x="493" 
d="M272 790l164 138h41l96 -138h-69l-54 81l-96 -81h-82zM641 692l-293 -396l-69 -296h-73l70 302l-106 390h78l81 -323l229 323h83z" />
    <glyph glyph-name="ycircumflex" unicode="&#x177;" horiz-adv-x="454" 
d="M139 500h74l8 -436h30l218 436h77l-365 -721h-76l115 221h-68zM216 587l155 151h40l87 -151h-69l-48 86l-89 -86h-76z" />
    <glyph glyph-name="Ydieresis" unicode="&#x178;" horiz-adv-x="493" 
d="M298 813l21 93h62l-23 -93h-60zM485 813l22 93h62l-23 -93h-61zM641 692l-293 -396l-69 -296h-73l70 302l-106 390h78l81 -323l229 323h83z" />
    <glyph glyph-name="Zacute" unicode="&#x179;" horiz-adv-x="495" 
d="M336 785l-9 57l228 94l9 -65zM184 624l16 68h416l-24 -102l-448 -498l-6 -24h332l-16 -68h-416l22 99l448 498l6 27h-330z" />
    <glyph glyph-name="zacute" unicode="&#x17a;" horiz-adv-x="418" 
d="M154 500h341l-14 -64l-341 -371h255l-15 -65h-342l12 64l340 371h-252zM258 596l-7 58l228 94l7 -66z" />
    <glyph glyph-name="Zdotaccent" unicode="&#x17b;" horiz-adv-x="495" 
d="M394 830l20 90h64l-21 -90h-63zM184 624l16 68h416l-24 -102l-448 -498l-6 -24h332l-16 -68h-416l22 99l448 498l6 27h-330z" />
    <glyph glyph-name="zdotaccent" unicode="&#x17c;" horiz-adv-x="418" 
d="M154 500h341l-14 -64l-341 -371h255l-15 -65h-342l12 64l340 371h-252zM306 605l21 89h64l-21 -89h-64z" />
    <glyph glyph-name="Zcaron" unicode="&#x17d;" horiz-adv-x="495" 
d="M606 925l-157 -137h-47l-98 137h74l58 -82l93 82h77zM184 624l16 68h416l-24 -102l-448 -498l-6 -24h332l-16 -68h-416l22 99l448 498l6 27h-330z" />
    <glyph glyph-name="zcaron" unicode="&#x17e;" horiz-adv-x="418" 
d="M355 587h-42l-85 151h69l51 -89l90 89h75zM138 435l16 65h341l-14 -64l-341 -371h255l-15 -65h-342l12 64l340 371h-252z" />
    <glyph glyph-name="florin" unicode="&#x192;" 
d="M97 -243q-29 0 -61 6l-10 2l15 64q38 -3 68 -3q62 0 90 111l101 422h-103l16 72h104l12 51q30 116 69.5 160t110 44t109.5 -9l-16 -66q-69 4 -97 4q-43 0 -65.5 -34t-40.5 -114l-9 -36h157l-17 -72h-156l-102 -426q-23 -97 -64.5 -136.5t-110.5 -39.5z" />
    <glyph glyph-name="Aringacute" unicode="&#x1fa;" horiz-adv-x="554" 
d="M358 669q-12 16 -12 35t4 36q13 50 47 75t81.5 25t69.5 -25q15 -16 15 -37t-4 -38q-13 -46 -41 -70l14 -670h-76l-6 177h-259l-89 -177h-78zM414 624l-191 -380h228l-7 380h-30zM387 876l-7 58l228 94l7 -66zM400 740q-2 -7 -2 -16t9.5 -20.5t34.5 -11.5h5q50 2 61 48
q1 7 1 17t-10 20.5t-33 10.5q-54 0 -66 -48z" />
    <glyph glyph-name="aringacute" unicode="&#x1fb;" horiz-adv-x="500" 
d="M345 768l-8 65l228 93l8 -73zM217 -10q-128 0 -128 149q0 83 26.5 165.5t86.5 144t139 61.5q61 0 167 -18l38 -7l-76 -325q-14 -56 -24 -132l-4 -26l-73 -3q14 86 18 107q-5 -9 -29.5 -34.5t-43.5 -41t-46 -28t-51 -12.5zM459 431q-70 14 -120.5 14t-92.5 -51.5t-61 -120
t-19 -122.5t17 -75t51 -21t74.5 32.5t67.5 65.5l26 33zM352 712q31 28 71.5 28t56.5 -20.5t16 -48.5q0 -8 -1 -16q-4 -49 -37.5 -80t-78 -31t-61.5 28q-10 17 -10 36q0 65 44 104zM377.5 676q-16.5 -13 -20 -26t-3.5 -22t8.5 -22t28.5 -13t37 14q23 20 23 47q0 11 -8.5 23
t-28.5 12t-36.5 -13z" />
    <glyph glyph-name="AEacute" unicode="&#x1fc;" horiz-adv-x="780" 
d="M348 0l41 177h-201l-90 -177h-73l345 696h530l-15 -72l-317 2l-57 -240h260l-15 -69h-261l-58 -245h315l-15 -72h-389zM408 624l-187 -377h185l90 377h-88zM547 785l-9 57l228 94l9 -65z" />
    <glyph glyph-name="aeacute" unicode="&#x1fd;" horiz-adv-x="749" 
d="M441 145q0 -85 90 -85q72 0 145 6l28 3l-13 -63q-101 -16 -188 -16t-121 54q-44 -19 -109.5 -36.5t-106.5 -17.5q-63 0 -88 46q-16 29 -16 57t5 51q13 69 57 102t114.5 44.5t153.5 14.5q15 44 15 73q0 59 -60 59q-72 0 -151 -8l-29 -3l12 69q114 15 172 15q110 0 124 -74
q61 74 166 74q141 0 144 -135q0 -53 -14 -103l-15 -55l-305 2q-10 -43 -10 -74zM139 118q0 -61 51 -61q62 0 176 38q-3 14 -3 46t17 103q-72 -6 -138 -14q-82 -13 -100 -84q-3 -15 -3 -28zM701 278q11 42 11 61.5v24.5q-3 78 -88 78q-62 0 -101 -39t-59 -123zM431 596l-7 58
l228 94l7 -66z" />
    <glyph glyph-name="Oslashacute" unicode="&#x1fe;" horiz-adv-x="630" 
d="M160 44q-45 48 -45 164.5t41.5 234.5t118.5 188.5t183 70.5q80 0 130 -28l84 123l47 -21l-91 -134q45 -53 45 -147q0 -135 -42.5 -256t-120.5 -185t-183 -64q-79 0 -127 24l-88 -128l-42 25zM545 611q-32 23 -94 23t-108 -37q-69 -57 -109 -173t-40 -222q0 -57 14 -86z
M243 77q32 -19 96 -19t113 40q68 56 104.5 168t36.5 224q0 51 -14 80l-163 -241zM420 778l-9 64l228 94l10 -72z" />
    <glyph glyph-name="oslashacute" unicode="&#x1ff;" horiz-adv-x="494" 
d="M343 510q52 0 88 -16l68 111l45 -20l-74 -116q46 -43 46 -132.5t-29.5 -168.5t-88.5 -128.5t-136 -49.5q-50 0 -85 13l-70 -114l-44 19l75 118q-47 39 -47 128q0 144 71.5 250t180.5 106zM343 445q-78 0 -127.5 -87.5t-49.5 -204.5q0 -37 14 -60l106 166l108 175
q-22 11 -51 11zM262 55q80 0 129.5 84.5t49.5 201.5q0 35 -14 60l-103 -162l-109 -176q21 -8 47 -8zM294 596l-7 58l228 94l7 -66z" />
    <glyph glyph-name="Scommaaccent" unicode="&#x218;" horiz-adv-x="499" 
d="M211 -73h70l-96 -210h-61zM577 617q-106 18 -179 18t-115.5 -37.5t-42.5 -108.5q0 -40 24.5 -58t102 -45.5t108 -59.5t30.5 -97q0 -112 -67 -175.5t-181 -63.5q-85 0 -172 20l-29 6l13 60q116 -18 193 -18t120.5 42.5t43.5 121.5q0 41 -22 60.5t-97 45.5t-110 58t-35 97
q0 102 65.5 160.5t176.5 58.5q82 0 160 -21l26 -7z" />
    <glyph glyph-name="scommaaccent" unicode="&#x219;" horiz-adv-x="428" 
d="M469 431q-95 14 -152.5 14t-88.5 -28.5t-31 -68.5q0 -24 18 -36t83.5 -29t96.5 -38.5t31 -72.5q0 -88 -61 -135t-157 -47q-64 0 -136 18l-22 5l14 58q92 -16 152.5 -16t96.5 26t36 76q0 28 -19 39.5t-82.5 27t-94.5 37.5t-31 69q0 80 56 130t141 50q75 0 141 -16l24 -5z
M172 -73h70l-96 -210h-61z" />
    <glyph glyph-name="Tcommaaccent" unicode="&#x21a;" horiz-adv-x="469" 
d="M186 -73h70l-96 -210h-61zM154 624l16 68h447l-16 -68h-186l-144 -624h-76l144 624h-185z" />
    <glyph glyph-name="tcommaaccent" unicode="&#x21b;" horiz-adv-x="318" 
d="M191 101q0 -46 50 -46l77 6l-5 -57q-52 -14 -99 -14t-74 25t-27 67t16 106l58 247h-66l17 65h65l35 148h75l-36 -148h140l-16 -65h-140l-58 -251q-12 -48 -12 -83zM141 -73h70l-96 -210h-61z" />
    <glyph glyph-name="circumflex" unicode="&#x2c6;" horiz-adv-x="791" 
d="M384 587l155 151h40l87 -151h-69l-48 86l-89 -86h-76z" />
    <glyph glyph-name="caron" unicode="&#x2c7;" horiz-adv-x="791" 
d="M545 587h-42l-85 151h69l51 -89l90 89h75z" />
    <glyph glyph-name="breve" unicode="&#x2d8;" horiz-adv-x="439" 
d="M302 731q-3 -12 -3 -26.5t13 -32t51 -17.5q76 0 98 76h65q-40 -138 -181 -138q-65 0 -93 37q-19 26 -19 65q0 17 4 36h65z" />
    <glyph glyph-name="dotaccent" unicode="&#x2d9;" horiz-adv-x="224" 
d="M222 605l21 89h64l-21 -89h-64z" />
    <glyph glyph-name="ring" unicode="&#x2da;" horiz-adv-x="791" 
d="M354 712q31 28 71.5 28t56.5 -20.5t16 -48.5q0 -8 -1 -16q-4 -49 -37.5 -80t-78 -31t-61.5 28q-10 17 -10 36q0 65 44 104zM379.5 676q-16.5 -13 -20 -26t-3.5 -22t8.5 -22t28.5 -13t37 14q23 20 23 47q0 11 -8.5 23t-28.5 12t-36.5 -13z" />
    <glyph glyph-name="ogonek" unicode="&#x2db;" horiz-adv-x="427" 
d="M215 -204q-70 0 -70 63q0 36 37 80.5t74 72.5l63 -8q-29 -23 -60.5 -60t-31.5 -61q0 -20 24 -20l48 5l-7 -63q-45 -9 -77 -9z" />
    <glyph glyph-name="tilde" unicode="&#x2dc;" horiz-adv-x="427" 
d="M430 614q-21 0 -68 24t-58 24q-21 0 -67 -32l-15 -11l-3 56q62 53 99 53q24 0 69.5 -24t55.5 -24q19 0 61 30l15 11l5 -56q-57 -51 -94 -51z" />
    <glyph glyph-name="hungarumlaut" unicode="&#x2dd;" horiz-adv-x="666" 
d="M502 582l-39 41l169 139l43 -43zM320 582l-39 41l168 138l43 -42z" />
    <glyph glyph-name="pi" unicode="&#x3c0;" 
d="M423 154v281h-156l-28 -435h-76l31 435q-54 0 -96 -10l-12 -3v63q59 15 142 15h235q65 0 115 10l16 4v-63q-28 -12 -96 -14v-283q0 -56 17 -74.5t70 -18.5v-65q-99 0 -130.5 31t-31.5 127z" />
    <glyph glyph-name="Wgrave" unicode="&#x1e80;" horiz-adv-x="829" 
d="M508 930l185 -94l-34 -56l-188 86zM187 692h76l-31 -621h26l269 611h84l-19 -611h26l262 621h77l-298 -692h-133l19 570l-248 -570h-137z" />
    <glyph glyph-name="wgrave" unicode="&#x1e81;" horiz-adv-x="731" 
d="M386 741l185 -93l-33 -52l-188 86zM144 500h75l-9 -435h19l205 425h88l4 -425h19l196 435h76l-227 -500h-133l-3 393l-187 -393h-130z" />
    <glyph glyph-name="Wacute" unicode="&#x1e82;" horiz-adv-x="829" 
d="M505 785l-9 57l228 94l9 -65zM187 692h76l-31 -621h26l269 611h84l-19 -611h26l262 621h77l-298 -692h-133l19 570l-248 -570h-137z" />
    <glyph glyph-name="wacute" unicode="&#x1e83;" horiz-adv-x="731" 
d="M144 500h75l-9 -435h19l205 425h88l4 -425h19l196 435h76l-227 -500h-133l-3 393l-187 -393h-130zM406 596l-7 58l228 94l7 -66z" />
    <glyph glyph-name="Wdieresis" unicode="&#x1e84;" horiz-adv-x="829" 
d="M468 814l21 93h62l-23 -93h-60zM655 814l22 93h62l-23 -93h-61zM187 692h76l-31 -621h26l269 611h84l-19 -611h26l262 621h77l-298 -692h-133l19 570l-248 -570h-137z" />
    <glyph glyph-name="wdieresis" unicode="&#x1e85;" horiz-adv-x="731" 
d="M144 500h75l-9 -435h19l205 425h88l4 -425h19l196 435h76l-227 -500h-133l-3 393l-187 -393h-130zM373 620l21 93h62l-22 -93h-61zM556 620l20 93h62l-22 -93h-60z" />
    <glyph glyph-name="uni1EAB" unicode="&#x1eab;" horiz-adv-x="500" 
d="M217 -10q-128 0 -128 149q0 83 26.5 165.5t86.5 144t139 61.5q61 0 167 -18l38 -7l-76 -325q-14 -56 -24 -132l-4 -26l-73 -3q14 86 18 107q-5 -9 -29.5 -34.5t-43.5 -41t-46 -28t-51 -12.5zM459 431q-70 14 -120.5 14t-92.5 -51.5t-61 -120t-19 -122.5t17 -75t51 -21
t74.5 32.5t67.5 65.5l26 33zM505 738q-21 0 -68 24t-59 24q-20 0 -66 -32l-15 -11l-3 56q62 53 99 53q24 0 69.5 -24t55.5 -24q19 0 62 30l14 11l5 -56q-57 -51 -94 -51zM252 557l155 151h40l87 -151h-69l-48 86l-89 -86h-76z" />
    <glyph glyph-name="uni1EB0" unicode="&#x1eb0;" horiz-adv-x="554" 
d="M441 1083l185 -93l-33 -52l-188 86zM24 0l345 692h149l14 -692h-76l-6 177h-259l-89 -177h-78zM414 624l-191 -380h228l-7 380h-30zM457 756q-115 0 -115 97q0 14 3 30h66q-2 -10 -2 -25.5t13.5 -28.5t46 -13t58 18.5t34.5 48.5h66q-37 -127 -170 -127z" />
    <glyph glyph-name="uni1EC5" unicode="&#x1ec5;" horiz-adv-x="462" 
d="M486 738q-21 0 -68 24t-58 24q-21 0 -67 -32l-15 -11l-3 56q62 53 99 53q24 0 69.5 -24t55.5 -24q19 0 61 30l15 11l5 -56q-57 -51 -94 -51zM192 79.5q26 -23.5 64 -23.5q71 0 146 16l25 6l-6 -59q-89 -29 -171 -29q-159 0 -159 152q0 139 63 248q32 54 85.5 87t120.5 33
q148 0 148 -122q0 -89 -67 -124.5t-213 -35.5h-51q-11 -39 -11 -82t26 -66.5zM242 287q102 0 147 21.5t45 78.5q0 60 -77 60q-123 0 -170 -160h55zM233 557l155 151h40l87 -151h-69l-48 86l-89 -86h-76z" />
    <glyph glyph-name="uni1ED7" unicode="&#x1ed7;" horiz-adv-x="494" 
d="M343 510q173 0 173 -170q0 -93 -29.5 -172t-88.5 -128.5t-136 -49.5q-171 0 -171 164q0 144 71.5 250t180.5 106zM262 55q80 0 129.5 84.5t49.5 201.5q0 48 -24.5 76t-73.5 28q-78 0 -127.5 -87.5t-49.5 -204.5q0 -98 96 -98zM491 738q-21 0 -68 24t-59 24q-20 0 -66 -32
l-15 -11l-3 56q62 53 99 53q24 0 69.5 -24t55.5 -24q19 0 62 30l14 11l5 -56q-57 -51 -94 -51zM232 557l155 151h40l87 -151h-69l-48 86l-89 -86h-76z" />
    <glyph glyph-name="Ygrave" unicode="&#x1ef2;" horiz-adv-x="493" 
d="M341 930l185 -94l-34 -56l-188 86zM641 692l-293 -396l-69 -296h-73l70 302l-106 390h78l81 -323l229 323h83z" />
    <glyph glyph-name="ygrave" unicode="&#x1ef3;" horiz-adv-x="454" 
d="M252 741l185 -93l-33 -52l-188 86zM139 500h74l8 -436h30l218 436h77l-365 -721h-76l115 221h-68z" />
    <glyph glyph-name="uni1EF8" unicode="&#x1ef8;" horiz-adv-x="493" 
d="M501 810q-21 0 -68 24t-59 24q-20 0 -66 -32l-15 -11l-3 56q62 53 99 53q24 0 69.5 -24t55.5 -24q19 0 62 30l14 11l5 -56q-57 -51 -94 -51zM641 692l-293 -396l-69 -296h-73l70 302l-106 390h78l81 -323l229 323h83z" />
    <glyph glyph-name="uni1EF9" unicode="&#x1ef9;" horiz-adv-x="454" 
d="M440 614q-21 0 -68 24t-58 24q-21 0 -67 -32l-15 -11l-3 56q62 53 99 53q24 0 69.5 -24t55.5 -24q19 0 61 30l15 11l5 -56q-57 -51 -94 -51zM139 500h74l8 -436h30l218 436h77l-365 -721h-76l115 221h-68z" />
    <glyph glyph-name="endash" unicode="&#x2013;" horiz-adv-x="594" 
d="M109 301h500v-66h-500v66z" />
    <glyph glyph-name="emdash" unicode="&#x2014;" horiz-adv-x="1094" 
d="M109 301h1000v-66h-1000v66z" />
    <glyph glyph-name="quoteleft" unicode="&#x2018;" horiz-adv-x="181" 
d="M252 691h56l-91 -223h-76z" />
    <glyph glyph-name="quoteright" unicode="&#x2019;" horiz-adv-x="181" 
d="M199 469h-56l91 223h76z" />
    <glyph glyph-name="quotesinglbase" unicode="&#x201a;" horiz-adv-x="172" 
d="M42 -134h-56l91 223h76z" />
    <glyph glyph-name="quotedblleft" unicode="&#x201c;" horiz-adv-x="338" 
d="M251 692h56l-91 -223h-76zM409 692h56l-91 -223h-76z" />
    <glyph glyph-name="quotedblright" unicode="&#x201d;" horiz-adv-x="339" 
d="M199 469h-56l91 223h76zM357 469h-56l91 223h76z" />
    <glyph glyph-name="quotedblbase" unicode="&#x201e;" horiz-adv-x="325" 
d="M248 88h56l-91 -223h-76zM82 88h56l-91 -223h-76z" />
    <glyph glyph-name="dagger" unicode="&#x2020;" horiz-adv-x="444" 
d="M126 421l17 77l158 -2l45 190h70l-44 -188h158l-17 -77l-159 1l-118 -497h-69l116 496h-157z" />
    <glyph glyph-name="daggerdbl" unicode="&#x2021;" horiz-adv-x="481" 
d="M187 -75l44 188h-159l17 76l159 -1l55 233h-157l17 77l158 -2l45 190h70l-44 -188h158l-18 -77l-158 1l-55 -233h158l-18 -76l-158 1l-45 -189h-69z" />
    <glyph glyph-name="bullet" unicode="&#x2022;" horiz-adv-x="485" 
d="M175 106v286h250v-286h-250z" />
    <glyph glyph-name="ellipsis" unicode="&#x2026;" horiz-adv-x="640" 
d="M47 0l26 111h76l-26 -111h-76zM283 0l26 111h76l-26 -111h-76zM518 0l26 111h76l-26 -111h-76z" />
    <glyph glyph-name="perthousand" unicode="&#x2030;" horiz-adv-x="816" 
d="M249 473q28 0 44.5 21.5t26.5 59.5t10 57q0 39 -37 39q-48 0 -69 -79q-9 -36 -9 -56q0 -42 34 -42zM156 4l363 705l51 -14l-363 -704zM162 563q34 138 144 138q84 0 84 -81q0 -24 -8 -57q-17 -71 -55.5 -106.5t-90 -35.5t-72.5 35q-10 19 -10 46.5t8 60.5zM485 280
q84 0 84 -81q0 -25 -8 -58q-18 -70 -55.5 -105.5t-89.5 -35.5t-72 36q-11 18 -11 45.5t8 60.5q35 138 144 138zM508 189q0 39 -35 39q-27 0 -43.5 -20.5t-25.5 -57.5t-9 -57q0 -42 33 -42q50 0 73 90q7 28 7 48zM743 280q84 0 84 -81q0 -25 -8 -58q-18 -70 -55.5 -105.5
t-89.5 -35.5t-72 36q-11 18 -11 45.5t8 60.5q35 138 144 138zM766 189q0 39 -36 39q-26 0 -42.5 -20.5t-26 -57.5t-9.5 -56q0 -43 34 -43q27 0 43.5 22t26.5 59.5t10 56.5z" />
    <glyph glyph-name="guilsinglleft" unicode="&#x2039;" horiz-adv-x="256" 
d="M307 409l-22 -77l-131 -87l88 -96l-20 -69l-142 149l14 38z" />
    <glyph glyph-name="guilsinglright" unicode="&#x203a;" horiz-adv-x="257" 
d="M63 80l22 77l131 87l-88 96l20 69l142 -149l-14 -38z" />
    <glyph glyph-name="fraction" unicode="&#x2044;" horiz-adv-x="21" 
d="M-84 -25l-70 25l427 692l70 -26z" />
    <glyph glyph-name="zerosuperior" unicode="&#x2070;" horiz-adv-x="280" 
d="M327 800q89 0 89 -88q0 -32 -11 -78q-26 -105 -75 -142q-30 -24 -87.5 -24t-76.5 36q-9 18 -9 50t10 80q26 104 75 142q32 24 85 24zM349 700q0 41 -37 41q-28 0 -46 -24t-30.5 -75.5t-12.5 -75.5q0 -39 36 -39q28 0 46 22.5t31 74.5t13 76z" />
    <glyph glyph-name="foursuperior" unicode="&#x2074;" horiz-adv-x="280" 
d="M275 478l11 48h-141l13 55l122 209h72l-124 -205h73l28 88h58l-23 -88h27l-14 -59h-27l-12 -48h-63z" />
    <glyph glyph-name="fivesuperior" unicode="&#x2075;" horiz-adv-x="280" 
d="M319 594q0 27 -29 27t-59 -15l-48 6l54 178h187l-14 -57h-133l-24 -71q29 15 66.5 15t57.5 -24q12 -15 12 -35t-5 -40q-28 -108 -135 -108q-46 0 -89 10l-15 3l19 55q52 -11 96 -11t56 49q3 10 3 18z" />
    <glyph glyph-name="sixsuperior" unicode="&#x2076;" horiz-adv-x="280" 
d="M411 736q-49 6 -81.5 6t-51.5 -17t-29 -56q40 14 63 14q82 0 82 -66q0 -16 -5 -37q-29 -112 -139 -112q-87 0 -87 90q0 31 10 72q22 90 62 130t106 40q33 0 73 -8l14 -2zM326 601q0 27 -30 27t-62 -16q-5 -25 -5 -42q0 -45 34 -45q46 0 60 54q3 13 3 22z" />
    <glyph glyph-name="sevensuperior" unicode="&#x2077;" horiz-adv-x="280" 
d="M199 728l15 62h208l-19 -77l-166 -244l-72 15l161 223l5 21h-132z" />
    <glyph glyph-name="eightsuperior" unicode="&#x2078;" horiz-adv-x="280" 
d="M245 468q-100 0 -100 66q0 13 4 29q16 60 70 79q-31 12 -31 47q0 11 4 26q22 85 136 85q96 0 96 -62q0 -10 -3 -23q-16 -62 -63 -74q35 -12 35 -48q0 -12 -4 -26q-14 -55 -49.5 -77t-94.5 -22zM215 551q0 -28 47.5 -28t60.5 44q1 6 1 12q0 24 -29 34h-27q-42 -12 -51 -49
q-2 -7 -2 -13zM356 720q0 25 -45.5 25t-54.5 -36q-2 -6 -2 -12q0 -22 26 -32h28q38 12 46 43q2 7 2 12z" />
    <glyph glyph-name="ninesuperior" unicode="&#x2079;" horiz-adv-x="280" 
d="M243 527q62 0 81 71l-14 -4t-15 -4q-16 -4 -36 -4q-48 0 -67 28q-12 16 -12 36t5 40q13 53 49.5 81.5t89.5 28.5q87 0 87 -92q0 -32 -11 -75q-23 -90 -60.5 -127.5t-105.5 -37.5q-37 0 -76 9l-13 3l17 53q44 -6 81 -6zM248 675q0 -36 34 -36q22 0 48 11l10 4q6 26 6 44
q0 44 -35 44q-47 0 -61 -51q-2 -9 -2 -16z" />
    <glyph glyph-name="zeroinferior" unicode="&#x2080;" horiz-adv-x="280" 
d="M218 322q89 0 89 -88q0 -32 -11 -78q-26 -105 -75 -142q-30 -24 -87.5 -24t-76.5 36q-9 18 -9 50t10 80q26 104 75 142q32 24 85 24zM240 222q0 41 -37 41q-28 0 -46 -24t-30.5 -75.5t-12.5 -75.5q0 -39 36 -39q28 0 46 22.5t31 74.5t13 76z" />
    <glyph glyph-name="oneinferior" unicode="&#x2081;" horiz-adv-x="280" 
d="M82 142l119 70h60l-77 -312h-64l60 242l-80 -47z" />
    <glyph glyph-name="twoinferior" unicode="&#x2082;" horiz-adv-x="280" 
d="M195 222q82 0 82 -58q0 -77 -95 -146l-76 -60h127l-14 -58h-210l14 56l110 86q62 49 71 83q5 19 -6 27.5t-34 8.5l-87 -10l12 59q63 12 106 12z" />
    <glyph glyph-name="threeinferior" unicode="&#x2083;" horiz-adv-x="280" 
d="M277 164q0 -62 -62 -101q23 -8 28 -18.5t5 -23.5t-4 -34q-25 -97 -132 -97q-44 0 -94 8l-16 2l18 56q56 -7 102 -7t56 41q2 9 2 15q0 27 -37 27h-66l13 54h65q14 0 29.5 13t20 30.5t-4.5 25.5t-33 8l-93 -7l10 56q62 10 105 10q88 0 88 -58z" />
    <glyph glyph-name="fourinferior" unicode="&#x2084;" horiz-adv-x="280" 
d="M148 -100l11 48h-141l13 55l122 209h72l-124 -205h73l28 88h58l-23 -88h27l-14 -59h-27l-12 -48h-63z" />
    <glyph glyph-name="fiveinferior" unicode="&#x2085;" horiz-adv-x="280" 
d="M179 16q0 27 -29 27t-59 -15l-48 6l54 178h187l-14 -57h-133l-24 -71q29 15 66.5 15t57.5 -24q12 -15 12 -35t-5 -40q-28 -108 -135 -108q-46 0 -89 10l-15 3l19 55q52 -11 96 -11t56 49q3 10 3 18z" />
    <glyph glyph-name="sixinferior" unicode="&#x2086;" horiz-adv-x="280" 
d="M276 158q-49 6 -81.5 6t-51.5 -17t-29 -56q40 14 63 14q82 0 82 -66q0 -16 -5 -37q-29 -112 -139 -112q-87 0 -87 90q0 31 10 72q22 90 62 130t106 40q33 0 74 -8l13 -2zM191 23q0 27 -29 27q-31 0 -63 -16q-5 -25 -5 -42q0 -45 34 -45q46 0 60 54q3 13 3 22z" />
    <glyph glyph-name="seveninferior" unicode="&#x2087;" horiz-adv-x="280" 
d="M70 150l15 62h208l-19 -77l-166 -244l-72 15l161 223l5 21h-132z" />
    <glyph glyph-name="eightinferior" unicode="&#x2088;" horiz-adv-x="280" 
d="M112 -110q-100 0 -100 66q0 13 4 29q16 60 70 79q-31 12 -31 47q0 11 4 26q22 85 136 85q96 0 96 -62q0 -10 -3 -23q-16 -62 -63 -74q35 -12 35 -48q0 -12 -4 -26q-14 -55 -49.5 -77t-94.5 -22zM82 -27q0 -28 47.5 -28t60.5 44q1 6 1 12q0 24 -29 34h-27q-42 -12 -51 -49
q-2 -7 -2 -13zM223 142q0 25 -45.5 25t-54.5 -36q-2 -6 -2 -12q0 -22 26 -32h28q38 12 46 43q2 7 2 12z" />
    <glyph glyph-name="nineinferior" unicode="&#x2089;" horiz-adv-x="280" 
d="M109 -51q62 0 81 71l-14 -4t-15 -4q-16 -4 -36 -4q-48 0 -67 28q-12 16 -12 36t5 40q13 53 49.5 81.5t89.5 28.5q87 0 87 -92q0 -32 -11 -75q-23 -90 -60.5 -127.5t-105.5 -37.5q-37 0 -76 9l-13 3l17 53q44 -6 81 -6zM114 97q0 -36 34 -36q22 0 48 11l10 4q6 26 6 44
q0 44 -35 44q-47 0 -61 -51q-2 -9 -2 -16z" />
    <glyph glyph-name="Euro" unicode="&#x20ac;" 
d="M336 -10q-184 0 -184 190v29h-52l14 62h44q6 48 22 105h-42l15 61h47q42 105 113.5 169.5t171.5 64.5q67 0 136 -17l23 -5l-16 -58q-74 15 -143 15t-120.5 -46t-85.5 -123h268l-14 -61h-276q-14 -44 -23 -105h275l-14 -62h-267v-26q0 -128 118 -128q63 0 134 13l22 4
l-5 -61q-85 -21 -161 -21z" />
    <glyph glyph-name="trademark" unicode="&#x2122;" horiz-adv-x="699" 
d="M219 580v50h200v-50h-66v-248h-55v248h-79zM450 331v299h71l67 -208l70 208h71v-299h-52v224l-67 -209h-43l-65 209v-224h-52z" />
    <glyph glyph-name="Omega" unicode="&#x2126;" 
d="M99 57h121q-12 20 -30 53.5t-48 118t-30 147.5q0 154 48 224.5t173 70.5t173.5 -70.5t48.5 -224.5q0 -63 -27.5 -142.5t-54.5 -127.5l-27 -49h122v-66h-197v57q36 67 70 163t34 145q0 135 -27 190.5t-115 55.5q-71 0 -103 -38q-38 -44 -38 -208q0 -49 26 -126t52 -130
l25 -52v-57h-196v66z" />
    <glyph glyph-name="partialdiff" unicode="&#x2202;" 
d="M348 728q122 0 178.5 -87t56.5 -278t-55 -281.5t-176 -90.5q-223 0 -223 224q0 100 56 157.5t154 57.5q72 0 141 -22l23 -8q-4 141 -41.5 201.5t-125.5 60.5q-32 0 -71.5 -11t-62.5 -23l-24 -11l-4 61q30 18 82 34t92 16zM504 334q-80 30 -152 30t-108 -41t-36 -113
t36.5 -112.5t111 -40.5t110.5 67.5t38 209.5z" />
    <glyph glyph-name="Delta" unicode="&#x2206;" 
d="M538 0h-453v57l159 603h135l159 -604v-56zM324 595h-26l-136 -529h298z" />
    <glyph glyph-name="product" unicode="&#x220f;" 
d="M484 -163v849h-206v-849h-77v849h-69v68h500v-68h-71v-849h-77z" />
    <glyph glyph-name="summation" unicode="&#x2211;" 
d="M112 753h470v-68h-389v-22l256 -329v-55l-256 -348v-25h389v-69h-470v101l267 370l-267 346v99z" />
    <glyph glyph-name="minus" unicode="&#x2212;" 
d="M124 217v68h427v-68h-427z" />
    <glyph glyph-name="radical" unicode="&#x221a;" 
d="M114 378v68h122l128 -517h10l227 848h77l-249 -913h-122l-134 514h-59z" />
    <glyph glyph-name="infinity" unicode="&#x221e;" 
d="M222 121q-125 0 -125 171q0 83 31 127t92 44q45 0 74.5 -26t52.5 -80q23 54 52 80t75 26q61 0 92 -44t31 -127q0 -171 -125 -171q-44 0 -73 25.5t-52 78.5q-23 -59 -50 -81.5t-75 -22.5zM229 396q-60 0 -60 -104t60 -104q33 0 48 18t26.5 45.5t12 29t1.5 3.5t1.5 4t1.5 4
q-25 61 -41 80q-17 18 -28 21t-22 3zM465 188q60 0 60 104t-60 104q-23 0 -34 -9.5t-16 -15t-12 -18t-10 -18.5q-9 -18 -19 -43q25 -61 41 -80q17 -18 28 -21t22 -3z" />
    <glyph glyph-name="integral" unicode="&#x222b;" 
d="M385 -6q0 -100 -33.5 -140.5t-101.5 -40.5l-88 8l2 64q39 -4 75.5 -4t53 25t16.5 89v581q0 113 32.5 158.5t103.5 45.5q43 0 79 -6l13 -3l-3 -64q-37 5 -75 5t-56 -30.5t-18 -106.5v-581z" />
    <glyph glyph-name="approxequal" unicode="&#x2248;" 
d="M435 270q-27 0 -103 31t-95 31t-45.5 -12t-43.5 -24l-17 -11l-10 62q62 53 117 53q29 0 104 -30.5t94 -30.5q35 0 88 35l17 11l10 -61q-63 -54 -116 -54zM435 85q-27 0 -103 31t-95 31t-45.5 -11.5t-43.5 -23.5l-17 -12l-10 62q62 53 117 53q29 0 104 -30.5t94 -30.5
q35 0 88 34l17 12l10 -61q-63 -54 -116 -54z" />
    <glyph glyph-name="notequal" unicode="&#x2260;" 
d="M121 309v69h228l68 155l61 -24l-58 -131h133v-69h-163l-51 -116h214v-69h-244l-66 -152l-60 24l56 128h-118v69h148l50 116h-198z" />
    <glyph glyph-name="lessequal" unicode="&#x2264;" 
d="M535 422l-335 -102l335 -110v-76l-422 150v68l422 145v-75zM113 22v68h422v-68h-422z" />
    <glyph glyph-name="greaterequal" unicode="&#x2265;" 
d="M462 320l-335 102v75l422 -145v-68l-422 -150v76zM549 90v-68h-422v68h422z" />
    <glyph glyph-name="lozenge" unicode="&#x25ca;" 
d="M503 329l-100 67h10l168 -67l-168 -65h-9zM129 329l168 67h9l-99 -67l98 -65h-8zM366 239h-23l-38 25h99zM306 396l37 25h23l37 -25h-97z" />
    <glyph glyph-name="dotlessj" unicode="&#xf6be;" horiz-adv-x="207" 
d="M66 0l115 500h75l-116 -500q-25 -111 -56 -146.5t-147 -88.5l-24 60q89 46 112 72t41 103z" />
    <glyph glyph-name="commaaccent" unicode="&#xf6c3;" horiz-adv-x="161" 
d="M-45 -283l87 210h70l-96 -210h-61z" />
    <glyph glyph-name="questiondown.cap" horiz-adv-x="392" 
d="M60 129q0 71 32 114.5t132 120.5q69 53 78 101l8 39h71q-1 -33 -7 -62q-11 -61 -101 -130q-80 -63 -106.5 -96.5t-26.5 -81.5q0 -68 101 -68q54 0 121 14l23 4l-6 -61q-88 -25 -154 -25q-165 0 -165 131zM423 699l-25 -116h-77l26 116h76z" />
    <glyph glyph-name="endash.cap" horiz-adv-x="594" 
d="M115 331h500v-66h-500v66z" />
    <glyph glyph-name="emdash.cap" horiz-adv-x="1094" 
d="M115 331h1000v-66h-1000v66z" />
    <glyph glyph-name="periodcentered.cap" horiz-adv-x="170" 
d="M111 279l26 117h77l-26 -117h-77z" />
    <glyph glyph-name="exclamdown.cap" horiz-adv-x="189" 
d="M237 462l-106 -470h-77l116 470h67zM290 692l-25 -111h-76l25 111h76z" />
    <glyph glyph-name="parenleft.cap" horiz-adv-x="226" 
d="M189 326q-24 -98 -24 -172q0 -143 11 -220l4 -28h-71q-21 87 -21 207.5t23.5 219.5t56.5 175q69 158 122 236l24 34h71q-79 -123 -143 -282q-29 -72 -53 -170z" />
    <glyph glyph-name="parenright.cap" horiz-adv-x="228" 
d="M198 364q24 98 24 172q0 128 -12 220l-3 28h71q21 -87 21 -207.5t-23.5 -219.5t-56.5 -175q-69 -158 -123 -236l-23 -34h-71q79 123 143 282q29 72 53 170z" />
    <glyph glyph-name="bracketleft.cap" horiz-adv-x="276" 
d="M235 777h195l-15 -65h-119l-173 -739h119l-17 -65h-193z" />
    <glyph glyph-name="bracketright.cap" horiz-adv-x="275" 
d="M199 -91h-195l15 65h119l173 739h-119l17 65h193z" />
    <glyph glyph-name="braceleft.cap" horiz-adv-x="313" 
d="M237 252q0 -18 -24 -101t-24 -111q0 -69 89 -69l-19 -68q-144 3 -144 115q0 31 23.5 115t23.5 107q0 48 -72 75l14 59q65 17 87.5 41t33.5 74q3 13 9 45q15 83 20 95q25 80 73.5 115t139.5 39l-12 -68q-64 -4 -94.5 -31.5t-43.5 -83.5q-1 -6 -10.5 -57.5t-11.5 -62.5
q-14 -62 -40.5 -91t-80.5 -47q63 -29 63 -90z" />
    <glyph glyph-name="braceright.cap" horiz-adv-x="313" 
d="M234 431q0 19 24 102t24 110q0 69 -89 69l19 68q144 -3 144 -115q0 -31 -23.5 -115t-23.5 -108q0 -47 72 -74l-14 -59q-65 -17 -87.5 -41t-33.5 -74q-3 -13 -9 -46q-15 -82 -20 -94q-25 -80 -73.5 -115t-139.5 -39l12 68q64 4 94.5 31.5t43.5 83.5q1 6 10.5 57.5
t11.5 62.5q14 62 40.5 91t80.5 47q-63 29 -63 90z" />
    </font>
</defs>
</svg>
