<?xml version="1.0" standalone="no"?>
<!DOCTYPE svg PUBLIC "-//W3C//DTD SVG 1.1//EN" "http://www.w3.org/Graphics/SVG/1.1/DTD/svg11.dtd" >
<svg xmlns="http://www.w3.org/2000/svg" xmlns:xlink="http://www.w3.org/1999/xlink" version="1.1">
<metadata>
Created by FontForge 20170731 at Fri May  5 14:19:03 2017
 By Aleksey,,,
Copyright (c) 2009-2011 by Accademia di Belle Arti di Urbino and students of MA course of Visual design. Some rights reserved.
</metadata>
<defs>
<font id="TitilliumWeb-ExtraLightItalic" horiz-adv-x="560" >
  <font-face 
    font-family="Titillium Web ExtraLight"
    font-weight="275"
    font-style="italic"
    font-stretch="normal"
    units-per-em="1000"
    panose-1="0 0 3 0 0 0 0 0 0 0"
    ascent="800"
    descent="-200"
    x-height="500"
    cap-height="700"
    bbox="-152 -265 1138 1051"
    underline-thickness="30"
    underline-position="-130"
    slope="-13"
    unicode-range="U+0020-F6C3"
  />
<missing-glyph horiz-adv-x="223" 
 />
    <glyph glyph-name=".notdef" horiz-adv-x="223" 
 />
    <glyph glyph-name=".null" horiz-adv-x="0" 
 />
    <glyph glyph-name="nonmarkingreturn" horiz-adv-x="333" 
 />
    <glyph glyph-name="space" unicode=" " horiz-adv-x="220" 
 />
    <glyph glyph-name="exclam" unicode="!" horiz-adv-x="207" 
d="M135 211l113 489h33l-118 -489h-28zM89 0l19 83h36l-19 -83h-36z" />
    <glyph glyph-name="quotedbl" unicode="&#x22;" horiz-adv-x="317" 
d="M356 486h-33l48 212h35zM217 486h-33l48 212h35z" />
    <glyph glyph-name="numbersign" unicode="#" 
d="M571 190h-120l-46 -190h-36l46 190h-188l-46 -190h-36l46 190h-120l8 32h120l56 226h-120l8 32h120l48 190h36l-48 -190h188l48 190h36l-48 -190h120l-8 -32h-120l-56 -226h120zM423 222l56 226h-188l-56 -226h188z" />
    <glyph glyph-name="dollar" unicode="$" 
d="M442 670l18 -1l43 121h33l-44 -123q52 -4 97 -13l15 -3l-6 -29q-60 10 -117 15l-101 -281q72 -22 103 -49t31 -87q0 -105 -62 -167t-167 -62q-24 0 -36 1l-40 -112h-31l40 114l-118 14l6 31q62 -9 124 -14l110 308q-71 21 -102.5 48t-31.5 84q0 101 63.5 153t172.5 52z
M478 219q0 47 -22.5 67.5t-86.5 38.5l-109 -302h31q88 0 137.5 53t49.5 143zM241 465q0 -42 24.5 -61.5t85.5 -38.5l98 274h-14q-91 0 -142.5 -44t-51.5 -130z" />
    <glyph glyph-name="percent" unicode="%" 
d="M351 620q0 50 -50 50q-36 0 -58.5 -25t-33 -65.5t-10.5 -62.5q0 -55 50 -55q36 0 58.5 26.5t33 68t10.5 63.5zM186 6l317 695l32 -5l-317 -695zM309 702q77 0 77 -76q0 -25 -8 -58q-17 -69 -53.5 -103.5t-84 -34.5t-66.5 34q-10 19 -10 45.5t8 59.5q34 133 137 133z
M482 272q78 0 78 -76q0 -25 -8 -58q-17 -69 -53.5 -103.5t-84 -34.5t-66.5 34q-10 19 -10 45.5t8 59.5q34 133 136 133zM525 189q0 51 -51 51q-36 0 -58 -24.5t-32 -65.5t-10 -62q0 -56 48 -56q68 0 95 106q8 30 8 51z" />
    <glyph glyph-name="ampersand" unicode="&#x26;" horiz-adv-x="631" 
d="M451 709q121 0 121 -104q0 -157 -210 -234l134 -186q42 73 66 144h38q-28 -89 -80 -173l103 -135l-25 -24l-99 128q-101 -134 -239 -134q-89 0 -133 35.5t-44 115.5q0 106 48.5 167.5t163.5 103.5q-24 52 -24 94q0 92 47.5 147t132.5 55zM260 25q129 0 216 129l-164 229
q-105 -37 -148 -93t-43 -148q0 -117 139 -117zM344.5 629.5q-35.5 -47.5 -35.5 -113t36 -117.5q99 38 144 87t45 120t-86 71q-68 0 -103.5 -47.5z" />
    <glyph glyph-name="quotesingle" unicode="'" horiz-adv-x="178" 
d="M217 486h-33l48 212h35z" />
    <glyph glyph-name="parenleft" unicode="(" horiz-adv-x="223" 
d="M160 288.5q-24 -100.5 -24 -175.5q0 -139 10 -213l4 -24h-33q-16 79 -16 198t22.5 220t54.5 178q67 160 120 242l23 34h35q-34 -52 -74 -132t-69 -153.5t-53 -174z" />
    <glyph glyph-name="parenright" unicode=")" horiz-adv-x="222" 
d="M207 341.5q24 100.5 24 175.5q0 139 -11 213l-3 24h33q16 -79 16 -198t-22.5 -220t-55.5 -178q-66 -160 -120 -242l-22 -34h-35q34 52 74 132t69 153.5t53 174z" />
    <glyph glyph-name="asterisk" unicode="*" horiz-adv-x="407" 
d="M480 519h-137l42 -129l-32 -10l-42 130l-110 -79l-19 27l110 80l-109 80l20 27l110 -81l42 129l32 -10l-42 -130h135v-34z" />
    <glyph glyph-name="plus" unicode="+" 
d="M117 234v34h202v212h36v-212h204v-34h-204v-214h-36v214h-202z" />
    <glyph glyph-name="comma" unicode="," horiz-adv-x="189" 
d="M43 -129h-28l86 212h40z" />
    <glyph glyph-name="hyphen" unicode="-" horiz-adv-x="383" 
d="M128 252l8 35h244l-9 -35h-243z" />
    <glyph glyph-name="period" unicode="." horiz-adv-x="179" 
d="M72 0l19 83h36l-19 -83h-36z" />
    <glyph glyph-name="slash" unicode="/" horiz-adv-x="386" 
d="M78 -1l-33 13l425 688l33 -14z" />
    <glyph glyph-name="zero" unicode="0" 
d="M278.5 621.5q61.5 48.5 145.5 48.5t133 -47t49 -138q0 -118 -34.5 -228.5t-108.5 -188t-166.5 -77.5t-141.5 45.5t-49 130.5t19.5 169.5t55.5 160.5t97.5 124.5zM530 598q-40 39 -110.5 39t-125.5 -46.5t-87 -118.5q-65 -148 -65 -299q0 -75 40 -112t108 -37t122.5 43
t87.5 111q70 143 70 307q0 74 -40 113z" />
    <glyph glyph-name="one" unicode="1" 
d="M256 533l229 128h32l-151 -661h-36l140 614l-206 -113z" />
    <glyph glyph-name="two" unicode="2" 
d="M562 530q0 108 -144 108q-78 0 -166 -18l-31 -7l2 31q103 27 195 27q180 0 180 -141q0 -70 -49 -132.5t-141 -136.5l-280 -228h371l-8 -33h-421l7 30l294 243q94 77 142.5 136t48.5 121z" />
    <glyph glyph-name="three" unicode="3" 
d="M424 670q165 0 165 -131q0 -69 -42 -117t-104 -69q90 -34 90 -138t-75 -164t-185 -60q-42 0 -90.5 8t-75.5 17l-27 8l9 32q104 -32 191.5 -32t152 52t64.5 136q0 56 -33.5 88.5t-102.5 32.5h-131l9 33h130q62 0 123 48t61 118q0 56 -31.5 80.5t-87.5 24.5q-98 0 -182 -17
l-28 -5l3 32q100 23 197 23z" />
    <glyph glyph-name="four" unicode="4" 
d="M384 0l30 132h-332l7 29l340 499h41l-341 -495h293l55 240h36l-55 -240h92l-8 -33h-92l-30 -132h-36z" />
    <glyph glyph-name="five" unicode="5" 
d="M384 411q169 0 169 -136q0 -117 -82 -199.5t-199 -82.5q-80 0 -167 21l-29 7l10 32q109 -27 190 -27q100 0 170.5 72.5t70.5 176.5q0 50 -36 76.5t-103 26.5q-37 0 -84.5 -14t-76.5 -28l-29 -13l-33 4l102 333h366l-8 -33h-334l-83 -266q104 50 186 50z" />
    <glyph glyph-name="six" unicode="6" 
d="M619 620q-82 17 -145.5 17t-106.5 -18.5t-72.5 -47t-54.5 -67.5q-40 -64 -62 -146q101 48 198 48t140.5 -40t43.5 -110q0 -119 -70.5 -192t-192.5 -73q-86 0 -131 57.5t-45 164.5q0 122 51 237q28 62 67 110.5t99 79t131 30.5q66 0 137 -14l22 -5zM377 373
q-42 0 -94 -12.5t-83 -24.5l-31 -13q-11 -33 -11 -110q0 -189 138 -189q109 0 168.5 63t59.5 155q0 66 -33.5 98.5t-113.5 32.5z" />
    <glyph glyph-name="seven" unicode="7" 
d="M229 626l8 34h389l-18 -75l-410 -594l-32 14l406 587l8 34h-351z" />
    <glyph glyph-name="eight" unicode="8" 
d="M440 670q199 0 199 -133q0 -59 -48.5 -115t-134.5 -74q65 -20 88.5 -51t23.5 -77q0 -19 -3.5 -40.5t-21.5 -57.5t-47 -63t-88 -47.5t-138 -20.5q-204 0 -204 127q0 91 51 145t137 85q-52 20 -72 47t-20 68.5t14.5 75t45 64t87 49t131.5 18.5zM150 50q45 -26 114.5 -26
t114 13.5t72 34t46.5 46.5q34 45 34 96t-29.5 74.5t-97.5 41.5h-109q-79 -21 -134.5 -71t-55.5 -137q0 -46 45 -72zM431 637q-124 0 -178.5 -49.5t-54.5 -119.5q0 -75 105 -106h109q38 7 77 24t75 56t36 92t-39.5 78t-129.5 25z" />
    <glyph glyph-name="nine" unicode="9" 
d="M433 670q162 0 162 -185q0 -69 -24 -161q-45 -180 -127.5 -256.5t-201.5 -76.5q-70 0 -140 15l-24 6l14 32q82 -19 159 -19q206 0 277 273q-132 -42 -219.5 -42t-128.5 50q-27 32 -27 84q0 30 9 67q25 98 101 155.5t170 57.5zM329 290q62 0 173 32l36 11q20 84 20 145
q0 158 -134 158q-80 0 -141.5 -48t-82.5 -131q-8 -32 -8 -66t21 -59q34 -42 116 -42z" />
    <glyph glyph-name="colon" unicode=":" horiz-adv-x="179" 
d="M152 352l19 83h36l-19 -83h-36zM72 0l19 83h36l-19 -83h-36z" />
    <glyph glyph-name="semicolon" unicode=";" horiz-adv-x="218" 
d="M32 -129l86 212h40l-98 -212h-28zM174 352l19 83h36l-19 -83h-36z" />
    <glyph glyph-name="less" unicode="&#x3c;" 
d="M525 446l-391 -195l391 -195v-41l-424 218v36l424 216v-39z" />
    <glyph glyph-name="equal" unicode="=" 
d="M126 318v34h424v-34h-424zM126 149v34h424v-34h-424z" />
    <glyph glyph-name="greater" unicode="&#x3e;" 
d="M539 251l-391 195v39l424 -216v-36l-424 -218v41z" />
    <glyph glyph-name="question" unicode="?" horiz-adv-x="403" 
d="M450.5 681.5q41.5 -27.5 41.5 -83t-17 -92t-48 -67t-108 -93.5t-88 -119l-8 -39h-34q2 22 6 43q14 70 107 145t122.5 115.5t29.5 103.5q0 80 -120 80q-47 0 -120 -17l-25 -5v32q87 24 153.5 24t108 -27.5zM155 1l17 82h37l-18 -82h-36z" />
    <glyph glyph-name="at" unicode="@" horiz-adv-x="916" 
d="M641 717q90 0 154.5 -22t99.5 -59q63 -67 63 -187q0 -63 -19.5 -148.5t-41 -143t-41 -90t-46 -50t-48.5 -22.5t-54 -5q-85 0 -88 64q-126 -63 -192 -63q-82 0 -103 57q-10 28 -10 47.5v36.5q1 21 9 66q54 311 255 311q62 0 162 -20q-87 -341 -87 -417q0 -31 13.5 -39.5
t43 -8.5t47.5 5t38.5 21.5t37.5 47.5q37 66 70 209q19 83 19 132t-12 94t-43 77q-70 72 -235 72q-199 0 -310.5 -95t-168.5 -326q-24 -100 -24 -154.5t10.5 -102t43.5 -84.5q73 -82 249 -82l136 10l-5 -36q-94 -9 -154 -9t-118.5 15t-95 39.5t-60.5 61.5q-44 67 -44 169
q0 75 23 173q58 249 180 352.5t346 103.5zM574 477q-88 0 -137 -69t-78 -211q-8 -41 -8 -72q0 -98 84 -98q69 0 185 61q2 25 29 150.5t51 223.5q-60 15 -126 15z" />
    <glyph glyph-name="A" unicode="A" horiz-adv-x="556" 
d="M32 0l371 700h89l38 -700h-36l-12 216h-299l-114 -216h-37zM423 667l-222 -419h279l-21 419h-36z" />
    <glyph glyph-name="B" unicode="B" horiz-adv-x="580" 
d="M462 700q81 0 119.5 -29t38.5 -103.5t-41 -130t-100 -74.5q96 -25 96 -120q0 -115 -68.5 -179t-193.5 -64h-227l161 700h215zM388 343h-187l-71 -310h191q103 0 159.5 56t56.5 153q0 57 -39.5 79t-109.5 22zM455 667h-180l-67 -291h188q83 0 135 56.5t52 138.5
q0 55 -29.5 75.5t-98.5 20.5z" />
    <glyph glyph-name="C" unicode="C" horiz-adv-x="510" 
d="M306 -9q-185 0 -185 199q0 143 55 275q62 150 166 211q59 33 127 33q74 0 139 -14l24 -5l-8 -32q-87 17 -159.5 17t-133 -47.5t-97.5 -121.5q-75 -153 -75 -316q0 -85 36.5 -125t115.5 -40q76 0 140 14l23 5l-1 -33q-87 -20 -167 -20z" />
    <glyph glyph-name="D" unicode="D" horiz-adv-x="608" 
d="M323 0h-237l162 700h228q91 0 130.5 -50t39.5 -142t-20 -176t-57.5 -159.5t-102 -124t-143.5 -48.5zM589.5 344q18.5 79 18.5 160t-31.5 122t-107.5 41h-193l-145 -634h201q64 0 118 45.5t87.5 116t52 149.5z" />
    <glyph glyph-name="E" unicode="E" horiz-adv-x="510" 
d="M86 0l162 700h377l-8 -33h-341l-67 -291h285l-8 -33h-285l-71 -310h341l-8 -33h-377z" />
    <glyph glyph-name="F" unicode="F" horiz-adv-x="485" 
d="M86 0l162 700h367l-8 -33h-331l-73 -318h287l-8 -33h-287l-73 -316h-36z" />
    <glyph glyph-name="G" unicode="G" horiz-adv-x="575" 
d="M318 -9q-197 0 -197 184q0 156 54 291q28 70 67.5 124t99 86.5t129.5 32.5q79 0 167 -19l27 -6l-10 -30q-102 22 -192 22q-61 0 -112 -32t-86 -84t-59 -118q-47 -125 -47 -267q0 -151 161 -151q63 0 136 16l25 6l62 267h-132l8 33h168l-76 -327q-102 -28 -193 -28z" />
    <glyph glyph-name="H" unicode="H" horiz-adv-x="626" 
d="M504 0l77 334h-382l-77 -334h-36l162 700h36l-77 -333h382l77 333h36l-162 -700h-36z" />
    <glyph glyph-name="I" unicode="I" horiz-adv-x="208" 
d="M86 0l162 700h36l-162 -700h-36z" />
    <glyph glyph-name="J" unicode="J" horiz-adv-x="253" 
d="M332 700l-137 -593q-14 -61 -24 -90t-30.5 -52t-50.5 -29.5t-83 -6.5l6 33q75 0 100 27t48 127l135 584h36z" />
    <glyph glyph-name="K" unicode="K" horiz-adv-x="508" 
d="M448 0l-134 329h-116l-76 -329h-36l162 700h36l-79 -338h110l290 338h43l-304 -354l142 -346h-38z" />
    <glyph glyph-name="L" unicode="L" horiz-adv-x="441" 
d="M432 0h-346l162 700h36l-154 -667h310z" />
    <glyph glyph-name="M" unicode="M" horiz-adv-x="774" 
d="M86 0l162 700h73l72 -646l384 646h73l-162 -700h-36l155 667h-13l-382 -646h-46l-76 646h-14l-154 -667h-36z" />
    <glyph glyph-name="N" unicode="N" horiz-adv-x="617" 
d="M86 0l162 700h81l150 -667h24l154 667h36l-162 -700h-79l-151 667h-25l-154 -667h-36z" />
    <glyph glyph-name="O" unicode="O" horiz-adv-x="636" 
d="M198.5 63q39.5 -39 124.5 -39t146 45q81 61 124 184.5t43 250.5q0 89 -42 130.5t-120.5 41.5t-137.5 -43q-83 -61 -130 -188t-47 -249q0 -94 39.5 -133zM631 246q-43 -123 -122 -189t-185 -66t-154 46.5t-48 166t42.5 239.5t120.5 193t181.5 73t155.5 -50t52 -156
q0 -134 -43 -257z" />
    <glyph glyph-name="P" unicode="P" horiz-adv-x="547" 
d="M377 256h-196l-59 -256h-36l162 700h233q145 0 145 -145q0 -127 -64.5 -213t-184.5 -86zM385 290q100 0 151.5 77t51.5 188q0 56 -27 83.5t-88 27.5h-197l-87 -376h196z" />
    <glyph glyph-name="Q" unicode="Q" horiz-adv-x="636" 
d="M333 -9q-115 0 -163 46.5t-48 166t42.5 239.5t120.5 193t181.5 73t155.5 -50t52 -156q0 -134 -43 -257q-57 -163 -178 -227l48 -147l-34 -11l-47 144q-42 -14 -87 -14zM198.5 63q39.5 -39 124.5 -39t146 45q81 61 124 184.5t43 250.5q0 89 -42 130.5t-120.5 41.5
t-137.5 -43q-83 -61 -130 -188t-47 -249q0 -94 39.5 -133z" />
    <glyph glyph-name="R" unicode="R" horiz-adv-x="568" 
d="M470 700q80 0 119.5 -34.5t39.5 -105.5t-19 -121t-50 -79q-58 -55 -125 -68l89 -292h-36l-88 288h-211l-67 -288h-36l162 700h222zM591 551q0 64 -30.5 90t-98.5 26h-186l-80 -346h187q94 0 151 63t57 167z" />
    <glyph glyph-name="S" unicode="S" horiz-adv-x="502" 
d="M415 676q-97 0 -151.5 -46.5t-54.5 -137.5q0 -48 30.5 -68.5t111.5 -44.5t114 -53t33 -93q0 -111 -65.5 -176.5t-176.5 -65.5q-85 0 -166 13l-30 4l7 33q118 -17 203 -17t137.5 56.5t52.5 151.5q0 50 -25 71.5t-105.5 44t-119 51.5t-38.5 93q0 106 67.5 161.5t182.5 55.5
q66 0 146 -16l25 -5l-6 -30q-102 18 -172 18z" />
    <glyph glyph-name="T" unicode="T" horiz-adv-x="477" 
d="M164 667l8 33h454l-8 -33h-209l-154 -667h-36l154 667h-209z" />
    <glyph glyph-name="U" unicode="U" horiz-adv-x="593" 
d="M155 130q0 -105 158 -105q90 0 139 42.5t69 130.5l116 502h36l-116 -503q-24 -104 -81.5 -155t-155.5 -51q-201 0 -201 138q0 38 10 78l114 493h36l-114 -493q-10 -42 -10 -77z" />
    <glyph glyph-name="V" unicode="V" horiz-adv-x="538" 
d="M628 700h36l-344 -700h-108l-23 700h36l20 -667h54z" />
    <glyph glyph-name="W" unicode="W" horiz-adv-x="805" 
d="M195 700h36l-25 -667h35l298 657h38l-9 -657h33l288 667h36l-302 -700h-89l10 621l-282 -621h-91z" />
    <glyph glyph-name="X" unicode="X" horiz-adv-x="509" 
d="M227 700l116 -321l264 321h44l-294 -356l125 -344h-36l-116 316l-266 -316h-44l295 350l-124 350h36z" />
    <glyph glyph-name="Y" unicode="Y" horiz-adv-x="485" 
d="M627 700l-301 -399l-70 -301h-36l71 308l-113 392h36l103 -361l270 361h40z" />
    <glyph glyph-name="Z" unicode="Z" horiz-adv-x="498" 
d="M196 667l8 33h415l-18 -78l-512 -564l-6 -25h379l-8 -33h-415l17 74l512 564l7 29h-379z" />
    <glyph glyph-name="bracketleft" unicode="[" horiz-adv-x="296" 
d="M255 747h173l-7 -33h-139l-189 -803h139l-9 -33h-172z" />
    <glyph glyph-name="backslash" unicode="\" horiz-adv-x="387" 
d="M358 14l-38 -14l-130 687l38 14z" />
    <glyph glyph-name="bracketright" unicode="]" horiz-adv-x="296" 
d="M186 -121h-173l7 33h139l189 803h-139l9 33h172z" />
    <glyph glyph-name="asciicircum" unicode="^" 
d="M522 323l-167 301l-158 -301h-40l180 337h36l189 -337h-40z" />
    <glyph glyph-name="underscore" unicode="_" horiz-adv-x="643" 
d="M79 -79h449l-10 -38h-447z" />
    <glyph glyph-name="grave" unicode="`" horiz-adv-x="518" 
d="M322 721l160 -95l-18 -22l-160 92z" />
    <glyph glyph-name="a" unicode="a" horiz-adv-x="482" 
d="M215 -9q-120 0 -120 127q0 88 28 176t87 151.5t135 63.5q51 0 144 -15l31 -5l-76 -326q-11 -46 -25 -135l-4 -27l-33 -2q17 104 22 127q-4 -5 -11 -14.5t-28.5 -32.5t-43 -41t-51 -32.5t-55.5 -14.5zM479 462q-73 15 -136.5 15t-114 -60.5t-73.5 -140.5t-23 -158
q0 -47 21 -70.5t69 -23.5q54 0 147 102q21 23 33 40l12 16z" />
    <glyph glyph-name="b" unicode="b" horiz-adv-x="481" 
d="M378 509q72 0 97.5 -36.5t25.5 -109.5q0 -79 -34 -173q-19 -52 -46.5 -96t-72 -73.5t-98.5 -29.5q-58 0 -145 15l-29 5l166 719h35l-73 -314q6 7 30.5 27.5t43.5 32.5q51 33 100 33zM117 38q86 -15 137.5 -15t96.5 42t67 101q46 121 46 188t-18.5 94.5t-77.5 27.5
q-34 0 -77.5 -27t-70.5 -55l-27 -27z" />
    <glyph glyph-name="c" unicode="c" horiz-adv-x="403" 
d="M363 509q48 0 93 -8l16 -3l-9 -31q-57 10 -100 10q-75 0 -128 -51q-99 -97 -99 -294q0 -54 28.5 -81.5t92.5 -27.5q37 0 95 14l20 5v-32q-67 -19 -123 -19q-150 0 -150 138q0 218 116 323q62 57 148 57z" />
    <glyph glyph-name="d" unicode="d" horiz-adv-x="481" 
d="M209 -9q-114 0 -114 126q0 90 28.5 178t87 151t132.5 63q63 0 123 -12l20 -4l55 237h35l-169 -730h-34l26 114q-4 -5 -10.5 -13.5t-27.5 -29.5t-42 -37t-51.5 -29.5t-58.5 -13.5zM479 462q-70 15 -135 15t-115.5 -60.5t-73.5 -141t-23 -158.5q0 -94 87 -94q24 0 53 15.5
t53 37.5q49 45 75 80l12 16z" />
    <glyph glyph-name="e" unicode="e" horiz-adv-x="452" 
d="M163.5 54.5q29.5 -29.5 72.5 -29.5q74 0 149 22l24 7v-33q-86 -30 -172 -30q-64 0 -102 36.5t-38 102.5t16.5 131t48 121.5t84 91.5t118.5 35q130 0 130 -103q0 -85 -69 -120.5t-213 -35.5h-63q-15 -60 -15 -113t29.5 -82.5zM221 282q123 0 180 26.5t57 97.5t-95 71
q-146 0 -207 -195h65z" />
    <glyph glyph-name="f" unicode="f" horiz-adv-x="297" 
d="M381 739q29 0 65 -6l12 -2l-8 -31q-42 7 -83 7t-66.5 -33.5t-46.5 -116.5l-14 -57h154l-9 -32h-151l-109 -468l-59 -230h-29l161 698h-64l8 32h63l14 59q24 99 61 139.5t101 40.5z" />
    <glyph glyph-name="g" unicode="g" horiz-adv-x="458" 
d="M329 509q49 0 79 -15l149 6l-8 -35h-110q25 -32 25 -72.5t-12 -75t-36 -66.5t-67 -52.5t-97 -20.5l-26 2q-41 -53 -41 -86q0 -20 18.5 -28t91 -16t105.5 -33.5t33 -78.5q0 -70 -71 -123.5t-185 -53.5q-70 0 -111.5 36t-41.5 91q0 90 139 165q-13 11 -13 34t13 47.5
t25 39.5l13 14q-70 28 -70 116q0 74 53.5 139.5t144.5 65.5zM98.5 -29q-37.5 -37 -37.5 -79.5t32 -70.5t92 -28q87 0 149 41.5t62 103.5q0 39 -25.5 55.5t-90.5 23t-91 17.5q-53 -26 -90.5 -63zM260 210q43 0 77 17.5t53 44.5q38 52 38 103.5t-23.5 76.5t-79.5 25
q-72 0 -115 -56t-43 -115q0 -96 93 -96z" />
    <glyph glyph-name="h" unicode="h" horiz-adv-x="489" 
d="M198 385q99 124 186 124q54 0 84.5 -31t30.5 -84t-20 -137l-60 -257h-34l60 258q19 78 19 126q0 92 -86 92q-25 0 -54 -15t-52 -37q-46 -43 -76 -81l-11 -15l-76 -328h-35l169 730h35z" />
    <glyph glyph-name="i" unicode="i" horiz-adv-x="182" 
d="M73 0l116 500h35l-116 -500h-35zM220 638l14 60h36l-14 -60h-36z" />
    <glyph glyph-name="j" unicode="j" horiz-adv-x="182" 
d="M73 0l116 500h35l-116 -500q-27 -115 -57 -151.5t-138 -87.5l-12 30q98 49 124 80.5t48 128.5zM223 642l13 58h35l-13 -58h-35z" />
    <glyph glyph-name="k" unicode="k" horiz-adv-x="431" 
d="M109 0h-35l169 730h35l-101 -437h84l217 207h46l-236 -226l113 -274h-39l-109 261h-84z" />
    <glyph glyph-name="l" unicode="l" horiz-adv-x="195" 
d="M80 0l169 730h35l-169 -730h-35z" />
    <glyph glyph-name="m" unicode="m" horiz-adv-x="774" 
d="M198 387q98 122 185 122q31 0 53.5 -10.5t33.5 -25.5q22 -32 24 -55l1 -10q10 11 26.5 28t62.5 45t92.5 28t77 -31t30.5 -81.5t-20 -139.5l-60 -257h-35l60 258q19 78 19 125t-23 70t-60.5 23t-79 -28t-65.5 -56l-24 -27q-1 -38 -18 -108l-60 -257h-35l60 258
q19 78 19 125.5t-22.5 70t-55 22.5t-61.5 -15t-53 -37q-49 -45 -74 -79l-11 -15l-77 -330h-35l116 500h35z" />
    <glyph glyph-name="n" unicode="n" horiz-adv-x="488" 
d="M198 387q98 122 185 122q54 0 84.5 -31t30.5 -82.5t-19 -135.5l-61 -260h-34l60 258q19 78 19 126q0 92 -86 92q-25 0 -54 -15t-53 -37q-49 -45 -74 -79l-11 -15l-77 -330h-35l116 500h35z" />
    <glyph glyph-name="o" unicode="o" horiz-adv-x="493" 
d="M349 509q158 0 158 -157q0 -154 -71 -257.5t-184 -103.5q-153 0 -153 148q0 156 72 263t178 107zM252 23q97 0 158 95.5t61 233.5q0 57 -30.5 91t-91.5 34q-93 0 -153.5 -99.5t-60.5 -238.5q0 -116 117 -116z" />
    <glyph glyph-name="p" unicode="p" horiz-adv-x="480" 
d="M381 509q120 0 120 -132q0 -84 -27.5 -170.5t-86.5 -151t-134 -64.5q-66 0 -123 13l-20 4l-55 -238h-35l169 730h34l-26 -114q4 5 10.5 13.5t27 29.5t41 37t50 29.5t55.5 13.5zM464 377q0 99 -84 99q-42 0 -89.5 -37t-76.5 -74l-30 -37l-67 -289q70 -16 127.5 -16
t99.5 36t67 91q53 117 53 227z" />
    <glyph glyph-name="q" unicode="q" horiz-adv-x="479" 
d="M397 113q-98 -122 -184 -122q-119 0 -119 129q0 130 64 254q30 59 78.5 97t105.5 38q61 0 148 -15l29 -5l-164 -709h-34zM478 462q-68 15 -133.5 15t-116 -60t-74 -139.5t-23.5 -142.5t21.5 -87t69.5 -24q23 0 51 15t51 37q49 45 76 80l11 15z" />
    <glyph glyph-name="r" unicode="r" horiz-adv-x="304" 
d="M73 0l117 500h34l-17 -76q100 63 197 86l-8 -35q-64 -16 -164 -69l-33 -17l-90 -389h-36z" />
    <glyph glyph-name="s" unicode="s" horiz-adv-x="427" 
d="M470 464q-89 13 -153.5 13t-105.5 -38t-41 -91q0 -30 21 -44.5t91.5 -30t101.5 -36t31 -69.5q0 -85 -60.5 -131t-151.5 -46q-57 0 -126 12l-23 4l7 32q90 -16 155 -16t114 35t49 103q0 38 -23.5 52t-93.5 29.5t-99 35t-29 64.5q0 71 53 119t137 48q55 0 130 -11l25 -3z
" />
    <glyph glyph-name="t" unicode="t" horiz-adv-x="311" 
d="M159 82q0 -59 64 -59l84 7l-2 -31q-51 -8 -87 -8q-96 0 -96 86q0 37 17 105l67 286h-73l8 32h74l39 162h35l-40 -162h163l-8 -32h-163l-67 -286q-15 -64 -15 -100z" />
    <glyph glyph-name="u" unicode="u" horiz-adv-x="488" 
d="M405 113q-98 -122 -185 -122q-53 0 -84 31t-31 82.5t19 135.5l61 260h34l-60 -258q-19 -78 -19 -125t23 -70t55.5 -23t61.5 15t52 37q50 45 75 79l11 15l77 330h35l-116 -500h-35z" />
    <glyph glyph-name="v" unicode="v" horiz-adv-x="448" 
d="M147 500h36l23 -468h40l248 468h38l-266 -500h-94z" />
    <glyph glyph-name="w" unicode="w" horiz-adv-x="710" 
d="M150 500h35l6 -468h16l236 458h45l20 -458h17l227 468h37l-242 -500h-74l-17 447l-227 -447h-72z" />
    <glyph glyph-name="x" unicode="x" horiz-adv-x="411" 
d="M145 500h38l86 -227l190 227h43l-216 -253l94 -247h-39l-83 223l-188 -223h-43l213 250z" />
    <glyph glyph-name="y" unicode="y" horiz-adv-x="448" 
d="M147 500h36l23 -468h40l248 468h38l-387 -728h-38l123 228h-58z" />
    <glyph glyph-name="z" unicode="z" horiz-adv-x="420" 
d="M148 468l8 32h339l-5 -32l-400 -436h297l-7 -32h-339l3 32l400 436h-296z" />
    <glyph glyph-name="braceleft" unicode="{" horiz-adv-x="329" 
d="M207 224q0 -18 -25 -105.5t-25 -122.5q0 -83 109 -83l-10 -36q-70 3 -102 29.5t-32 71.5t25 132.5t25 102.5q0 34 -18 51.5t-58 27.5l8 35q66 18 91.5 46t37.5 88q3 14 8 43q10 61 20 92q25 77 71 113t130 40l-6 -36q-79 -4 -117 -38.5t-53 -106.5q-3 -16 -10 -57
t-11 -58q-14 -65 -40.5 -94.5t-81.5 -47.5q64 -23 64 -87z" />
    <glyph glyph-name="bar" unicode="|" horiz-adv-x="296" 
d="M188 -230v960h35v-960h-35z" />
    <glyph glyph-name="braceright" unicode="}" horiz-adv-x="329" 
d="M266 399q0 18 25 105.5t25 122.5q0 83 -109 83l10 36q70 -3 102 -29.5t32 -71.5t-25 -132.5t-25 -102.5q0 -34 18 -51.5t58 -27.5l-8 -35q-66 -18 -91.5 -46t-37.5 -88q-3 -14 -8 -44q-10 -60 -20 -91q-25 -77 -71 -113t-130 -40l6 36q79 4 117 38.5t53 106.5q3 16 10 57
t11 58q14 65 40.5 94.5t81.5 47.5q-64 23 -64 87z" />
    <glyph glyph-name="asciitilde" unicode="~" 
d="M441 212q-30 0 -103.5 36.5t-91.5 36.5t-43.5 -13t-42.5 -26l-18 -13l-11 32q62 54 112 54q30 0 103.5 -36.5t91.5 -36.5t43.5 13t42.5 26l18 13l11 -31q-62 -55 -112 -55z" />
    <glyph glyph-name="uni00A0" unicode="&#xa0;" horiz-adv-x="220" 
 />
    <glyph glyph-name="exclamdown" unicode="&#xa1;" horiz-adv-x="189" 
d="M178 289l-113 -489h-33l118 489h28zM224 500l-19 -83h-36l19 83h36z" />
    <glyph glyph-name="cent" unicode="&#xa2;" 
d="M162 160q0 38 13 87q27 103 82 156.5t132 55.5l31 131h33l-31 -130l107 -10l-10 -35q-89 10 -125 10q-68 0 -114.5 -47.5t-66.5 -130.5q-13 -62 -13 -93.5t26 -54.5t86 -23l134 8l-9 -34q-56 -7 -112 -7l-30 -127h-34l30 125q-129 0 -129 119z" />
    <glyph glyph-name="sterling" unicode="&#xa3;" 
d="M589 638q-74 8 -113 8t-57 -5t-31.5 -19t-22 -25.5t-17.5 -38.5q-10 -30 -26 -94l-14 -58h219l-8 -33h-219l-76 -340h169l81 16v-31l-81 -18h-310l8 33h96l77 340h-72l8 33h72l14 62q13 55 24 87t30 64q37 60 128 60q55 0 108 -8l20 -3z" />
    <glyph glyph-name="currency" unicode="&#xa4;" 
d="M337.5 82q-60.5 0 -107.5 38l-70 -71l-26 26l71 70q-38 46 -38 106.5t38 107.5l-71 70l26 26l70 -71q46 38 107 38t107 -38l70 71l26 -26l-71 -70q38 -47 38 -107.5t-38 -106.5l71 -70l-26 -26l-70 71q-46 -38 -106.5 -38zM337 119q56 0 95 38q38 39 38 95t-38 95
q-39 38 -95 38t-95 -38q-38 -39 -38 -95t38 -95q39 -38 95 -38z" />
    <glyph glyph-name="yen" unicode="&#xa5;" 
d="M143 332l8 33h162l-118 296h38l123 -311l266 311h46l-256 -296h157l-7 -33h-178l-17 -20l-22 -96h190l-8 -33h-190l-43 -183h-35l42 183h-193l8 33h192l23 98l-5 18h-183z" />
    <glyph glyph-name="brokenbar" unicode="&#xa6;" horiz-adv-x="306" 
d="M193 730h35v-376h-35v376zM193 146h35v-376h-35v376z" />
    <glyph glyph-name="section" unicode="&#xa7;" horiz-adv-x="459" 
d="M380 623q-77 0 -117.5 -40t-40.5 -107q0 -41 22.5 -55t87.5 -25q131 -21 131 -101q0 -33 -18.5 -74.5t-36.5 -66.5l-18 -25q17 -20 17 -50.5t-10.5 -60t-32 -62.5t-64.5 -55.5t-99 -22.5q-58 0 -129 10l-27 3l11 36q102 -14 153 -14q73 0 116 50t43 103q0 33 -22 47.5
t-94 24.5t-102.5 37t-30.5 67t20.5 79.5t40.5 60.5l21 21q-20 29 -20 71q0 76 55 130.5t152 54.5q44 0 121 -10l23 -3l-10 -36q-97 13 -142 13zM175 319q-19 -34 -19 -65.5t24.5 -51t90.5 -29t95 -26.5q62 83 62 139q0 29 -25 46.5t-94 29t-84 24.5q-8 -8 -19.5 -20.5
t-30.5 -46.5z" />
    <glyph glyph-name="dieresis" unicode="&#xa8;" horiz-adv-x="791" 
d="M260 633l15 65h29l-15 -65h-29zM435 633l13 65h29l-15 -65h-27z" />
    <glyph glyph-name="copyright" unicode="&#xa9;" horiz-adv-x="646" 
d="M168 434q0 111 73 188.5t182 77.5t182.5 -77.5t73.5 -188.5t-73.5 -188t-182.5 -77t-182 77t-73 188zM200 434q0 -98 63.5 -165.5t159.5 -67.5t160 67.5t64 165.5t-64 166t-160 68t-159.5 -68t-63.5 -166zM423 281q-62 0 -85.5 38.5t-23.5 114t23 114.5t86 39q39 0 64 -5
l10 -2l-1 -32q-41 7 -73 7q-49 0 -63 -28t-14 -92t16 -93t61 -29l73 8l1 -32q-43 -8 -74 -8z" />
    <glyph glyph-name="ordfeminine" unicode="&#xaa;" horiz-adv-x="354" 
d="M215 386q-31 0 -45 22q-9 14 -9 29t3 29q9 37 30.5 55t62.5 21l102 7l6 23q3 14 3 26t-6.5 21.5t-33.5 9.5l-105 -7l4 29q71 8 111 8q64 0 64 -53q0 -15 -5 -35l-32 -137q6 -16 31 -21l-8 -27q-31 1 -49 22q-68 -22 -124 -22zM195 445q0 -28 31 -28q40 0 90 13l16 5
l20 85l-95 -6q-48 -3 -59 -50q-3 -11 -3 -19z" />
    <glyph glyph-name="guillemotleft" unicode="&#xab;" horiz-adv-x="422" 
d="M445 391l-12 -41l-144 -101l94 -110l-11 -35l-124 137l8 22zM295 391l-12 -41l-144 -101l94 -110l-11 -35l-124 137l8 22z" />
    <glyph glyph-name="logicalnot" unicode="&#xac;" 
d="M130 332h422v-206h-36v172h-386v34z" />
    <glyph glyph-name="registered" unicode="&#xae;" horiz-adv-x="646" 
d="M168 434q0 111 73 188.5t182 77.5t182.5 -77.5t73.5 -188.5t-73.5 -188t-182.5 -77t-182 77t-73 188zM200 434q0 -98 63.5 -165.5t159.5 -67.5t160 67.5t64 165.5t-64 166t-160 68t-159.5 -68t-63.5 -166zM353 402v-116h-32v295h93q59 0 86 -20t27 -69q0 -72 -59 -87
l65 -119h-36l-63 116h-81zM353 550v-117h80q34 0 48 13t14 46t-19 45.5t-61 12.5h-62z" />
    <glyph glyph-name="macron" unicode="&#xaf;" horiz-adv-x="424" 
d="M237 647l6 26h253l-7 -26h-252z" />
    <glyph glyph-name="degree" unicode="&#xb0;" 
d="M275 573q0 61 37.5 98.5t98.5 37.5t98.5 -37.5t37.5 -98.5t-37.5 -98t-98.5 -37t-98.5 37t-37.5 98zM309 573q0 -47 28 -75t74.5 -28t75 28.5t28.5 75t-28.5 75t-75 28.5t-74.5 -28.5t-28 -75.5z" />
    <glyph glyph-name="plusminus" unicode="&#xb1;" 
d="M105 308v34h202v138h36v-138h204v-34h-204v-144h-36v144h-202zM105 84h442v-34h-442v34z" />
    <glyph glyph-name="twosuperior" unicode="&#xb2;" horiz-adv-x="280" 
d="M360 731q0 34 -47 34q-31 0 -77 -9l-16 -3l6 33q55 13 97 13q75 0 75 -56q0 -48 -35 -89q-23 -26 -65 -61l-96 -81h148l-8 -34h-195l8 34l124 104q81 67 81 115z" />
    <glyph glyph-name="threesuperior" unicode="&#xb3;" horiz-adv-x="280" 
d="M335 641q43 -14 43 -46q0 -13 -5 -33q-23 -93 -124 -93q-49 0 -89 8l-15 3l11 32q52 -9 102 -9q63 0 77 58q3 13 3 23q0 38 -47 38h-65l8 34h65q18 0 39 19q30 26 30 59q0 13 -8.5 22t-34.5 9q-39 0 -89 -7l-15 -2l5 32q56 11 103 11t62.5 -15.5t15.5 -32.5t-4 -32
q-15 -57 -68 -78z" />
    <glyph glyph-name="acute" unicode="&#xb4;" horiz-adv-x="537" 
d="M296 610l-5 25l203 95l6 -30z" />
    <glyph glyph-name="mu" unicode="&#xb5;" 
d="M443 113q-98 -122 -180.5 -122t-109.5 61l-65 -282h-35l103 446l12 49l55 235h34l-54 -230h1l-16 -69q-10 -50 -10 -90.5t23 -63.5t55.5 -23t61.5 15t52 37q50 45 75 79l11 15l77 330h35l-116 -500h-35z" />
    <glyph glyph-name="paragraph" unicode="&#xb6;" horiz-adv-x="551" 
d="M149 481q0 80 64.5 149.5t156.5 69.5h309l-7 -36h-92l-158 -664h-34l158 664h-143l-159 -664h-34l85 349q-73 1 -109.5 38.5t-36.5 93.5z" />
    <glyph glyph-name="periodcentered" unicode="&#xb7;" horiz-adv-x="182" 
d="M134 270l18 83h38l-18 -83h-38z" />
    <glyph glyph-name="cedilla" unicode="&#xb8;" horiz-adv-x="791" 
d="M420 -53q79 0 79 -52q0 -9 -2 -19q-17 -75 -95 -75l-76 4l8 31q41 -4 73 -4q45 0 56 44q2 7 2 14q0 27 -37 27h-51l21 88h32l-15 -58h5z" />
    <glyph glyph-name="onesuperior" unicode="&#xb9;" horiz-adv-x="280" 
d="M211 723l115 67h36l-77 -312h-36l68 273l-96 -56z" />
    <glyph glyph-name="ordmasculine" unicode="&#xba;" horiz-adv-x="339" 
d="M321 658q85 0 85 -78q0 -28 -8 -65q-29 -132 -141 -132q-86 0 -86 83q0 27 7 56q18 73 51.5 104.5t91.5 31.5zM264 419q41 0 64 23.5t36 79.5q6 25 6 51.5t-13 37.5t-48.5 11t-59 -22.5t-36.5 -77.5q-7 -28 -7 -50q0 -53 58 -53z" />
    <glyph glyph-name="guillemotright" unicode="&#xbb;" horiz-adv-x="484" 
d="M304 104l12 41l144 101l-94 110l11 35l124 -137l-8 -22zM92 104l12 41l144 101l-94 110l11 35l124 -137l-8 -22z" />
    <glyph glyph-name="onequarter" unicode="&#xbc;" horiz-adv-x="567" 
d="M191 723l115 67h36l-77 -312h-36l68 273l-96 -56zM145 -1l-33 13l425 688l33 -14zM463 0l14 57h-146l8 32l144 223h40l-142 -221h104l22 87h36l-22 -87h37l-8 -34h-37l-14 -57h-36z" />
    <glyph glyph-name="onehalf" unicode="&#xbd;" horiz-adv-x="597" 
d="M191 723l115 67h36l-77 -312h-36l68 273l-96 -56zM145 -1l-33 13l425 688l33 -14zM573 252q0 35 -47 35q-31 0 -78 -9l-15 -3l6 33q55 13 97 13q75 0 75 -56q0 -48 -35 -89q-23 -26 -65 -61l-96 -81h148l-8 -34h-195l8 34l124 104q81 67 81 114z" />
    <glyph glyph-name="threequarters" unicode="&#xbe;" horiz-adv-x="594" 
d="M174 -1l-33 13l425 688l33 -14zM342 641q43 -14 43 -46q0 -13 -5 -33q-23 -93 -124 -93q-49 0 -89 8l-15 3l11 32q52 -9 102 -9q63 0 77 58q3 13 3 23q0 38 -47 38h-65l8 34h65q18 0 40 19q29 26 29 59q0 13 -8.5 22t-34.5 9q-39 0 -90 -7l-14 -2l5 32q56 11 103 11
t62.5 -15.5t15.5 -32.5t-4 -32q-15 -55 -68 -78zM492 0l14 57h-146l8 32l144 223h40l-142 -221h104l22 87h36l-22 -87h37l-8 -34h-37l-14 -57h-36z" />
    <glyph glyph-name="questiondown" unicode="&#xbf;" horiz-adv-x="391" 
d="M62.5 -180.5q-41.5 27.5 -41.5 83t17 92t48 67t108 93.5t88 119l8 39h34q-2 -22 -6 -43q-14 -70 -107 -145t-122.5 -115.5t-29.5 -103.5q0 -80 120 -80q47 0 121 16l24 6v-32q-87 -24 -153.5 -24t-108 27.5zM358 500l-17 -82h-37l18 82h36z" />
    <glyph glyph-name="Agrave" unicode="&#xc0;" horiz-adv-x="556" 
d="M350 917l160 -97l-15 -22l-162 92zM32 0l371 700h89l38 -700h-36l-12 216h-299l-114 -216h-37zM423 667l-222 -419h279l-21 419h-36z" />
    <glyph glyph-name="Aacute" unicode="&#xc1;" horiz-adv-x="556" 
d="M411 798l-8 25l204 96l9 -29zM32 0l371 700h89l38 -700h-36l-12 216h-299l-114 -216h-37zM423 667l-222 -419h279l-21 419h-36z" />
    <glyph glyph-name="Acircumflex" unicode="&#xc2;" horiz-adv-x="556" 
d="M324 803l156 128h14l97 -128h-34l-73 97l-119 -97h-41zM32 0l371 700h89l38 -700h-36l-12 216h-299l-114 -216h-37zM423 667l-222 -419h279l-21 419h-36z" />
    <glyph glyph-name="Atilde" unicode="&#xc3;" horiz-adv-x="556" 
d="M629 877q-63 -57 -87.5 -57t-75 32t-61.5 32q-18 0 -73 -42l-18 -13l-1 28q66 57 92.5 57t76.5 -31.5t61 -31.5q19 0 66 38l16 13zM32 0l371 700h89l38 -700h-36l-12 216h-299l-114 -216h-37zM423 667l-222 -419h279l-21 419h-36z" />
    <glyph glyph-name="Adieresis" unicode="&#xc4;" horiz-adv-x="556" 
d="M363 831l14 66h30l-17 -66h-27zM542 831l16 66h29l-16 -66h-29zM32 0l371 700h89l38 -700h-36l-12 216h-299l-114 -216h-37zM423 667l-222 -419h279l-21 419h-36z" />
    <glyph glyph-name="Aring" unicode="&#xc5;" horiz-adv-x="556" 
d="M368 725q0 13 5 30q24 89 108 89q40 0 58 -22q11 -14 11 -32t-4 -35q-14 -53 -53 -75l37 -680h-36l-12 216h-299l-114 -216h-37l360 679q-24 15 -24 46zM459 667h-36l-222 -419h279zM522 773q0 42 -48 42q-60 0 -75 -60q-2 -10 -2 -19q0 -27 23 -36h53q36 12 47 55
q2 10 2 18z" />
    <glyph glyph-name="AE" unicode="&#xc6;" horiz-adv-x="797" 
d="M372 0l49 215h-240l-114 -215h-35l370 700h511l-6 -33l-343 2l-71 -293h287l-6 -33h-287l-73 -310h341l-6 -33h-377zM418 667l-221 -420h231l102 420h-112z" />
    <glyph glyph-name="Ccedilla" unicode="&#xc7;" horiz-adv-x="510" 
d="M298 -53q79 0 79 -52q0 -9 -2 -19q-17 -75 -95 -75l-76 4l8 31q41 -4 73 -4q45 0 56 44q2 7 2 14q0 27 -37 27h-51l18 76q-152 16 -152 197q0 143 55 275q62 150 166 211q59 33 127 33q74 0 139 -14l24 -5l-8 -32q-87 17 -159.5 17t-133 -47.5t-97.5 -121.5
q-75 -153 -75 -316q0 -85 36.5 -125t115.5 -40q76 0 140 14l23 5l-1 -33q-87 -20 -167 -20h-2l-11 -44h5z" />
    <glyph glyph-name="Egrave" unicode="&#xc8;" horiz-adv-x="510" 
d="M391 917l160 -97l-15 -22l-162 92zM86 0l162 700h377l-8 -33h-341l-67 -291h285l-8 -33h-285l-71 -310h341l-8 -33h-377z" />
    <glyph glyph-name="Eacute" unicode="&#xc9;" horiz-adv-x="510" 
d="M395 798l-8 25l204 96l9 -29zM86 0l162 700h377l-8 -33h-341l-67 -291h285l-8 -33h-285l-71 -310h341l-8 -33h-377z" />
    <glyph glyph-name="Ecircumflex" unicode="&#xca;" horiz-adv-x="510" 
d="M397 798l156 128h14l97 -128h-34l-73 97l-119 -97h-41zM86 0l162 700h377l-8 -33h-341l-67 -291h285l-8 -33h-285l-71 -310h341l-8 -33h-377z" />
    <glyph glyph-name="Edieresis" unicode="&#xcb;" horiz-adv-x="510" 
d="M362 831l14 66h30l-17 -66h-27zM541 831l16 66h29l-16 -66h-29zM86 0l162 700h377l-8 -33h-341l-67 -291h285l-8 -33h-285l-71 -310h341l-8 -33h-377z" />
    <glyph glyph-name="Igrave" unicode="&#xcc;" horiz-adv-x="208" 
d="M170 917l160 -97l-15 -22l-162 92zM86 0l162 700h36l-162 -700h-36z" />
    <glyph glyph-name="Iacute" unicode="&#xcd;" horiz-adv-x="208" 
d="M245 798l-8 25l204 96l9 -29zM86 0l162 700h36l-162 -700h-36z" />
    <glyph glyph-name="Icircumflex" unicode="&#xce;" horiz-adv-x="208" 
d="M151 798l156 128h14l97 -128h-34l-73 97l-119 -97h-41zM86 0l162 700h36l-162 -700h-36z" />
    <glyph glyph-name="Idieresis" unicode="&#xcf;" horiz-adv-x="208" 
d="M183 831l14 66h30l-17 -66h-27zM362 831l16 66h29l-16 -66h-29zM86 0l162 700h36l-162 -700h-36z" />
    <glyph glyph-name="Eth" unicode="&#xd0;" horiz-adv-x="610" 
d="M325 0h-237l77 332h-76l7 38h78l76 330h228q91 0 130.5 -50t39.5 -142t-20 -176t-57.5 -159.5t-102 -124t-143.5 -48.5zM591.5 344q18.5 79 18.5 160t-31.5 122t-107.5 41h-193l-68 -297h162l-9 -38h-162l-68 -299h201q64 0 118 45.5t87.5 116t52 149.5z" />
    <glyph glyph-name="Ntilde" unicode="&#xd1;" horiz-adv-x="617" 
d="M665 875q-63 -57 -87.5 -57t-75 32t-61.5 32q-18 0 -73 -42l-18 -13l-1 28q66 57 92.5 57t76.5 -31.5t61 -31.5q19 0 66 38l16 13zM86 0l162 700h81l150 -667h24l154 667h36l-162 -700h-79l-151 667h-25l-154 -667h-36z" />
    <glyph glyph-name="Ograve" unicode="&#xd2;" horiz-adv-x="636" 
d="M424 917l160 -97l-15 -22l-162 92zM198.5 63q39.5 -39 124.5 -39t146 45q81 61 124 184.5t43 250.5q0 89 -42 130.5t-120.5 41.5t-137.5 -43q-83 -61 -130 -188t-47 -249q0 -94 39.5 -133zM631 246q-43 -123 -122 -189t-185 -66t-154 46.5t-48 166t42.5 239.5t120.5 193
t181.5 73t155.5 -50t52 -156q0 -134 -43 -257z" />
    <glyph glyph-name="Oacute" unicode="&#xd3;" horiz-adv-x="636" 
d="M198.5 63q39.5 -39 124.5 -39t146 45q81 61 124 184.5t43 250.5q0 89 -42 130.5t-120.5 41.5t-137.5 -43q-83 -61 -130 -188t-47 -249q0 -94 39.5 -133zM631 246q-43 -123 -122 -189t-185 -66t-154 46.5t-48 166t42.5 239.5t120.5 193t181.5 73t155.5 -50t52 -156
q0 -134 -43 -257zM449 798l-8 25l204 96l9 -29z" />
    <glyph glyph-name="Ocircumflex" unicode="&#xd4;" horiz-adv-x="636" 
d="M198.5 63q39.5 -39 124.5 -39t146 45q81 61 124 184.5t43 250.5q0 89 -42 130.5t-120.5 41.5t-137.5 -43q-83 -61 -130 -188t-47 -249q0 -94 39.5 -133zM631 246q-43 -123 -122 -189t-185 -66t-154 46.5t-48 166t42.5 239.5t120.5 193t181.5 73t155.5 -50t52 -156
q0 -134 -43 -257zM372 803l156 128h14l97 -128h-34l-73 97l-119 -97h-41z" />
    <glyph glyph-name="Otilde" unicode="&#xd5;" horiz-adv-x="636" 
d="M682 875q-63 -57 -87.5 -57t-75 32t-61.5 32q-18 0 -73 -42l-18 -13l-1 28q66 57 92.5 57t76.5 -31.5t61 -31.5q19 0 66 38l16 13zM198.5 63q39.5 -39 124.5 -39t146 45q81 61 124 184.5t43 250.5q0 89 -42 130.5t-120.5 41.5t-137.5 -43q-83 -61 -130 -188t-47 -249
q0 -94 39.5 -133zM631 246q-43 -123 -122 -189t-185 -66t-154 46.5t-48 166t42.5 239.5t120.5 193t181.5 73t155.5 -50t52 -156q0 -134 -43 -257z" />
    <glyph glyph-name="Odieresis" unicode="&#xd6;" horiz-adv-x="636" 
d="M404 833l15 65h34l-15 -65h-34zM584 833l13 65h34l-15 -65h-32zM198.5 63q39.5 -39 124.5 -39t146 45q81 61 124 184.5t43 250.5q0 89 -42 130.5t-120.5 41.5t-137.5 -43q-83 -61 -130 -188t-47 -249q0 -94 39.5 -133zM631 246q-43 -123 -122 -189t-185 -66t-154 46.5
t-48 166t42.5 239.5t120.5 193t181.5 73t155.5 -50t52 -156q0 -134 -43 -257z" />
    <glyph glyph-name="multiply" unicode="&#xd7;" 
d="M162 450l175 -176l175 176l24 -24l-176 -175l176 -175l-24 -24l-175 176l-175 -176l-24 24l176 175l-176 175z" />
    <glyph glyph-name="Oslash" unicode="&#xd8;" horiz-adv-x="636" 
d="M169 38q-47 47 -47 166t42.5 239t120.5 193t172.5 73t144.5 -35l80 117l30 -14l-85 -124q47 -52 47 -150q0 -134 -43 -257t-122 -189t-172.5 -66t-142.5 28l-88 -129l-27 16zM582 644q-43 32 -115 32t-131 -43q-83 -61 -130 -188t-47 -249q0 -84 32 -125zM215 50
q40 -26 116.5 -26t137.5 45q81 61 124 184.5t43 250.5q0 76 -31 117l-196 -289z" />
    <glyph glyph-name="Ugrave" unicode="&#xd9;" horiz-adv-x="593" 
d="M395 917l160 -97l-15 -22l-162 92zM155 130q0 -105 158 -105q90 0 139 42.5t69 130.5l116 502h36l-116 -503q-24 -104 -81.5 -155t-155.5 -51q-201 0 -201 138q0 38 10 78l114 493h36l-114 -493q-10 -42 -10 -77z" />
    <glyph glyph-name="Uacute" unicode="&#xda;" horiz-adv-x="593" 
d="M155 130q0 -105 158 -105q90 0 139 42.5t69 130.5l116 502h36l-116 -503q-24 -104 -81.5 -155t-155.5 -51q-201 0 -201 138q0 38 10 78l114 493h36l-114 -493q-10 -42 -10 -77zM402 798l-8 25l204 96l9 -29z" />
    <glyph glyph-name="Ucircumflex" unicode="&#xdb;" horiz-adv-x="593" 
d="M155 130q0 -105 158 -105q90 0 139 42.5t69 130.5l116 502h36l-116 -503q-24 -104 -81.5 -155t-155.5 -51q-201 0 -201 138q0 38 10 78l114 493h36l-114 -493q-10 -42 -10 -77zM340 803l156 128h14l97 -128h-34l-73 97l-119 -97h-41z" />
    <glyph glyph-name="Udieresis" unicode="&#xdc;" horiz-adv-x="593" 
d="M371 833l15 65h34l-15 -65h-34zM551 833l13 65h34l-15 -65h-32zM155 130q0 -105 158 -105q90 0 139 42.5t69 130.5l116 502h36l-116 -503q-24 -104 -81.5 -155t-155.5 -51q-201 0 -201 138q0 38 10 78l114 493h36l-114 -493q-10 -42 -10 -77z" />
    <glyph glyph-name="Yacute" unicode="&#xdd;" horiz-adv-x="485" 
d="M344 798l-8 25l204 96l9 -29zM627 700l-301 -399l-70 -301h-36l71 308l-113 392h36l103 -361l270 361h40z" />
    <glyph glyph-name="Thorn" unicode="&#xde;" horiz-adv-x="556" 
d="M361 166q148 0 199 201q10 39 10 70q0 110 -126 110h-194l-90 -381h201zM353 134h-201l-31 -134h-36l164 700h36l-28 -121h195q154 0 154 -138q0 -33 -9 -74q-23 -106 -84.5 -169.5t-159.5 -63.5z" />
    <glyph glyph-name="germandbls" unicode="&#xdf;" horiz-adv-x="522" 
d="M403 739q141 0 141 -104q0 -60 -26.5 -97t-72.5 -61.5t-62.5 -38.5t-16.5 -34t11 -33t60 -43t68 -53t19 -72q0 -97 -59.5 -154.5t-167.5 -57.5q-39 0 -87 11l-16 3l5 32q63 -14 102 -14q87 0 137 48.5t50 130.5q0 36 -16.5 56t-63.5 49t-62 48.5t-15 48t19.5 49
t79.5 52.5q78 42 78 125q0 40 -24.5 58.5t-90.5 18.5t-103 -39.5t-59 -135.5l-124 -532h-34l125 535q26 112 72.5 158t132.5 46z" />
    <glyph glyph-name="agrave" unicode="&#xe0;" horiz-adv-x="482" 
d="M215 -9q-120 0 -120 127q0 88 28 176t87 151.5t135 63.5q51 0 144 -15l31 -5l-76 -326q-11 -46 -25 -135l-4 -27l-33 -2q17 104 22 127q-4 -5 -11 -14.5t-28.5 -32.5t-43 -41t-51 -32.5t-55.5 -14.5zM479 462q-73 15 -136.5 15t-114 -60.5t-73.5 -140.5t-23 -158
q0 -47 21 -70.5t69 -23.5q54 0 147 102q21 23 33 40l12 16zM330 721l160 -95l-18 -22l-160 92z" />
    <glyph glyph-name="aacute" unicode="&#xe1;" horiz-adv-x="482" 
d="M215 -9q-120 0 -120 127q0 88 28 176t87 151.5t135 63.5q51 0 144 -15l31 -5l-76 -326q-11 -46 -25 -135l-4 -27l-33 -2q17 104 22 127q-4 -5 -11 -14.5t-28.5 -32.5t-43 -41t-51 -32.5t-55.5 -14.5zM479 462q-73 15 -136.5 15t-114 -60.5t-73.5 -140.5t-23 -158
q0 -47 21 -70.5t69 -23.5q54 0 147 102q21 23 33 40l12 16zM343 610l-5 25l203 95l6 -30z" />
    <glyph glyph-name="acircumflex" unicode="&#xe2;" horiz-adv-x="482" 
d="M260 595l146 135h22l87 -135h-38l-64 101l-110 -101h-43zM215 -9q-120 0 -120 127q0 88 28 176t87 151.5t135 63.5q51 0 144 -15l31 -5l-76 -326q-11 -46 -25 -135l-4 -27l-33 -2q17 104 22 127q-4 -5 -11 -14.5t-28.5 -32.5t-43 -41t-51 -32.5t-55.5 -14.5zM479 462
q-73 15 -136.5 15t-114 -60.5t-73.5 -140.5t-23 -158q0 -47 21 -70.5t69 -23.5q54 0 147 102q21 23 33 40l12 16z" />
    <glyph glyph-name="atilde" unicode="&#xe3;" horiz-adv-x="482" 
d="M215 -9q-120 0 -120 127q0 88 28 176t87 151.5t135 63.5q51 0 144 -15l31 -5l-76 -326q-11 -46 -25 -135l-4 -27l-33 -2q17 104 22 127q-4 -5 -11 -14.5t-28.5 -32.5t-43 -41t-51 -32.5t-55.5 -14.5zM479 462q-73 15 -136.5 15t-114 -60.5t-73.5 -140.5t-23 -158
q0 -47 21 -70.5t69 -23.5q54 0 147 102q21 23 33 40l12 16zM480 630q-18 0 -66 25.5t-58 25.5q-18 0 -64 -34l-15 -11l-2 31q58 46 88 46q19 0 65 -25.5t56 -25.5q19 0 57 30l13 11l5 -30q-50 -43 -79 -43z" />
    <glyph glyph-name="adieresis" unicode="&#xe4;" horiz-adv-x="482" 
d="M282 633l15 65h34l-15 -65h-34zM462 633l13 65h34l-15 -65h-32zM215 -9q-120 0 -120 127q0 88 28 176t87 151.5t135 63.5q51 0 144 -15l31 -5l-76 -326q-11 -46 -25 -135l-4 -27l-33 -2q17 104 22 127q-4 -5 -11 -14.5t-28.5 -32.5t-43 -41t-51 -32.5t-55.5 -14.5z
M479 462q-73 15 -136.5 15t-114 -60.5t-73.5 -140.5t-23 -158q0 -47 21 -70.5t69 -23.5q54 0 147 102q21 23 33 40l12 16z" />
    <glyph glyph-name="aring" unicode="&#xe5;" horiz-adv-x="482" 
d="M215 -9q-120 0 -120 127q0 88 28 176t87 151.5t135 63.5q51 0 144 -15l31 -5l-76 -326q-11 -46 -25 -135l-4 -27l-33 -2q17 104 22 127q-4 -5 -11 -14.5t-28.5 -32.5t-43 -41t-51 -32.5t-55.5 -14.5zM479 462q-73 15 -136.5 15t-114 -60.5t-73.5 -140.5t-23 -158
q0 -47 21 -70.5t69 -23.5q54 0 147 102q21 23 33 40l12 16zM404 576q-66 0 -66 66q0 55 34 85.5t76 30.5q65 0 65 -70q0 -47 -32 -79.5t-77 -32.5zM368 667q-2 -8 -2 -19t10.5 -27t35 -16t44.5 18q29 25 29 59q0 14 -10 29.5t-34.5 15.5t-46 -17.5t-26.5 -42.5z" />
    <glyph glyph-name="ae" unicode="&#xe6;" horiz-adv-x="772" 
d="M408 49q-147 -58 -243 -58t-96 103q0 20 4 44q13 70 59.5 101.5t130 43.5t158.5 18q20 68 20 84.5t-1.5 27t-7.5 26.5q-14 32 -70 32q-46 0 -150 -7l-29 -2l6 37q106 10 181 10q46 0 76 -25t31 -70q65 95 187 95q137 0 137 -136q0 -51 -14 -104l-9 -35l-330 2
q-15 -67 -15 -112q0 -97 104 -97q72 0 147 7l28 2l-7 -36q-108 -9 -176 -9q-92 0 -121 58zM109 100q0 -73 64 -73q79 0 226 54q-7 37 -4.5 60.5t3 30.5t4 24.5t4.5 21.5q2 25 10 48q-128 -14 -178 -22.5t-81 -33t-43 -72.5q-5 -20 -5 -38zM749 268q16 58 16 106
q0 99 -109 99q-75 0 -125.5 -48t-75.5 -155z" />
    <glyph glyph-name="ccedilla" unicode="&#xe7;" horiz-adv-x="403" 
d="M233 -53q79 0 79 -52q0 -9 -2 -19q-17 -75 -95 -75l-76 4l8 31q41 -4 73 -4q45 0 56 44q2 7 2 14q0 27 -37 27h-51l18 77q-109 16 -109 135q0 218 116 323q62 57 148 57q48 0 93 -8l16 -3l-9 -31q-57 10 -100 10q-75 0 -128 -51q-99 -97 -99 -294q0 -54 28.5 -81.5
t92.5 -27.5q37 0 95 14l20 5v-32q-67 -19 -123 -19h-10l-11 -44h5z" />
    <glyph glyph-name="egrave" unicode="&#xe8;" horiz-adv-x="452" 
d="M163.5 54.5q29.5 -29.5 72.5 -29.5q74 0 149 22l24 7v-33q-86 -30 -172 -30q-64 0 -102 36.5t-38 102.5t16.5 131t48 121.5t84 91.5t118.5 35q130 0 130 -103q0 -85 -69 -120.5t-213 -35.5h-63q-15 -60 -15 -113t29.5 -82.5zM221 282q123 0 180 26.5t57 97.5t-95 71
q-146 0 -207 -195h65zM256 721l160 -95l-18 -22l-160 92z" />
    <glyph glyph-name="eacute" unicode="&#xe9;" horiz-adv-x="452" 
d="M163.5 54.5q29.5 -29.5 72.5 -29.5q74 0 149 22l24 7v-33q-86 -30 -172 -30q-64 0 -102 36.5t-38 102.5t16.5 131t48 121.5t84 91.5t118.5 35q130 0 130 -103q0 -85 -69 -120.5t-213 -35.5h-63q-15 -60 -15 -113t29.5 -82.5zM221 282q123 0 180 26.5t57 97.5t-95 71
q-146 0 -207 -195h65zM313 610l-5 25l203 95l6 -30z" />
    <glyph glyph-name="ecircumflex" unicode="&#xea;" horiz-adv-x="452" 
d="M243 595l146 135h22l87 -135h-38l-64 101l-110 -101h-43zM163.5 54.5q29.5 -29.5 72.5 -29.5q74 0 149 22l24 7v-33q-86 -30 -172 -30q-64 0 -102 36.5t-38 102.5t16.5 131t48 121.5t84 91.5t118.5 35q130 0 130 -103q0 -85 -69 -120.5t-213 -35.5h-63q-15 -60 -15 -113
t29.5 -82.5zM221 282q123 0 180 26.5t57 97.5t-95 71q-146 0 -207 -195h65z" />
    <glyph glyph-name="edieresis" unicode="&#xeb;" horiz-adv-x="452" 
d="M281 633l15 65h34l-15 -65h-34zM461 633l13 65h34l-15 -65h-32zM163.5 54.5q29.5 -29.5 72.5 -29.5q74 0 149 22l24 7v-33q-86 -30 -172 -30q-64 0 -102 36.5t-38 102.5t16.5 131t48 121.5t84 91.5t118.5 35q130 0 130 -103q0 -85 -69 -120.5t-213 -35.5h-63
q-15 -60 -15 -113t29.5 -82.5zM221 282q123 0 180 26.5t57 97.5t-95 71q-146 0 -207 -195h65z" />
    <glyph glyph-name="igrave" unicode="&#xec;" horiz-adv-x="182" 
d="M73 0l116 500h35l-116 -500h-35zM98 721l160 -95l-18 -22l-160 92z" />
    <glyph glyph-name="iacute" unicode="&#xed;" horiz-adv-x="182" 
d="M73 0l116 500h35l-116 -500h-35zM202 610l-5 25l203 95l6 -30z" />
    <glyph glyph-name="icircumflex" unicode="&#xee;" horiz-adv-x="182" 
d="M94 595l146 135h22l87 -135h-38l-64 101l-110 -101h-43zM73 0l116 500h35l-116 -500h-35z" />
    <glyph glyph-name="idieresis" unicode="&#xef;" horiz-adv-x="182" 
d="M113 633l15 65h34l-15 -65h-34zM293 633l13 65h34l-15 -65h-32zM73 0l116 500h35l-116 -500h-35z" />
    <glyph glyph-name="eth" unicode="&#xf0;" horiz-adv-x="510" 
d="M548 442q0 -39 -10 -82q-46 -195 -118 -282t-173 -87q-85 0 -124.5 40.5t-39.5 103.5q0 131 75.5 211t179.5 80q33 0 75 -11t67 -22l26 -11q5 27 5 53q0 119 -101 196l-128 -77l-16 28l114 69q-49 30 -110 51l19 34q75 -25 128 -62l112 68l16 -29l-100 -60
q103 -85 103 -211zM332 388q-88 0 -148.5 -72t-60.5 -177q0 -50 33 -80t99 -30q163 0 243 314q-37 18 -86.5 31.5t-79.5 13.5z" />
    <glyph glyph-name="ntilde" unicode="&#xf1;" horiz-adv-x="488" 
d="M322.5 460q-29.5 -16 -51.5 -35t-47.5 -47.5t-38.5 -47.5l-77 -330h-35l116 500h35l-26 -113l10 13q22 29 67 66q22 18 51.5 30.5t56.5 12.5q54 0 84.5 -31t30.5 -82.5t-19 -135.5l-61 -260h-34l60 258q19 78 19 125.5t-22 70t-55.5 22.5t-63 -16zM462 630
q-18 0 -66 25.5t-58 25.5q-18 0 -64 -34l-15 -11l-2 31q58 46 88 46q19 0 65 -25.5t56 -25.5q19 0 57 30l13 11l5 -30q-50 -43 -79 -43z" />
    <glyph glyph-name="ograve" unicode="&#xf2;" horiz-adv-x="493" 
d="M349 509q158 0 158 -157q0 -154 -71 -257.5t-184 -103.5q-153 0 -153 148q0 156 72 263t178 107zM252 23q97 0 158 95.5t61 233.5q0 57 -30.5 91t-91.5 34q-93 0 -153.5 -99.5t-60.5 -238.5q0 -116 117 -116zM283 721l160 -95l-18 -22l-160 92z" />
    <glyph glyph-name="oacute" unicode="&#xf3;" horiz-adv-x="493" 
d="M349 509q158 0 158 -157q0 -154 -71 -257.5t-184 -103.5q-153 0 -153 148q0 156 72 263t178 107zM252 23q97 0 158 95.5t61 233.5q0 57 -30.5 91t-91.5 34q-93 0 -153.5 -99.5t-60.5 -238.5q0 -116 117 -116zM315 610l-5 25l203 95l6 -30z" />
    <glyph glyph-name="ocircumflex" unicode="&#xf4;" horiz-adv-x="493" 
d="M259 595l146 135h22l87 -135h-38l-64 101l-110 -101h-43zM349 509q158 0 158 -157q0 -154 -71 -257.5t-184 -103.5q-153 0 -153 148q0 156 72 263t178 107zM252 23q97 0 158 95.5t61 233.5q0 57 -30.5 91t-91.5 34q-93 0 -153.5 -99.5t-60.5 -238.5q0 -116 117 -116z" />
    <glyph glyph-name="otilde" unicode="&#xf5;" horiz-adv-x="493" 
d="M349 509q158 0 158 -157q0 -154 -71 -257.5t-184 -103.5q-153 0 -153 148q0 156 72 263t178 107zM252 23q97 0 158 95.5t61 233.5q0 57 -30.5 91t-91.5 34q-93 0 -153.5 -99.5t-60.5 -238.5q0 -116 117 -116zM454 630q-18 0 -66 25.5t-58 25.5q-18 0 -64 -34l-15 -11
l-2 31q58 46 88 46q19 0 65 -25.5t56 -25.5q19 0 57 30l13 11l5 -30q-50 -43 -79 -43z" />
    <glyph glyph-name="odieresis" unicode="&#xf6;" horiz-adv-x="493" 
d="M349 509q158 0 158 -157q0 -154 -71 -257.5t-184 -103.5q-153 0 -153 148q0 156 72 263t178 107zM252 23q97 0 158 95.5t61 233.5q0 57 -30.5 91t-91.5 34q-93 0 -153.5 -99.5t-60.5 -238.5q0 -116 117 -116zM285 633l15 65h29l-15 -65h-29zM460 633l13 65h29l-15 -65
h-27z" />
    <glyph glyph-name="divide" unicode="&#xf7;" 
d="M116 234v34h444v-34h-444zM319 383v80h38v-80h-38zM319 39v80h38v-80h-38z" />
    <glyph glyph-name="oslash" unicode="&#xf8;" horiz-adv-x="492" 
d="M350 511q50 0 86 -17l69 110l27 -12l-72 -114q48 -39 48 -124q0 -154 -71 -257.5t-184 -103.5q-50 0 -87 16l-76 -122l-27 11l79 126q-42 36 -42 117q0 156 72 263t178 107zM253 25q97 0 158 95.5t61 233.5q0 58 -32 92l-255 -406q27 -15 68 -15zM350 479
q-93 0 -153.5 -99.5t-60.5 -238.5q0 -55 27 -84l125 198l129 208q-29 16 -67 16z" />
    <glyph glyph-name="ugrave" unicode="&#xf9;" horiz-adv-x="488" 
d="M284 721l160 -95l-18 -22l-160 92zM405 113q-98 -122 -185 -122q-53 0 -84 31t-31 82.5t19 135.5l61 260h34l-60 -258q-19 -78 -19 -125t23 -70t55.5 -23t61.5 15t52 37q50 45 75 79l11 15l77 330h35l-116 -500h-35z" />
    <glyph glyph-name="uacute" unicode="&#xfa;" horiz-adv-x="488" 
d="M405 113q-98 -122 -185 -122q-53 0 -84 31t-31 82.5t19 135.5l61 260h34l-60 -258q-19 -78 -19 -125t23 -70t55.5 -23t61.5 15t52 37q50 45 75 79l11 15l77 330h35l-116 -500h-35zM330 610l-5 25l203 95l6 -30z" />
    <glyph glyph-name="ucircumflex" unicode="&#xfb;" horiz-adv-x="488" 
d="M235 595l146 135h22l87 -135h-38l-64 101l-110 -101h-43zM405 113q-98 -122 -185 -122q-53 0 -84 31t-31 82.5t19 135.5l61 260h34l-60 -258q-19 -78 -19 -125t23 -70t55.5 -23t61.5 15t52 37q50 45 75 79l11 15l77 330h35l-116 -500h-35z" />
    <glyph glyph-name="udieresis" unicode="&#xfc;" horiz-adv-x="488" 
d="M270 633l15 65h34l-15 -65h-34zM450 633l13 65h34l-15 -65h-32zM405 113q-98 -122 -185 -122q-53 0 -84 31t-31 82.5t19 135.5l61 260h34l-60 -258q-19 -78 -19 -125t23 -70t55.5 -23t61.5 15t52 37q50 45 75 79l11 15l77 330h35l-116 -500h-35z" />
    <glyph glyph-name="yacute" unicode="&#xfd;" horiz-adv-x="448" 
d="M147 500h36l23 -468h40l248 468h38l-387 -728h-38l123 228h-58zM300 610l-5 25l203 95l6 -30z" />
    <glyph glyph-name="thorn" unicode="&#xfe;" horiz-adv-x="475" 
d="M378 509q118 0 118 -149q0 -49 -14 -100q-37 -137 -97 -203t-164 -66q-53 0 -83.5 5.5t-30.5 6.5l-55 -231h-33l226 956h34l-70 -290q38 31 86.5 51t82.5 20zM448 261q12 41 12 75.5t-5 64t-27 51t-51 21.5t-55.5 -8.5t-47.5 -20.5q-43 -23 -66 -42l-10 -7l-84 -356
l113 -12q88 0 137 54.5t84 179.5z" />
    <glyph glyph-name="ydieresis" unicode="&#xff;" horiz-adv-x="448" 
d="M248 633l15 65h34l-15 -65h-34zM428 633l13 65h34l-15 -65h-32zM147 500h36l23 -468h40l248 468h38l-387 -728h-38l123 228h-58z" />
    <glyph glyph-name="Amacron" unicode="&#x100;" horiz-adv-x="556" 
d="M333 845l5 26h272l-7 -26h-270zM32 0l371 700h89l38 -700h-36l-12 216h-299l-114 -216h-37zM423 667l-222 -419h279l-21 419h-36z" />
    <glyph glyph-name="amacron" unicode="&#x101;" horiz-adv-x="482" 
d="M215 -9q-120 0 -120 127q0 88 28 176t87 151.5t135 63.5q51 0 144 -15l31 -5l-76 -326q-11 -46 -25 -135l-4 -27l-33 -2q17 104 22 127q-4 -5 -11 -14.5t-28.5 -32.5t-43 -41t-51 -32.5t-55.5 -14.5zM479 462q-73 15 -136.5 15t-114 -60.5t-73.5 -140.5t-23 -158
q0 -47 21 -70.5t69 -23.5q54 0 147 102q21 23 33 40l12 16zM290 647l6 26h253l-7 -26h-252z" />
    <glyph glyph-name="Abreve" unicode="&#x102;" horiz-adv-x="556" 
d="M393 920q-3 -15 -3 -34.5t16.5 -36t58.5 -16.5t75 24t43 63h30q-14 -56 -55.5 -86.5t-97.5 -30.5q-100 0 -100 83q0 16 3 34h30zM32 0l371 700h89l38 -700h-36l-12 216h-299l-114 -216h-37zM423 667l-222 -419h279l-21 419h-36z" />
    <glyph glyph-name="abreve" unicode="&#x103;" horiz-adv-x="482" 
d="M215 -9q-120 0 -120 127q0 88 28 176t87 151.5t135 63.5q51 0 144 -15l31 -5l-76 -326q-11 -46 -25 -135l-4 -27l-33 -2q17 104 22 127q-4 -5 -11 -14.5t-28.5 -32.5t-43 -41t-51 -32.5t-55.5 -14.5zM479 462q-73 15 -136.5 15t-114 -60.5t-73.5 -140.5t-23 -158
q0 -47 21 -70.5t69 -23.5q54 0 147 102q21 23 33 40l12 16zM341 721q-5 -16 -5 -34.5t12 -36.5q20 -27 68 -27t78.5 27t41.5 71h28q-32 -126 -157 -126q-57 0 -82 37q-16 24 -16 47.5t4 41.5h28z" />
    <glyph glyph-name="Aogonek" unicode="&#x104;" horiz-adv-x="556" 
d="M530 0h-4q-35 -31 -68 -72t-33 -69q0 -24 32 -24l56 7l-4 -32q-36 -8 -62 -8q-62 0 -62 54q0 33 35.5 76.5t72.5 74.5l-11 209h-299l-114 -216h-37l371 700h89l38 -697v-3zM423 667l-222 -419h279l-21 419h-36z" />
    <glyph glyph-name="aogonek" unicode="&#x105;" horiz-adv-x="482" 
d="M332 -198q-62 0 -62 54q0 34 37 78.5t75 75.5l1 -1q11 72 21 117q-4 -5 -11 -14.5t-28.5 -32.5t-43 -41t-51 -32.5t-55.5 -14.5q-120 0 -120 127q0 88 28 176t87 151.5t135 63.5q51 0 144 -15l31 -5l-76 -326q-11 -46 -25 -135l-4 -27h-3q-34 -29 -68 -71t-34 -71
q0 -24 32 -24l56 7l-4 -32q-36 -8 -62 -8zM479 462q-73 15 -136.5 15t-114 -60.5t-73.5 -140.5t-23 -158q0 -47 21 -70.5t69 -23.5q54 0 147 102q21 23 33 40l12 16z" />
    <glyph glyph-name="Cacute" unicode="&#x106;" horiz-adv-x="510" 
d="M306 -9q-185 0 -185 199q0 143 55 275q62 150 166 211q59 33 127 33q74 0 139 -14l24 -5l-8 -32q-87 17 -159.5 17t-133 -47.5t-97.5 -121.5q-75 -153 -75 -316q0 -85 36.5 -125t115.5 -40q76 0 140 14l23 5l-1 -33q-87 -20 -167 -20zM428 798l-8 25l204 96l9 -29z" />
    <glyph glyph-name="cacute" unicode="&#x107;" horiz-adv-x="403" 
d="M363 509q48 0 93 -8l16 -3l-9 -31q-57 10 -100 10q-75 0 -128 -51q-99 -97 -99 -294q0 -54 28.5 -81.5t92.5 -27.5q37 0 95 14l20 5v-32q-67 -19 -123 -19q-150 0 -150 138q0 218 116 323q62 57 148 57zM312 610l-5 25l203 95l6 -30z" />
    <glyph glyph-name="Ccircumflex" unicode="&#x108;" horiz-adv-x="510" 
d="M306 -9q-185 0 -185 199q0 143 55 275q62 150 166 211q59 33 127 33q74 0 139 -14l24 -5l-8 -32q-87 17 -159.5 17t-133 -47.5t-97.5 -121.5q-75 -153 -75 -316q0 -85 36.5 -125t115.5 -40q76 0 140 14l23 5l-1 -33q-87 -20 -167 -20zM364 803l156 128h14l97 -128h-34
l-73 97l-119 -97h-41z" />
    <glyph glyph-name="ccircumflex" unicode="&#x109;" horiz-adv-x="403" 
d="M363 509q48 0 93 -8l16 -3l-9 -31q-57 10 -100 10q-75 0 -128 -51q-99 -97 -99 -294q0 -54 28.5 -81.5t92.5 -27.5q37 0 95 14l20 5v-32q-67 -19 -123 -19q-150 0 -150 138q0 218 116 323q62 57 148 57zM248 595l146 135h14l87 -135h-34l-64 101l-110 -101h-39z" />
    <glyph glyph-name="Cdotaccent" unicode="&#x10a;" horiz-adv-x="510" 
d="M306 -9q-185 0 -185 199q0 143 55 275q62 150 166 211q59 33 127 33q74 0 139 -14l24 -5l-8 -32q-87 17 -159.5 17t-133 -47.5t-97.5 -121.5q-75 -153 -75 -316q0 -85 36.5 -125t115.5 -40q76 0 140 14l23 5l-1 -33q-87 -20 -167 -20zM480 807l12 58h28l-11 -58h-29z" />
    <glyph glyph-name="cdotaccent" unicode="&#x10b;" horiz-adv-x="403" 
d="M363 509q48 0 93 -8l16 -3l-9 -31q-57 10 -100 10q-75 0 -128 -51q-99 -97 -99 -294q0 -54 28.5 -81.5t92.5 -27.5q37 0 95 14l20 5v-32q-67 -19 -123 -19q-150 0 -150 138q0 218 116 323q62 57 148 57zM356 620l14 58h29l-13 -58h-30z" />
    <glyph glyph-name="Ccaron" unicode="&#x10c;" horiz-adv-x="510" 
d="M306 -9q-185 0 -185 199q0 143 55 275q62 150 166 211q59 33 127 33q74 0 139 -14l24 -5l-8 -32q-87 17 -159.5 17t-133 -47.5t-97.5 -121.5q-75 -153 -75 -316q0 -85 36.5 -125t115.5 -40q76 0 140 14l23 5l-1 -33q-87 -20 -167 -20zM658 931l-155 -128h-17l-100 128h35
l77 -99l120 99h40z" />
    <glyph glyph-name="ccaron" unicode="&#x10d;" horiz-adv-x="403" 
d="M379 595h-14l-86 135h32l66 -105l115 105h39zM363 509q48 0 93 -8l16 -3l-9 -31q-57 10 -100 10q-75 0 -128 -51q-99 -97 -99 -294q0 -54 28.5 -81.5t92.5 -27.5q37 0 95 14l20 5v-32q-67 -19 -123 -19q-150 0 -150 138q0 218 116 323q62 57 148 57z" />
    <glyph glyph-name="Dcaron" unicode="&#x10e;" horiz-adv-x="608" 
d="M323 0h-237l162 700h228q91 0 130.5 -50t39.5 -155q0 -166 -78 -323q-37 -75 -101.5 -123.5t-143.5 -48.5zM576.5 626q-31.5 41 -107.5 41h-193l-145 -634h201q64 0 118 45.5t87.5 116t52 149.5t18.5 160t-31.5 122zM613 931l-155 -128h-17l-100 128h35l77 -99l120 99h40
z" />
    <glyph glyph-name="dcaron" unicode="&#x10f;" horiz-adv-x="494" 
d="M666 700l-51 -220h-32l51 220h32zM209 -9q-114 0 -114 126q0 90 28.5 178t87 151t132.5 63q63 0 123 -12l20 -4l55 237h35l-169 -730h-34l26 114q-4 -5 -10.5 -13.5t-27.5 -29.5t-42 -37t-51.5 -29.5t-58.5 -13.5zM479 462q-70 15 -135 15t-115.5 -60.5t-73.5 -141
t-23 -158.5q0 -94 87 -94q24 0 53 15.5t53 37.5q49 45 75 80l12 16z" />
    <glyph glyph-name="Dcroat" unicode="&#x110;" horiz-adv-x="610" 
d="M325 0h-237l77 332h-76l7 38h78l76 330h228q91 0 130.5 -50t39.5 -142t-20 -176t-57.5 -159.5t-102 -124t-143.5 -48.5zM591.5 344q18.5 79 18.5 160t-31.5 122t-107.5 41h-193l-68 -297h162l-9 -38h-162l-68 -299h201q64 0 118 45.5t87.5 116t52 149.5z" />
    <glyph glyph-name="dcroat" unicode="&#x111;" horiz-adv-x="481" 
d="M209 -9q-114 0 -114 126q0 90 28.5 178t87 151t132.5 63q63 0 123 -12l20 -4l29 124h-161l8 36h161l18 77h35l-18 -77h57l-9 -36h-56l-143 -617h-34l26 114q-4 -5 -10.5 -13.5t-27.5 -29.5t-42 -37t-51.5 -29.5t-58.5 -13.5zM479 462q-70 15 -135 15t-115.5 -60.5
t-73.5 -141t-23 -158.5q0 -94 87 -94q24 0 53 15.5t53 37.5q49 45 75 80l12 16z" />
    <glyph glyph-name="Emacron" unicode="&#x112;" horiz-adv-x="510" 
d="M325 835l5 26h272l-7 -26h-270zM86 0l162 700h377l-8 -33h-341l-67 -291h285l-8 -33h-285l-71 -310h341l-8 -33h-377z" />
    <glyph glyph-name="emacron" unicode="&#x113;" horiz-adv-x="452" 
d="M163.5 54.5q29.5 -29.5 72.5 -29.5q74 0 149 22l24 7v-33q-86 -30 -172 -30q-64 0 -102 36.5t-38 102.5t16.5 131t48 121.5t84 91.5t118.5 35q130 0 130 -103q0 -85 -69 -120.5t-213 -35.5h-63q-15 -60 -15 -113t29.5 -82.5zM221 282q123 0 180 26.5t57 97.5t-95 71
q-146 0 -207 -195h65zM280 647l6 26h253l-7 -26h-252z" />
    <glyph glyph-name="Ebreve" unicode="&#x114;" horiz-adv-x="510" 
d="M384 921q-3 -15 -3 -34.5t16.5 -36t58.5 -16.5t75 24t43 63h30q-14 -56 -55.5 -86.5t-97.5 -30.5q-100 0 -100 83q0 16 3 34h30zM86 0l162 700h377l-8 -33h-341l-67 -291h285l-8 -33h-285l-71 -310h341l-8 -33h-377z" />
    <glyph glyph-name="ebreve" unicode="&#x115;" horiz-adv-x="452" 
d="M163.5 54.5q29.5 -29.5 72.5 -29.5q74 0 149 22l24 7v-33q-86 -30 -172 -30q-64 0 -102 36.5t-38 102.5t16.5 131t48 121.5t84 91.5t118.5 35q130 0 130 -103q0 -85 -69 -120.5t-213 -35.5h-63q-15 -60 -15 -113t29.5 -82.5zM221 282q123 0 180 26.5t57 97.5t-95 71
q-146 0 -207 -195h65zM316 721q-5 -16 -5 -34.5t13 -36.5q19 -27 67 -27t78.5 27t41.5 71h28q-32 -126 -157 -126q-57 0 -82 37q-16 24 -16 47.5t4 41.5h28z" />
    <glyph glyph-name="Edotaccent" unicode="&#x116;" horiz-adv-x="510" 
d="M451 869l12 58h28l-11 -58h-29zM86 0l162 700h377l-8 -33h-341l-67 -291h285l-8 -33h-285l-71 -310h341l-8 -33h-377z" />
    <glyph glyph-name="edotaccent" unicode="&#x117;" horiz-adv-x="452" 
d="M163.5 54.5q29.5 -29.5 72.5 -29.5q74 0 149 22l24 7v-33q-86 -30 -172 -30q-64 0 -102 36.5t-38 102.5t16.5 131t48 121.5t84 91.5t118.5 35q130 0 130 -103q0 -85 -69 -120.5t-213 -35.5h-63q-15 -60 -15 -113t29.5 -82.5zM221 282q123 0 180 26.5t57 97.5t-95 71
q-146 0 -207 -195h65zM360 620l14 58h29l-13 -58h-30z" />
    <glyph glyph-name="Eogonek" unicode="&#x118;" horiz-adv-x="510" 
d="M334 -141q0 -24 32 -24l56 7l-4 -32q-36 -8 -62 -8q-62 0 -62 54q0 31 31.5 71.5t68.5 72.5h-308l162 700h377l-8 -33h-341l-67 -291h285l-8 -33h-285l-71 -310h341l-8 -33h-28q-35 -31 -68 -72t-33 -69z" />
    <glyph glyph-name="eogonek" unicode="&#x119;" horiz-adv-x="452" 
d="M321 -178q-62 0 -62 54q0 50 81 126q-57 -11 -112 -11t-93 36.5t-38 102.5t16.5 131t48 121.5t84 91.5t118.5 35q130 0 130 -103q0 -85 -69 -120.5t-213 -35.5h-63q-15 -60 -15 -113t29.5 -82.5t72.5 -29.5q74 0 149 22l24 7v-33l-12 -4q-34 -29 -66 -70t-32 -68
q0 -24 32 -24l56 7l-4 -32q-36 -8 -62 -8zM221 282q123 0 180 26.5t57 97.5t-95 71q-146 0 -207 -195h65z" />
    <glyph glyph-name="Ecaron" unicode="&#x11a;" horiz-adv-x="510" 
d="M610 931l-155 -128h-17l-100 128h35l77 -99l120 99h40zM86 0l162 700h377l-8 -33h-341l-67 -291h285l-8 -33h-285l-71 -310h341l-8 -33h-377z" />
    <glyph glyph-name="ecaron" unicode="&#x11b;" horiz-adv-x="452" 
d="M163.5 54.5q29.5 -29.5 72.5 -29.5q74 0 149 22l24 7v-33q-86 -30 -172 -30q-64 0 -102 36.5t-38 102.5t16.5 131t48 121.5t84 91.5t118.5 35q130 0 130 -103q0 -85 -69 -120.5t-213 -35.5h-63q-15 -60 -15 -113t29.5 -82.5zM221 282q123 0 180 26.5t57 97.5t-95 71
q-146 0 -207 -195h65zM396 595h-14l-86 135h32l66 -105l115 105h39z" />
    <glyph glyph-name="Gcircumflex" unicode="&#x11c;" horiz-adv-x="575" 
d="M365 795l146 135h22l87 -135h-38l-64 101l-110 -101h-43zM318 -9q-197 0 -197 184q0 156 54 291q28 70 67.5 124t99 86.5t129.5 32.5q79 0 167 -19l27 -6l-10 -30q-102 22 -192 22q-61 0 -112 -32t-86 -84t-59 -118q-47 -125 -47 -267q0 -151 161 -151q63 0 136 16l25 6
l62 267h-132l8 33h168l-76 -327q-102 -28 -193 -28z" />
    <glyph glyph-name="gcircumflex" unicode="&#x11d;" horiz-adv-x="458" 
d="M329 509q49 0 79 -15l149 6l-8 -35h-110q25 -32 25 -72.5t-12 -75t-36 -66.5t-67 -52.5t-97 -20.5l-26 2q-41 -53 -41 -86q0 -20 18.5 -28t91 -16t105.5 -33.5t33 -78.5q0 -70 -71 -123.5t-185 -53.5q-70 0 -111.5 36t-41.5 91q0 90 139 165q-13 11 -13 34t13 47.5
t25 39.5l13 14q-70 28 -70 116q0 74 53.5 139.5t144.5 65.5zM98.5 -29q-37.5 -37 -37.5 -79.5t32 -70.5t92 -28q87 0 149 41.5t62 103.5q0 39 -25.5 55.5t-90.5 23t-91 17.5q-53 -26 -90.5 -63zM260 210q43 0 77 17.5t53 44.5q38 52 38 103.5t-23.5 76.5t-79.5 25
q-72 0 -115 -56t-43 -115q0 -96 93 -96zM231 595l146 135h14l87 -135h-34l-64 101l-110 -101h-39z" />
    <glyph glyph-name="Gbreve" unicode="&#x11e;" horiz-adv-x="575" 
d="M430 896q0 -31 19.5 -50.5t61.5 -19.5t74 26.5t43 68.5h32q-15 -58 -59.5 -94.5t-98 -36.5t-80 28t-26.5 70q0 18 4 33h33q-3 -12 -3 -25zM318 -9q-197 0 -197 184q0 156 54 291q28 70 67.5 124t99 86.5t129.5 32.5q79 0 167 -19l27 -6l-10 -30q-102 22 -192 22
q-61 0 -112 -32t-86 -84t-59 -118q-47 -125 -47 -267q0 -151 161 -151q63 0 136 16l25 6l62 267h-132l8 33h168l-76 -327q-102 -28 -193 -28z" />
    <glyph glyph-name="gbreve" unicode="&#x11f;" horiz-adv-x="458" 
d="M329 509q49 0 79 -15l149 6l-8 -35h-110q25 -32 25 -72.5t-12 -75t-36 -66.5t-67 -52.5t-97 -20.5l-26 2q-41 -53 -41 -86q0 -20 18.5 -28t91 -16t105.5 -33.5t33 -78.5q0 -70 -71 -123.5t-185 -53.5q-70 0 -111.5 36t-41.5 91q0 90 139 165q-13 11 -13 34t13 47.5
t25 39.5l13 14q-70 28 -70 116q0 74 53.5 139.5t144.5 65.5zM98.5 -29q-37.5 -37 -37.5 -79.5t32 -70.5t92 -28q87 0 149 41.5t62 103.5q0 39 -25.5 55.5t-90.5 23t-91 17.5q-53 -26 -90.5 -63zM260 210q43 0 77 17.5t53 44.5q38 52 38 103.5t-23.5 76.5t-79.5 25
q-72 0 -115 -56t-43 -115q0 -96 93 -96zM322 721q-5 -16 -5 -34.5t13 -36.5q19 -27 67 -27t78.5 27t41.5 71h28q-32 -126 -157 -126q-57 0 -82 37q-16 24 -16 47.5t4 41.5h28z" />
    <glyph glyph-name="Gdotaccent" unicode="&#x120;" horiz-adv-x="575" 
d="M495 840l14 58h33l-13 -58h-34zM318 -9q-197 0 -197 184q0 156 54 291q28 70 67.5 124t99 86.5t129.5 32.5q79 0 167 -19l27 -6l-10 -30q-102 22 -192 22q-61 0 -112 -32t-86 -84t-59 -118q-47 -125 -47 -267q0 -151 161 -151q63 0 136 16l25 6l62 267h-132l8 33h168
l-76 -327q-102 -28 -193 -28z" />
    <glyph glyph-name="gdotaccent" unicode="&#x121;" horiz-adv-x="458" 
d="M329 509q49 0 79 -15l149 6l-8 -35h-110q25 -32 25 -72.5t-12 -75t-36 -66.5t-67 -52.5t-97 -20.5l-26 2q-41 -53 -41 -86q0 -20 18.5 -28t91 -16t105.5 -33.5t33 -78.5q0 -70 -71 -123.5t-185 -53.5q-70 0 -111.5 36t-41.5 91q0 90 139 165q-13 11 -13 34t13 47.5
t25 39.5l13 14q-70 28 -70 116q0 74 53.5 139.5t144.5 65.5zM98.5 -29q-37.5 -37 -37.5 -79.5t32 -70.5t92 -28q87 0 149 41.5t62 103.5q0 39 -25.5 55.5t-90.5 23t-91 17.5q-53 -26 -90.5 -63zM260 210q43 0 77 17.5t53 44.5q38 52 38 103.5t-23.5 76.5t-79.5 25
q-72 0 -115 -56t-43 -115q0 -96 93 -96zM344 620l14 58h29l-13 -58h-30z" />
    <glyph glyph-name="Gcommaaccent" unicode="&#x122;" horiz-adv-x="575" 
d="M318 -9q-197 0 -197 184q0 156 54 291q28 70 67.5 124t99 86.5t129.5 32.5q79 0 167 -19l27 -6l-10 -30q-102 22 -192 22q-61 0 -112 -32t-86 -84t-59 -118q-47 -125 -47 -267q0 -151 161 -151q63 0 136 16l25 6l62 267h-132l8 33h168l-76 -327q-102 -28 -193 -28z
M274 -73h34l-88 -192h-26z" />
    <glyph glyph-name="gcommaaccent" unicode="&#x123;" horiz-adv-x="458" 
d="M419 780h27l-81 -192h-34zM329 509q49 0 79 -15l149 6l-8 -35h-110q25 -32 25 -72.5t-12 -75t-36 -66.5t-67 -52.5t-97 -20.5l-26 2q-41 -53 -41 -86q0 -20 18.5 -28t91 -16t105.5 -33.5t33 -78.5q0 -70 -71 -123.5t-185 -53.5q-70 0 -111.5 36t-41.5 91q0 90 139 165
q-13 11 -13 34t13 47.5t25 39.5l13 14q-70 28 -70 116q0 74 53.5 139.5t144.5 65.5zM98.5 -29q-37.5 -37 -37.5 -79.5t32 -70.5t92 -28q87 0 149 41.5t62 103.5q0 39 -25.5 55.5t-90.5 23t-91 17.5q-53 -26 -90.5 -63zM260 210q43 0 77 17.5t53 44.5q38 52 38 103.5
t-23.5 76.5t-79.5 25q-72 0 -115 -56t-43 -115q0 -96 93 -96z" />
    <glyph glyph-name="Hcircumflex" unicode="&#x124;" horiz-adv-x="626" 
d="M504 0l77 334h-382l-77 -334h-36l162 700h36l-77 -333h382l77 333h36l-162 -700h-36zM354 803l156 128h14l97 -128h-34l-73 97l-119 -97h-41z" />
    <glyph glyph-name="hcircumflex" unicode="&#x125;" horiz-adv-x="489" 
d="M198 385q99 124 186 124q54 0 84.5 -31t30.5 -84t-20 -137l-60 -257h-34l60 258q19 78 19 126q0 92 -86 92q-25 0 -54 -15t-52 -37q-46 -43 -76 -81l-11 -15l-76 -328h-35l169 730h35zM302 773l156 128h14l97 -128h-34l-73 97l-119 -97h-41z" />
    <glyph glyph-name="Hbar" unicode="&#x126;" horiz-adv-x="645" 
d="M126 517l7 36h90l34 147h34l-34 -147h386l34 147h34l-34 -147h89l-10 -36h-87l-119 -517h-34l77 334h-386l-77 -334h-34l119 517h-89zM215 370h386l34 147h-387z" />
    <glyph glyph-name="hbar" unicode="&#x127;" horiz-adv-x="489" 
d="M198 385q99 124 186 124q54 0 84.5 -31t30.5 -84t-20 -137l-60 -257h-34l60 258q19 78 19 126q0 92 -86 92q-25 0 -54 -15t-52 -37q-46 -43 -76 -81l-11 -15l-76 -328h-35l141 611h-57l7 32h58l20 87h35l-20 -87h160l-8 -32h-160z" />
    <glyph glyph-name="Itilde" unicode="&#x128;" horiz-adv-x="208" 
d="M454 875q-63 -57 -87.5 -57t-75 32t-61.5 32q-18 0 -73 -42l-18 -13l-1 28q66 57 92.5 57t76.5 -31.5t61 -31.5q19 0 66 38l16 13zM86 0l162 700h36l-162 -700h-36z" />
    <glyph glyph-name="itilde" unicode="&#x129;" horiz-adv-x="182" 
d="M73 0l116 500h35l-116 -500h-35zM298 630q-18 0 -66 25.5t-58 25.5q-18 0 -64 -34l-15 -11l-2 31q58 46 88 46q19 0 65 -25.5t56 -25.5q19 0 57 30l13 11l5 -30q-50 -43 -79 -43z" />
    <glyph glyph-name="Imacron" unicode="&#x12a;" horiz-adv-x="208" 
d="M155 845l5 26h272l-7 -26h-270zM86 0l162 700h36l-162 -700h-36z" />
    <glyph glyph-name="imacron" unicode="&#x12b;" horiz-adv-x="182" 
d="M73 0l116 500h35l-116 -500h-35zM107 647l6 26h253l-7 -26h-252z" />
    <glyph glyph-name="Ibreve" unicode="&#x12c;" horiz-adv-x="208" 
d="M218 920q-3 -15 -3 -34.5t16.5 -36t58.5 -16.5t75 24t43 63h30q-14 -56 -55.5 -86.5t-97.5 -30.5q-100 0 -100 83q0 16 3 34h30zM86 0l162 700h36l-162 -700h-36z" />
    <glyph glyph-name="ibreve" unicode="&#x12d;" horiz-adv-x="182" 
d="M73 0l116 500h35l-116 -500h-35zM157 721q-5 -16 -5 -34.5t12 -36.5q20 -27 68 -27t78.5 27t41.5 71h28q-32 -126 -157 -126q-57 0 -82 37q-16 24 -16 47.5t4 41.5h28z" />
    <glyph glyph-name="Iogonek" unicode="&#x12e;" horiz-adv-x="208" 
d="M37 -198q-62 0 -62 54q0 34 37.5 78.5t75.5 74.5l160 691h36l-162 -700q-36 -28 -71.5 -70t-35.5 -71q0 -24 32 -24l56 7l-4 -32q-36 -8 -62 -8z" />
    <glyph glyph-name="iogonek" unicode="&#x12f;" horiz-adv-x="183" 
d="M27 -198q-62 0 -62 54q0 34 37 79t74 74l114 491h35l-116 -500q-35 -30 -69.5 -71t-34.5 -70q0 -24 32 -24l56 7l-4 -32q-36 -8 -62 -8zM221 638l14 60h36l-14 -60h-36z" />
    <glyph glyph-name="Idotaccent" unicode="&#x130;" horiz-adv-x="208" 
d="M282 869l12 58h28l-11 -58h-29zM86 0l162 700h36l-162 -700h-36z" />
    <glyph glyph-name="dotlessi" unicode="&#x131;" horiz-adv-x="182" 
d="M73 0l116 500h35l-116 -500h-35z" />
    <glyph glyph-name="Jcircumflex" unicode="&#x134;" horiz-adv-x="253" 
d="M332 700l-137 -593q-14 -61 -24 -90t-30.5 -52t-50.5 -29.5t-83 -6.5l6 33q75 0 100 27t48 127l135 584h36zM194 803l156 128h14l97 -128h-34l-73 97l-119 -97h-41z" />
    <glyph glyph-name="jcircumflex" unicode="&#x135;" horiz-adv-x="182" 
d="M73 0l116 500h35l-116 -500q-27 -115 -57 -151.5t-138 -87.5l-12 30q98 49 124 80.5t48 128.5zM95 595l146 135h14l87 -135h-34l-64 101l-110 -101h-39z" />
    <glyph glyph-name="Kcommaaccent" unicode="&#x136;" horiz-adv-x="508" 
d="M239 -73h34l-88 -192h-26zM448 0l-134 329h-116l-76 -329h-36l162 700h36l-79 -338h110l290 338h43l-304 -354l142 -346h-38z" />
    <glyph glyph-name="kcommaaccent" unicode="&#x137;" horiz-adv-x="431" 
d="M103 -265l80 192h34l-88 -192h-26zM109 0h-35l169 730h35l-101 -437h84l217 207h46l-236 -226l113 -274h-39l-109 261h-84z" />
    <glyph glyph-name="Lacute" unicode="&#x139;" horiz-adv-x="441" 
d="M326 798l-8 25l204 96l9 -29zM432 0h-346l162 700h36l-154 -667h310z" />
    <glyph glyph-name="lacute" unicode="&#x13a;" horiz-adv-x="195" 
d="M80 0l169 730h35l-169 -730h-35zM258 798l-8 25l204 96l9 -29z" />
    <glyph glyph-name="Lcommaaccent" unicode="&#x13b;" horiz-adv-x="441" 
d="M235 -73h34l-88 -192h-26zM432 0h-346l162 700h36l-154 -667h310z" />
    <glyph glyph-name="lcommaaccent" unicode="&#x13c;" horiz-adv-x="195" 
d="M64 -73h34l-88 -192h-26zM80 0l169 730h35l-169 -730h-35z" />
    <glyph glyph-name="Lcaron" unicode="&#x13d;" horiz-adv-x="445" 
d="M530 700l-51 -220h-32l51 220h32zM432 0h-346l162 700h36l-154 -667h310z" />
    <glyph glyph-name="lcaron" unicode="&#x13e;" horiz-adv-x="201" 
d="M373 700l-51 -220h-32l51 220h32zM80 0l169 730h35l-169 -730h-35z" />
    <glyph glyph-name="Lslash" unicode="&#x141;" horiz-adv-x="442" 
d="M434 0h-346l71 307l-70 -44q-1 0 -1 2l-13 28l94 59l81 348h36l-74 -321l182 114l11 -30l-204 -129l-69 -301h310z" />
    <glyph glyph-name="lslash" unicode="&#x142;" horiz-adv-x="256" 
d="M107 0l73 317l-84 -52l-15 27l109 68l86 370h35l-80 -345l88 55l13 -29l-111 -69l-79 -342h-35z" />
    <glyph glyph-name="Nacute" unicode="&#x143;" horiz-adv-x="617" 
d="M411 798l-8 25l204 96l9 -29zM86 0l162 700h81l150 -667h24l154 667h36l-162 -700h-79l-151 667h-25l-154 -667h-36z" />
    <glyph glyph-name="nacute" unicode="&#x144;" horiz-adv-x="488" 
d="M322.5 460q-29.5 -16 -51.5 -35t-47.5 -47.5t-38.5 -47.5l-77 -330h-35l116 500h35l-26 -113l10 13q22 29 67 66q22 18 51.5 30.5t56.5 12.5q54 0 84.5 -31t30.5 -82.5t-19 -135.5l-61 -260h-34l60 258q19 78 19 125.5t-22 70t-55.5 22.5t-63 -16zM308 610l-5 25l203 95
l6 -30z" />
    <glyph glyph-name="Ncommaaccent" unicode="&#x145;" horiz-adv-x="617" 
d="M281 -73h34l-88 -192h-26zM86 0l162 700h81l150 -667h24l154 667h36l-162 -700h-79l-151 667h-25l-154 -667h-36z" />
    <glyph glyph-name="ncommaaccent" unicode="&#x146;" horiz-adv-x="488" 
d="M198 387q98 122 185 122q54 0 84.5 -31t30.5 -82.5t-19 -135.5l-61 -260h-34l60 258q19 78 19 126q0 92 -86 92q-25 0 -54 -15t-53 -37q-49 -45 -74 -79l-11 -15l-77 -330h-35l116 500h35zM145 -265l80 192h34l-88 -192h-26z" />
    <glyph glyph-name="Ncaron" unicode="&#x147;" horiz-adv-x="617" 
d="M654 926l-155 -128h-17l-100 128h35l77 -99l120 99h40zM86 0l162 700h81l150 -667h24l154 667h36l-162 -700h-79l-151 667h-25l-154 -667h-36z" />
    <glyph glyph-name="ncaron" unicode="&#x148;" horiz-adv-x="488" 
d="M198 387q98 122 185 122q54 0 84.5 -31t30.5 -82.5t-19 -135.5l-61 -260h-34l60 258q19 78 19 126q0 92 -86 92q-25 0 -54 -15t-53 -37q-49 -45 -74 -79l-11 -15l-77 -330h-35l116 500h35zM386 595h-14l-86 135h32l66 -105l115 105h39z" />
    <glyph glyph-name="Eng" unicode="&#x14a;" horiz-adv-x="617" 
d="M86 0l162 700h83l149 -667h24l154 667h35l-160 -693q-20 -88 -36.5 -118t-34.5 -39q-40 -21 -116 -21l6 33q72 0 98 25t46 113h-46l-150 667h-25l-154 -667h-35z" />
    <glyph glyph-name="eng" unicode="&#x14b;" horiz-adv-x="485" 
d="M285 481.5q49 27.5 104.5 27.5t82.5 -25.5t27 -89.5q0 -36 -24 -136l-61 -263q-20 -86 -58 -129t-135 -94l-6 35q86 47 118.5 86.5t53.5 126.5l56 238q22 96 22 137.5t-21 59.5t-65 18t-88 -22t-69 -44l-26 -22l-90 -385h-33l117 500h34l-20 -77q32 31 81 58.5z" />
    <glyph glyph-name="Omacron" unicode="&#x14c;" horiz-adv-x="636" 
d="M198.5 63q39.5 -39 124.5 -39t146 45q81 61 124 184.5t43 250.5q0 89 -42 130.5t-120.5 41.5t-137.5 -43q-83 -61 -130 -188t-47 -249q0 -94 39.5 -133zM631 246q-43 -123 -122 -189t-185 -66t-154 46.5t-48 166t42.5 239.5t120.5 193t181.5 73t155.5 -50t52 -156
q0 -134 -43 -257zM374 835l5 26h272l-7 -26h-270z" />
    <glyph glyph-name="omacron" unicode="&#x14d;" horiz-adv-x="493" 
d="M349 509q158 0 158 -157q0 -154 -71 -257.5t-184 -103.5q-153 0 -153 148q0 156 72 263t178 107zM252 23q97 0 158 95.5t61 233.5q0 57 -30.5 91t-91.5 34q-93 0 -153.5 -99.5t-60.5 -238.5q0 -116 117 -116zM259 647l6 26h253l-7 -26h-252z" />
    <glyph glyph-name="Obreve" unicode="&#x14e;" horiz-adv-x="636" 
d="M429 921q-3 -15 -3 -34.5t16.5 -36t58.5 -16.5t75 24t43 63h30q-14 -56 -55.5 -86.5t-97.5 -30.5q-100 0 -100 83q0 16 3 34h30zM198.5 63q39.5 -39 124.5 -39t146 45q81 61 124 184.5t43 250.5q0 89 -42 130.5t-120.5 41.5t-137.5 -43q-83 -61 -130 -188t-47 -249
q0 -94 39.5 -133zM631 246q-43 -123 -122 -189t-185 -66t-154 46.5t-48 166t42.5 239.5t120.5 193t181.5 73t155.5 -50t52 -156q0 -134 -43 -257z" />
    <glyph glyph-name="obreve" unicode="&#x14f;" horiz-adv-x="493" 
d="M349 509q158 0 158 -157q0 -154 -71 -257.5t-184 -103.5q-153 0 -153 148q0 156 72 263t178 107zM252 23q97 0 158 95.5t61 233.5q0 57 -30.5 91t-91.5 34q-93 0 -153.5 -99.5t-60.5 -238.5q0 -116 117 -116zM318 721q-5 -16 -5 -34.5t13 -36.5q19 -27 67 -27t78.5 27
t41.5 71h28q-32 -126 -157 -126q-57 0 -82 37q-16 24 -16 47.5t4 41.5h28z" />
    <glyph glyph-name="Ohungarumlaut" unicode="&#x150;" horiz-adv-x="636" 
d="M547 792l-4 24l199 86l8 -23zM368 793l-6 23l203 87l4 -24zM198.5 63q39.5 -39 124.5 -39t146 45q81 61 124 184.5t43 250.5q0 89 -42 130.5t-120.5 41.5t-137.5 -43q-83 -61 -130 -188t-47 -249q0 -94 39.5 -133zM631 246q-43 -123 -122 -189t-185 -66t-154 46.5
t-48 166t42.5 239.5t120.5 193t181.5 73t155.5 -50t52 -156q0 -134 -43 -257z" />
    <glyph glyph-name="ohungarumlaut" unicode="&#x151;" horiz-adv-x="493" 
d="M349 509q158 0 158 -157q0 -154 -71 -257.5t-184 -103.5q-153 0 -153 148q0 156 72 263t178 107zM252 23q97 0 158 95.5t61 233.5q0 57 -30.5 91t-91.5 34q-93 0 -153.5 -99.5t-60.5 -238.5q0 -116 117 -116zM431 594l-11 25l178 105l12 -26zM257 594l-11 25l177 105
l12 -26z" />
    <glyph glyph-name="OE" unicode="&#x152;" horiz-adv-x="876" 
d="M305 -9q-100 0 -145 45t-45 135q0 68 25 174q44 183 120.5 273.5t213.5 90.5q56 0 146 -9h372l-7 -38h-338l-69 -283h281l-7 -38l-281 2l-72 -305h338l-10 -39h-371q-98 -8 -151 -8zM313 29q55 0 150 9l148 626q-61 7 -145 7q-122 0 -186 -78.5t-103 -245.5
q-25 -105 -25 -175t37.5 -106.5t123.5 -36.5z" />
    <glyph glyph-name="oe" unicode="&#x153;" horiz-adv-x="826" 
d="M734 34l29 2l-5 -36q-108 -9 -178 -9q-121 0 -134 107q-29 -56 -76 -81.5t-124 -25.5t-114 28.5t-37 90.5t21 151q32 135 88.5 191.5t165.5 56.5q135 0 144 -120q61 120 201.5 120t140.5 -137q0 -44 -15 -104l-9 -34l-334 2q-17 -68 -17 -112.5t25.5 -70.5t89 -26
t138.5 7zM159.5 49q28.5 -22 83 -22t85.5 11t51 28t37 50q26 52 44.5 127t18.5 108.5t-5 52.5q-18 69 -108.5 69t-137 -47t-72 -153.5t-25.5 -154t28.5 -69.5zM803 268q15 60 15 108q0 97 -110 97q-154 0 -202 -203z" />
    <glyph glyph-name="Racute" unicode="&#x154;" horiz-adv-x="568" 
d="M629 560q0 -135 -69 -200q-58 -55 -125 -68l89 -292h-36l-88 288h-211l-67 -288h-36l162 700h222q159 0 159 -140zM591 551q0 64 -30.5 90t-98.5 26h-186l-80 -346h187q94 0 151 63t57 167zM374 798l-8 25l204 96l9 -29z" />
    <glyph glyph-name="racute" unicode="&#x155;" horiz-adv-x="304" 
d="M73 0l117 500h34l-17 -76q100 63 197 86l-8 -35q-64 -16 -164 -69l-33 -17l-90 -389h-36zM212 610l-5 25l203 95l6 -30z" />
    <glyph glyph-name="Rcommaaccent" unicode="&#x156;" horiz-adv-x="568" 
d="M186 -265l80 192h34l-88 -192h-26zM470 700q80 0 119.5 -34.5t39.5 -105.5t-19 -121t-50 -79q-58 -55 -125 -68l89 -292h-36l-88 288h-211l-67 -288h-36l162 700h222zM591 551q0 64 -30.5 90t-98.5 26h-186l-80 -346h187q94 0 151 63t57 167z" />
    <glyph glyph-name="rcommaaccent" unicode="&#x157;" horiz-adv-x="304" 
d="M73 0l117 500h34l-17 -76q100 63 197 86l-8 -35q-64 -16 -164 -69l-33 -17l-90 -389h-36zM62 -73h34l-88 -192h-26z" />
    <glyph glyph-name="Rcaron" unicode="&#x158;" horiz-adv-x="568" 
d="M604 926l-155 -128h-17l-100 128h35l77 -99l120 99h40zM629 560q0 -135 -69 -200q-58 -55 -125 -68l89 -292h-36l-88 288h-211l-67 -288h-36l162 700h222q159 0 159 -140zM591 551q0 64 -30.5 90t-98.5 26h-186l-80 -346h187q94 0 151 63t57 167z" />
    <glyph glyph-name="rcaron" unicode="&#x159;" horiz-adv-x="304" 
d="M73 0l117 500h34l-17 -76q100 63 197 86l-8 -35q-64 -16 -164 -69l-33 -17l-90 -389h-36zM303 595h-14l-86 135h32l66 -105l115 105h39z" />
    <glyph glyph-name="Sacute" unicode="&#x15a;" horiz-adv-x="502" 
d="M415 676q-97 0 -151.5 -46.5t-54.5 -137.5q0 -48 30.5 -68.5t111.5 -44.5t114 -53t33 -93q0 -111 -65.5 -176.5t-176.5 -65.5q-85 0 -166 13l-30 4l7 33q118 -17 203 -17t137.5 56.5t52.5 151.5q0 50 -25 71.5t-105.5 44t-119 51.5t-38.5 93q0 106 67.5 161.5t182.5 55.5
q66 0 146 -16l25 -5l-6 -30q-102 18 -172 18zM360 798l-8 25l204 96l9 -29z" />
    <glyph glyph-name="sacute" unicode="&#x15b;" horiz-adv-x="427" 
d="M470 464q-89 13 -153.5 13t-105.5 -38t-41 -91q0 -30 21 -44.5t91.5 -30t101.5 -36t31 -69.5q0 -85 -60.5 -131t-151.5 -46q-57 0 -126 12l-23 4l7 32q90 -16 155 -16t114 35t49 103q0 38 -23.5 52t-93.5 29.5t-99 35t-29 64.5q0 71 53 119t137 48q55 0 130 -11l25 -3z
M292 610l-5 25l203 95l6 -30z" />
    <glyph glyph-name="Scircumflex" unicode="&#x15c;" horiz-adv-x="502" 
d="M415 676q-97 0 -151.5 -46.5t-54.5 -137.5q0 -48 30.5 -68.5t111.5 -44.5t114 -53t33 -93q0 -111 -65.5 -176.5t-176.5 -65.5q-85 0 -166 13l-30 4l7 33q118 -17 203 -17t137.5 56.5t52.5 151.5q0 50 -25 71.5t-105.5 44t-119 51.5t-38.5 93q0 106 67.5 161.5t182.5 55.5
q66 0 146 -16l25 -5l-6 -30q-102 18 -172 18zM303 803l156 128h14l97 -128h-34l-73 97l-119 -97h-41z" />
    <glyph glyph-name="scircumflex" unicode="&#x15d;" horiz-adv-x="427" 
d="M470 464q-89 13 -153.5 13t-105.5 -38t-41 -91q0 -30 21 -44.5t91.5 -30t101.5 -36t31 -69.5q0 -85 -60.5 -131t-151.5 -46q-57 0 -126 12l-23 4l7 32q90 -16 155 -16t114 35t49 103q0 38 -23.5 52t-93.5 29.5t-99 35t-29 64.5q0 71 53 119t137 48q55 0 130 -11l25 -3z
M236 595l146 135h14l87 -135h-34l-64 101l-110 -101h-39z" />
    <glyph glyph-name="Scedilla" unicode="&#x15e;" horiz-adv-x="502" 
d="M258 -53q79 0 79 -52q0 -9 -2 -19q-17 -75 -95 -75l-76 4l8 31q41 -4 73 -4q45 0 56 44q2 7 2 14q0 27 -37 27h-51l17 74q-63 2 -147 13l-25 4l7 33q118 -17 203 -17t137.5 56.5t52.5 151.5q0 50 -25 71.5t-105.5 44t-119 51.5t-38.5 93q0 106 67.5 161.5t182.5 55.5
q66 0 146 -16l25 -5l-6 -30q-102 18 -172 18q-97 0 -151.5 -46.5t-54.5 -137.5q0 -48 30.5 -68.5t111.5 -44.5t114 -53t33 -93q0 -109 -63.5 -174t-170.5 -68l-11 -44h5z" />
    <glyph glyph-name="scedilla" unicode="&#x15f;" horiz-adv-x="426" 
d="M209 -53q79 0 79 -52q0 -9 -2 -19q-17 -75 -95 -75l-76 4l8 31q41 -4 73 -4q45 0 56 44q2 7 2 14q0 27 -37 27h-51l17 75q-61 2 -111 12l-19 3l7 32q90 -16 155 -16t114 35t49 103q0 38 -23.5 52t-93.5 29.5t-99 35t-29 64.5q0 71 53 119t137 48q55 0 130 -11l25 -3
l-9 -31q-89 13 -153.5 13t-105.5 -38t-41 -91q0 -30 21 -44.5t91.5 -30t101.5 -36t31 -69.5q0 -82 -56 -127.5t-143 -48.5l-11 -45h5z" />
    <glyph glyph-name="Scaron" unicode="&#x160;" horiz-adv-x="502" 
d="M610 931l-155 -128h-17l-100 128h35l77 -99l120 99h40zM415 676q-97 0 -151.5 -46.5t-54.5 -137.5q0 -48 30.5 -68.5t111.5 -44.5t114 -53t33 -93q0 -111 -65.5 -176.5t-176.5 -65.5q-85 0 -166 13l-30 4l7 33q118 -17 203 -17t137.5 56.5t52.5 151.5q0 50 -25 71.5
t-105.5 44t-119 51.5t-38.5 93q0 106 67.5 161.5t182.5 55.5q66 0 146 -16l25 -5l-6 -30q-102 18 -172 18z" />
    <glyph glyph-name="scaron" unicode="&#x161;" horiz-adv-x="427" 
d="M470 464q-89 13 -153.5 13t-105.5 -38t-41 -91q0 -30 21 -44.5t91.5 -30t101.5 -36t31 -69.5q0 -85 -60.5 -131t-151.5 -46q-57 0 -126 12l-23 4l7 32q90 -16 155 -16t114 35t49 103q0 38 -23.5 52t-93.5 29.5t-99 35t-29 64.5q0 71 53 119t137 48q55 0 130 -11l25 -3z
M364 595h-14l-86 135h32l66 -105l115 105h39z" />
    <glyph glyph-name="Tcedilla" unicode="&#x162;" horiz-adv-x="477" 
d="M244 -53q79 0 79 -52q0 -9 -2 -19q-17 -75 -95 -75l-76 4l8 31q41 -4 73 -4q45 0 56 44q2 7 2 14q0 27 -37 27h-51l20 83h-2l154 667h-209l8 33h454l-8 -33h-209l-154 -667h-3l-13 -53h5z" />
    <glyph glyph-name="tcedilla" unicode="&#x163;" horiz-adv-x="311" 
d="M208 -53q79 0 79 -52q0 -9 -2 -19q-17 -75 -95 -75l-76 4l8 31q41 -4 73 -4q45 0 56 44q2 7 2 14q0 27 -37 27h-51l18 78q-61 13 -61 82q0 37 17 105l67 286h-73l8 32h74l39 162h35l-40 -162h163l-8 -32h-163l-67 -286q-15 -64 -15 -100q0 -59 64 -59l84 7l-2 -31
q-51 -8 -87 -8h-4l-11 -44h5z" />
    <glyph glyph-name="Tcaron" unicode="&#x164;" horiz-adv-x="477" 
d="M576 926l-155 -128h-17l-100 128h35l77 -99l120 99h40zM164 667l8 33h454l-8 -33h-209l-154 -667h-36l154 667h-209z" />
    <glyph glyph-name="tcaron" unicode="&#x165;" horiz-adv-x="362" 
d="M527 700l-51 -220h-32l51 220h32zM159 82q0 -59 64 -59l84 7l-2 -31q-51 -8 -87 -8q-96 0 -96 86q0 37 17 105l67 286h-73l8 32h74l39 162h35l-40 -162h163l-8 -32h-163l-67 -286q-15 -64 -15 -100z" />
    <glyph glyph-name="Tbar" unicode="&#x166;" horiz-adv-x="482" 
d="M166 667l8 33h454l-8 -33h-209l-70 -304h173l-11 -36h-171l-75 -327h-36l75 327h-171l9 36h171l70 304h-209z" />
    <glyph glyph-name="tbar" unicode="&#x167;" horiz-adv-x="316" 
d="M162 82q0 -59 64 -59l84 7l-2 -31q-51 -8 -87 -8q-96 0 -96 86q0 37 17 105l25 109h-56l8 32h56l34 145h-73l8 32h74l39 162h35l-40 -162h163l-8 -32h-163l-34 -145h162l-9 -32h-161l-25 -109q-15 -64 -15 -100z" />
    <glyph glyph-name="Utilde" unicode="&#x168;" horiz-adv-x="593" 
d="M649 875q-63 -57 -87.5 -57t-75 32t-61.5 32q-18 0 -73 -42l-18 -13l-1 28q66 57 92.5 57t76.5 -31.5t61 -31.5q19 0 66 38l16 13zM155 130q0 -105 158 -105q90 0 139 42.5t69 130.5l116 502h36l-116 -503q-24 -104 -81.5 -155t-155.5 -51q-201 0 -201 138q0 38 10 78
l114 493h36l-114 -493q-10 -42 -10 -77z" />
    <glyph glyph-name="utilde" unicode="&#x169;" horiz-adv-x="488" 
d="M456 630q-18 0 -66 25.5t-58 25.5q-18 0 -64 -34l-15 -11l-2 31q58 46 88 46q19 0 65 -25.5t56 -25.5q19 0 57 30l13 11l5 -30q-50 -43 -79 -43zM405 113q-98 -122 -185 -122q-53 0 -84 31t-31 82.5t19 135.5l61 260h34l-60 -258q-19 -78 -19 -125t23 -70t55.5 -23
t61.5 15t52 37q50 45 75 79l11 15l77 330h35l-116 -500h-35z" />
    <glyph glyph-name="Umacron" unicode="&#x16a;" horiz-adv-x="593" 
d="M155 130q0 -105 158 -105q90 0 139 42.5t69 130.5l116 502h36l-116 -503q-24 -104 -81.5 -155t-155.5 -51q-201 0 -201 138q0 38 10 78l114 493h36l-114 -493q-10 -42 -10 -77zM349 835l5 26h272l-7 -26h-270z" />
    <glyph glyph-name="umacron" unicode="&#x16b;" horiz-adv-x="488" 
d="M405 113q-98 -122 -185 -122q-53 0 -84 31t-31 82.5t19 135.5l61 260h34l-60 -258q-19 -78 -19 -125t23 -70t55.5 -23t61.5 15t52 37q50 45 75 79l11 15l77 330h35l-116 -500h-35zM254 647l6 26h253l-7 -26h-252z" />
    <glyph glyph-name="Ubreve" unicode="&#x16c;" horiz-adv-x="593" 
d="M404 921q-3 -15 -3 -34.5t16.5 -36t58.5 -16.5t75 24t43 63h30q-14 -56 -55.5 -86.5t-97.5 -30.5q-100 0 -100 83q0 16 3 34h30zM155 130q0 -105 158 -105q90 0 139 42.5t69 130.5l116 502h36l-116 -503q-24 -104 -81.5 -155t-155.5 -51q-201 0 -201 138q0 38 10 78
l114 493h36l-114 -493q-10 -42 -10 -77z" />
    <glyph glyph-name="ubreve" unicode="&#x16d;" horiz-adv-x="488" 
d="M405 113q-98 -122 -185 -122q-53 0 -84 31t-31 82.5t19 135.5l61 260h34l-60 -258q-19 -78 -19 -125t23 -70t55.5 -23t61.5 15t52 37q50 45 75 79l11 15l77 330h35l-116 -500h-35zM305 721q-5 -16 -5 -34.5t12 -36.5q20 -27 68 -27t78.5 27t41.5 71h28
q-32 -126 -157 -126q-57 0 -82 37q-16 24 -16 47.5t4 41.5h28z" />
    <glyph glyph-name="Uring" unicode="&#x16e;" horiz-adv-x="593" 
d="M473 757q-41 0 -59 24q-10 15 -10 32t4 32q24 89 108 89q40 0 58 -22q11 -14 11 -32t-4 -35q-22 -88 -108 -88zM557 863q0 42 -48 42q-60 0 -75 -60q-2 -9 -2 -17q0 -42 48 -42q61 0 75 59q2 10 2 18zM155 130q0 -105 158 -105q90 0 139 42.5t69 130.5l116 502h36
l-116 -503q-24 -104 -81.5 -155t-155.5 -51q-201 0 -201 138q0 38 10 78l114 493h36l-114 -493q-10 -42 -10 -77z" />
    <glyph glyph-name="uring" unicode="&#x16f;" horiz-adv-x="488" 
d="M360 556q-66 0 -66 66q0 55 34 85.5t76 30.5q65 0 65 -70q0 -47 -32 -79.5t-77 -32.5zM324 647q-2 -8 -2 -19t10.5 -27t35 -16t44.5 18q29 25 29 59q0 14 -10 29.5t-34.5 15.5t-46 -17.5t-26.5 -42.5zM405 113q-98 -122 -185 -122q-53 0 -84 31t-31 82.5t19 135.5l61 260
h34l-60 -258q-19 -78 -19 -125t23 -70t55.5 -23t61.5 15t52 37q50 45 75 79l11 15l77 330h35l-116 -500h-35z" />
    <glyph glyph-name="Uhungarumlaut" unicode="&#x170;" horiz-adv-x="593" 
d="M510 765l-4 24l199 86l8 -23zM331 766l-6 23l203 87l4 -24zM155 130q0 -105 158 -105q90 0 139 42.5t69 130.5l116 502h36l-116 -503q-24 -104 -81.5 -155t-155.5 -51q-201 0 -201 138q0 38 10 78l114 493h36l-114 -493q-10 -42 -10 -77z" />
    <glyph glyph-name="uhungarumlaut" unicode="&#x171;" horiz-adv-x="488" 
d="M451 594l-11 25l178 105l12 -26zM277 594l-11 25l177 105l12 -26zM405 113q-98 -122 -185 -122q-53 0 -84 31t-31 82.5t19 135.5l61 260h34l-60 -258q-19 -78 -19 -125t23 -70t55.5 -23t61.5 15t52 37q50 45 75 79l11 15l77 330h35l-116 -500h-35z" />
    <glyph glyph-name="Uogonek" unicode="&#x172;" horiz-adv-x="593" 
d="M155 130q0 -105 158 -105q90 0 139 42.5t69 130.5l116 502h36l-116 -503q-21 -90 -66 -140t-125 -62q-35 -31 -65.5 -70t-30.5 -66q0 -24 32 -24l56 7l-4 -32q-36 -8 -62 -8q-62 0 -62 54t90 135h-9q-90 0 -141 34.5t-51 103.5q0 38 10 78l114 493h36l-114 -493
q-10 -42 -10 -77z" />
    <glyph glyph-name="uogonek" unicode="&#x173;" horiz-adv-x="488" 
d="M405 113q-98 -122 -185 -122q-53 0 -84 31t-31 82.5t19 135.5l61 260h34l-60 -258q-19 -78 -19 -125t23 -70t55.5 -23t61.5 15t52 37q50 45 75 79l11 15l77 330h35l-116 -500q-35 -28 -70 -70t-35 -71q0 -24 32 -24l56 7l-4 -32q-36 -8 -62 -8q-62 0 -62 54
q0 34 37.5 78.5t74.5 74.5z" />
    <glyph glyph-name="Wcircumflex" unicode="&#x174;" horiz-adv-x="805" 
d="M442 798l156 128h14l97 -128h-34l-73 97l-119 -97h-41zM195 700h36l-25 -667h35l298 657h38l-9 -657h33l288 667h36l-302 -700h-89l10 621l-282 -621h-91z" />
    <glyph glyph-name="wcircumflex" unicode="&#x175;" horiz-adv-x="710" 
d="M150 500h35l6 -468h16l236 458h45l20 -458h17l227 468h37l-242 -500h-74l-17 447l-227 -447h-72zM351 595l146 135h14l87 -135h-34l-64 101l-110 -101h-39z" />
    <glyph glyph-name="Ycircumflex" unicode="&#x176;" horiz-adv-x="485" 
d="M287 798l156 128h14l97 -128h-34l-73 97l-119 -97h-41zM627 700l-301 -399l-70 -301h-36l71 308l-113 392h36l103 -361l270 361h40z" />
    <glyph glyph-name="ycircumflex" unicode="&#x177;" horiz-adv-x="448" 
d="M147 500h36l23 -468h40l248 468h38l-387 -728h-38l123 228h-58zM238 595l146 135h14l87 -135h-34l-64 101l-110 -101h-39z" />
    <glyph glyph-name="Ydieresis" unicode="&#x178;" horiz-adv-x="485" 
d="M314 830l14 66h30l-17 -66h-27zM493 830l16 66h29l-16 -66h-29zM627 700l-301 -399l-70 -301h-36l71 308l-113 392h36l103 -361l270 361h40z" />
    <glyph glyph-name="Zacute" unicode="&#x179;" horiz-adv-x="498" 
d="M349 798l-8 25l204 96l9 -29zM196 667l8 33h415l-18 -78l-512 -564l-6 -25h379l-8 -33h-415l17 74l512 564l7 29h-379z" />
    <glyph glyph-name="zacute" unicode="&#x17a;" horiz-adv-x="420" 
d="M156 500h339l-5 -32l-400 -436h297l-7 -32h-339l3 32l400 436h-296zM272 610l-5 25l203 95l6 -30z" />
    <glyph glyph-name="Zdotaccent" unicode="&#x17b;" horiz-adv-x="498" 
d="M411 869l12 58h28l-11 -58h-29zM196 667l8 33h415l-18 -78l-512 -564l-6 -25h379l-8 -33h-415l17 74l512 564l7 29h-379z" />
    <glyph glyph-name="zdotaccent" unicode="&#x17c;" horiz-adv-x="420" 
d="M156 500h339l-5 -32l-400 -436h297l-7 -32h-339l3 32l400 436h-296zM326 620l14 58h29l-13 -58h-30z" />
    <glyph glyph-name="Zcaron" unicode="&#x17d;" horiz-adv-x="498" 
d="M590 925l-155 -128h-17l-100 128h35l77 -99l120 99h40zM196 667l8 33h415l-18 -78l-512 -564l-6 -25h379l-8 -33h-415l17 74l512 564l7 29h-379z" />
    <glyph glyph-name="zcaron" unicode="&#x17e;" horiz-adv-x="420" 
d="M341 595h-14l-86 135h32l66 -105l115 105h39zM148 468l8 32h339l-5 -32l-400 -436h297l-7 -32h-339l3 32l400 436h-296z" />
    <glyph glyph-name="florin" unicode="&#x192;" 
d="M97 -206q43 0 70.5 32.5t46.5 110.5l99 412h-113l7 36h114l17 71q29 121 68.5 168.5t104.5 47.5l104 -7l-9 -35q-75 5 -103 5q-52 0 -79 -43t-55 -155l-13 -52h173l-9 -36h-172l-100 -419q-22 -92 -61.5 -132.5t-98.5 -40.5l-56 5l9 35q30 -3 56 -3z" />
    <glyph glyph-name="Aringacute" unicode="&#x1fa;" horiz-adv-x="556" 
d="M368 725q0 13 5 30q24 89 108 89q40 0 58 -22q11 -14 11 -32t-4 -35q-14 -53 -53 -75l37 -680h-36l-12 216h-299l-114 -216h-37l360 679q-24 15 -24 46zM423 667l-222 -419h279l-21 419h-36zM522 773q0 42 -48 42q-60 0 -75 -60q-2 -10 -2 -19q0 -27 23 -36h53
q36 12 47 55q2 10 2 18zM409 890l-5 25l203 95l6 -30z" />
    <glyph glyph-name="aringacute" unicode="&#x1fb;" horiz-adv-x="482" 
d="M332 775l-6 30l203 95l7 -35zM215 -9q-120 0 -120 127q0 88 28 176t87 151.5t135 63.5q51 0 144 -15l31 -5l-76 -326q-11 -46 -25 -135l-4 -27l-33 -2q17 104 22 127q-4 -5 -11 -14.5t-28.5 -32.5t-43 -41t-51 -32.5t-55.5 -14.5zM479 462q-73 15 -136.5 15t-114 -60.5
t-73.5 -140.5t-23 -158q0 -47 21 -70.5t69 -23.5q54 0 147 102q21 23 33 40l12 16zM365 556q-66 0 -66 66q0 55 34 85.5t76 30.5q65 0 65 -70q0 -47 -32 -79.5t-77 -32.5zM329 647q-2 -8 -2 -19t10.5 -27t35 -16t45.5 18q28 25 28 59q0 14 -10 29.5t-34.5 15.5t-46 -17.5
t-26.5 -42.5z" />
    <glyph glyph-name="AEacute" unicode="&#x1fc;" horiz-adv-x="797" 
d="M372 0l49 215h-240l-114 -215h-35l370 700h511l-6 -33l-343 2l-71 -293h287l-6 -33h-287l-73 -310h341l-6 -33h-377zM418 667l-221 -420h231l102 420h-112zM582 798l-8 25l204 96l9 -29z" />
    <glyph glyph-name="aeacute" unicode="&#x1fd;" horiz-adv-x="772" 
d="M408 49q-147 -58 -243 -58t-96 103q0 20 4 44q13 70 59.5 101.5t130 43.5t158.5 18q20 68 20 84.5t-1.5 27t-7.5 26.5q-14 32 -70 32q-46 0 -150 -7l-29 -2l6 37q106 10 181 10q46 0 76 -25t31 -70q65 95 187 95q137 0 137 -136q0 -51 -14 -104l-9 -35l-330 2
q-15 -67 -15 -112q0 -97 104 -97q72 0 147 7l28 2l-7 -36q-108 -9 -176 -9q-92 0 -121 58zM109 100q0 -73 64 -73q79 0 226 54q-7 37 -4.5 60.5t3 30.5t4 24.5t4.5 21.5q2 25 10 48q-128 -14 -178 -22.5t-81 -33t-43 -72.5q-5 -20 -5 -38zM749 268q16 58 16 106
q0 99 -109 99q-75 0 -125.5 -48t-75.5 -155zM460 610l-5 25l203 95l6 -30z" />
    <glyph glyph-name="Oslashacute" unicode="&#x1fe;" horiz-adv-x="638" 
d="M170 38q-47 47 -47 166t42.5 239t120.5 193t172.5 73t144.5 -35l80 117l30 -14l-85 -124q47 -52 47 -150q0 -134 -43 -257t-122 -189t-172.5 -66t-142.5 28l-88 -129l-27 16zM583 644q-43 32 -115 32t-131 -43q-83 -61 -130 -188t-47 -249q0 -84 32 -125zM216 50
q40 -26 116.5 -26t137.5 45q81 61 124 184.5t43 250.5q0 76 -31 117l-196 -289zM442 793l-9 30l204 96l10 -34z" />
    <glyph glyph-name="oslashacute" unicode="&#x1ff;" horiz-adv-x="493" 
d="M349 509q53 0 90 -20l71 115l27 -12l-75 -119q45 -39 45 -121q0 -154 -71 -257.5t-184 -103.5q-50 0 -83 15l-74 -119l-27 11l77 122q-46 36 -46 119q0 156 72 263t178 107zM349 477q-93 0 -153.5 -99.5t-60.5 -238.5q0 -59 30 -87l255 407q-31 18 -71 18zM252 23
q97 0 158 95.5t61 233.5q0 55 -29 89l-126 -199l-128 -206q25 -13 64 -13zM305 610l-5 25l203 95l6 -30z" />
    <glyph glyph-name="Scommaaccent" unicode="&#x218;" horiz-adv-x="502" 
d="M232 -73h34l-88 -192h-26zM415 676q-97 0 -151.5 -46.5t-54.5 -137.5q0 -48 30.5 -68.5t111.5 -44.5t114 -53t33 -93q0 -111 -65.5 -176.5t-176.5 -65.5q-85 0 -166 13l-30 4l7 33q118 -17 203 -17t137.5 56.5t52.5 151.5q0 50 -25 71.5t-105.5 44t-119 51.5t-38.5 93
q0 106 67.5 161.5t182.5 55.5q66 0 146 -16l25 -5l-6 -30q-102 18 -172 18z" />
    <glyph glyph-name="scommaaccent" unicode="&#x219;" horiz-adv-x="426" 
d="M469 464q-89 13 -153.5 13t-105.5 -38t-41 -91q0 -30 21 -44.5t91.5 -30t101.5 -36t31 -69.5q0 -85 -60.5 -131t-151.5 -46q-57 0 -126 12l-23 4l7 32q90 -16 155 -16t114 35t49 103q0 38 -23.5 52t-93.5 29.5t-99 35t-29 64.5q0 71 53 119t137 48q55 0 130 -11l25 -3z
M183 -73h34l-88 -192h-26z" />
    <glyph glyph-name="Tcommaaccent" unicode="&#x21a;" horiz-adv-x="477" 
d="M207 -73h34l-88 -192h-26zM164 667l8 33h454l-8 -33h-209l-154 -667h-36l154 667h-209z" />
    <glyph glyph-name="tcommaaccent" unicode="&#x21b;" horiz-adv-x="311" 
d="M159 82q0 -59 64 -59l84 7l-2 -31q-51 -8 -87 -8q-96 0 -96 86q0 37 17 105l67 286h-73l8 32h74l39 162h35l-40 -162h163l-8 -32h-163l-67 -286q-15 -64 -15 -100zM160 -73h34l-88 -192h-26z" />
    <glyph glyph-name="circumflex" unicode="&#x2c6;" horiz-adv-x="791" 
d="M405 595l146 135h14l87 -135h-34l-64 101l-110 -101h-39z" />
    <glyph glyph-name="caron" unicode="&#x2c7;" horiz-adv-x="791" 
d="M534 595h-14l-86 135h32l66 -105l115 105h39z" />
    <glyph glyph-name="breve" unicode="&#x2d8;" horiz-adv-x="424" 
d="M283 721q-5 -16 -5 -34.5t12 -36.5q20 -27 68 -27t78.5 27t41.5 71h28q-32 -126 -157 -126q-57 0 -82 37q-16 24 -16 47.5t4 41.5h28z" />
    <glyph glyph-name="dotaccent" unicode="&#x2d9;" horiz-adv-x="204" 
d="M232 620l14 58h29l-13 -58h-30z" />
    <glyph glyph-name="ring" unicode="&#x2da;" horiz-adv-x="791" 
d="M384 556q-66 0 -66 66q0 55 34 85.5t76 30.5q65 0 65 -70q0 -47 -32 -79.5t-77 -32.5zM348 647q-2 -8 -2 -19t10.5 -27t35 -16t44.5 18q29 25 29 59q0 14 -10 29.5t-34.5 15.5t-46 -17.5t-26.5 -42.5z" />
    <glyph glyph-name="ogonek" unicode="&#x2db;" horiz-adv-x="412" 
d="M187 -198q-62 0 -62 54q0 34 37 78.5t75 75.5l33 -7q-35 -29 -70 -72t-35 -72q0 -24 32 -24l56 7l-4 -32q-36 -8 -62 -8z" />
    <glyph glyph-name="tilde" unicode="&#x2dc;" horiz-adv-x="414" 
d="M439 630q-18 0 -66 25.5t-59 25.5q-17 0 -63 -34l-15 -11l-2 31q58 46 88 46q19 0 65 -25.5t56 -25.5q19 0 57 30l13 11l5 -30q-50 -43 -79 -43z" />
    <glyph glyph-name="hungarumlaut" unicode="&#x2dd;" horiz-adv-x="651" 
d="M472 594l-11 25l178 105l12 -26zM298 594l-11 25l177 105l12 -26z" />
    <glyph glyph-name="pi" unicode="&#x3c0;" 
d="M449 154v314h-204l-29 -468h-36l30 467q-77 0 -110 -9l-11 -3v32q56 13 137 13h224q73 0 127 12l18 4v-32q-31 -13 -111 -15v-315q0 -76 20 -99t79 -23v-32q-77 0 -105.5 31.5t-28.5 122.5z" />
    <glyph glyph-name="Wgrave" unicode="&#x1e80;" horiz-adv-x="805" 
d="M502 917l160 -97l-15 -22l-162 92zM195 700h36l-25 -667h35l298 657h38l-9 -657h33l288 667h36l-302 -700h-89l10 621l-282 -621h-91z" />
    <glyph glyph-name="wgrave" unicode="&#x1e81;" horiz-adv-x="710" 
d="M374 721l160 -95l-18 -22l-160 92zM150 500h35l6 -468h16l236 458h45l20 -458h17l227 468h37l-242 -500h-74l-17 447l-227 -447h-72z" />
    <glyph glyph-name="Wacute" unicode="&#x1e82;" horiz-adv-x="805" 
d="M507 798l-8 25l204 96l9 -29zM195 700h36l-25 -667h35l298 657h38l-9 -657h33l288 667h36l-302 -700h-89l10 621l-282 -621h-91z" />
    <glyph glyph-name="wacute" unicode="&#x1e83;" horiz-adv-x="710" 
d="M150 500h35l6 -468h16l236 458h45l20 -458h17l227 468h37l-242 -500h-74l-17 447l-227 -447h-72zM410 610l-5 25l203 95l6 -30z" />
    <glyph glyph-name="Wdieresis" unicode="&#x1e84;" horiz-adv-x="805" 
d="M480 831l14 66h30l-17 -66h-27zM659 831l16 66h29l-16 -66h-29zM195 700h36l-25 -667h35l298 657h38l-9 -657h33l288 667h36l-302 -700h-89l10 621l-282 -621h-91z" />
    <glyph glyph-name="wdieresis" unicode="&#x1e85;" horiz-adv-x="710" 
d="M150 500h35l6 -468h16l236 458h45l20 -458h17l227 468h37l-242 -500h-74l-17 447l-227 -447h-72zM384 633l15 65h29l-15 -65h-29zM559 633l13 65h29l-15 -65h-27z" />
    <glyph glyph-name="uni1EAB" unicode="&#x1eab;" horiz-adv-x="482" 
d="M215 -9q-120 0 -120 127q0 88 28 176t87 151.5t135 63.5q51 0 144 -15l31 -5l-76 -326q-11 -46 -25 -135l-4 -27l-33 -2q17 104 22 127q-4 -5 -11 -14.5t-28.5 -32.5t-43 -41t-51 -32.5t-55.5 -14.5zM479 462q-73 15 -136.5 15t-114 -60.5t-73.5 -140.5t-23 -158
q0 -47 21 -70.5t69 -23.5q54 0 147 102q21 23 33 40l12 16zM498 730q-18 0 -66 25.5t-58 25.5q-18 0 -64 -34l-15 -11l-2 31q58 46 88 46q19 0 65 -25.5t56 -25.5q19 0 57 30l13 11l5 -30q-50 -43 -79 -43zM263 565l146 135h14l87 -135h-34l-64 101l-110 -101h-39z" />
    <glyph glyph-name="uni1EB0" unicode="&#x1eb0;" horiz-adv-x="556" 
d="M441 1051l160 -95l-18 -22l-160 92zM32 0l371 700h89l38 -700h-36l-12 216h-299l-114 -216h-37zM423 667l-222 -419h279l-21 419h-36zM394 881q-3 -15 -3 -34.5t16.5 -36t58.5 -16.5t75 24t43 63h30q-14 -56 -55.5 -86.5t-97.5 -30.5q-100 0 -100 83q0 16 3 34h30z" />
    <glyph glyph-name="uni1EC5" unicode="&#x1ec5;" horiz-adv-x="452" 
d="M482 730q-18 0 -66 25.5t-58 25.5q-18 0 -64 -34l-15 -11l-2 31q58 46 88 46q19 0 65 -25.5t56 -25.5q19 0 57 30l13 11l5 -30q-50 -43 -79 -43zM163.5 54.5q29.5 -29.5 72.5 -29.5q74 0 149 22l24 7v-33q-86 -30 -172 -30q-64 0 -102 36.5t-38 102.5t16.5 131t48 121.5
t84 91.5t118.5 35q130 0 130 -103q0 -85 -69 -120.5t-213 -35.5h-63q-15 -60 -15 -113t29.5 -82.5zM221 282q123 0 180 26.5t57 97.5t-95 71q-146 0 -207 -195h65zM253 565l146 135h14l87 -135h-34l-64 101l-110 -101h-39z" />
    <glyph glyph-name="uni1ED7" unicode="&#x1ed7;" horiz-adv-x="493" 
d="M349 509q158 0 158 -157q0 -154 -71 -257.5t-184 -103.5q-153 0 -153 148q0 156 72 263t178 107zM252 23q97 0 158 95.5t61 233.5q0 57 -30.5 91t-91.5 34q-93 0 -153.5 -99.5t-60.5 -238.5q0 -116 117 -116zM494 730q-18 0 -66 25.5t-58 25.5q-18 0 -64 -34l-15 -11
l-2 31q58 46 88 46q19 0 65 -25.5t56 -25.5q19 0 57 30l13 11l5 -30q-50 -43 -79 -43zM253 565l146 135h14l87 -135h-34l-64 101l-110 -101h-39z" />
    <glyph glyph-name="Ygrave" unicode="&#x1ef2;" horiz-adv-x="485" 
d="M343 917l160 -97l-15 -22l-162 92zM627 700l-301 -399l-70 -301h-36l71 308l-113 392h36l103 -361l270 361h40z" />
    <glyph glyph-name="ygrave" unicode="&#x1ef3;" horiz-adv-x="448" 
d="M250 721l160 -95l-18 -22l-160 92zM147 500h36l23 -468h40l248 468h38l-387 -728h-38l123 228h-58z" />
    <glyph glyph-name="uni1EF8" unicode="&#x1ef8;" horiz-adv-x="485" 
d="M501 830q-18 0 -66 25.5t-59 25.5q-17 0 -63 -34l-15 -11l-2 31q58 46 88 46q19 0 65 -25.5t56 -25.5q19 0 57 30l13 11l5 -30q-50 -43 -79 -43zM627 700l-301 -399l-70 -301h-36l71 308l-113 392h36l103 -361l270 361h40z" />
    <glyph glyph-name="uni1EF9" unicode="&#x1ef9;" horiz-adv-x="448" 
d="M442 630q-18 0 -66 25.5t-58 25.5q-18 0 -64 -34l-15 -11l-2 31q58 46 88 46q19 0 65 -25.5t56 -25.5q19 0 57 30l13 11l5 -30q-50 -43 -79 -43zM147 500h36l23 -468h40l248 468h38l-387 -728h-38l123 228h-58z" />
    <glyph glyph-name="endash" unicode="&#x2013;" horiz-adv-x="640" 
d="M132 286h500v-34h-500v34z" />
    <glyph glyph-name="emdash" unicode="&#x2014;" horiz-adv-x="1140" 
d="M132 286h1000v-34h-1000v34z" />
    <glyph glyph-name="quoteleft" unicode="&#x2018;" horiz-adv-x="185" 
d="M264 700h27l-82 -202h-38z" />
    <glyph glyph-name="quoteright" unicode="&#x2019;" horiz-adv-x="185" 
d="M201 498h-27l82 202h38z" />
    <glyph glyph-name="quotesinglbase" unicode="&#x201a;" horiz-adv-x="187" 
d="M47 -114h-27l82 202h38z" />
    <glyph glyph-name="quotedblleft" unicode="&#x201c;" horiz-adv-x="322" 
d="M264 700h27l-82 -202h-38zM401 700h27l-82 -202h-38z" />
    <glyph glyph-name="quotedblright" unicode="&#x201d;" horiz-adv-x="322" 
d="M201 498h-27l82 202h38zM338 498h-27l82 202h38z" />
    <glyph glyph-name="quotedblbase" unicode="&#x201e;" horiz-adv-x="310" 
d="M236 90h27l-82 -202h-38zM106 90h27l-82 -202h-38z" />
    <glyph glyph-name="dagger" unicode="&#x2020;" horiz-adv-x="438" 
d="M135 460l9 38l171 -2l48 202h33l-46 -200h173l-10 -38l-173 2l-127 -540h-33l126 538h-171z" />
    <glyph glyph-name="daggerdbl" unicode="&#x2021;" horiz-adv-x="487" 
d="M207 -78l47 200h-173l8 36l173 -2l71 304h-171l9 38l171 -2l48 202h33l-46 -200h173l-10 -38l-173 2l-71 -304h172l-9 -36l-172 2l-47 -202h-33z" />
    <glyph glyph-name="bullet" unicode="&#x2022;" horiz-adv-x="503" 
d="M185 110v290h250v-290h-250z" />
    <glyph glyph-name="ellipsis" unicode="&#x2026;" horiz-adv-x="658" 
d="M73 0l19 83h36l-19 -83h-36zM314 0l19 83h36l-19 -83h-36zM550 0l19 83h36l-19 -83h-36z" />
    <glyph glyph-name="perthousand" unicode="&#x2030;" horiz-adv-x="805" 
d="M295 669q-68 0 -90 -90q-11 -41 -11 -63q0 -55 49 -55q69 0 95 106q8 30 8 51q0 51 -51 51zM164 8l357 693l31 -8l-357 -692zM167 568q34 133 136 133q78 0 78 -77q0 -24 -8 -57q-17 -69 -54 -103.5t-84.5 -34.5t-66.5 35q-9 17 -9 43.5t8 60.5zM475 272q78 0 78 -77
q0 -24 -8 -57q-17 -69 -53.5 -103.5t-84 -34.5t-66.5 34q-10 19 -10 45.5t8 59.5q34 133 136 133zM518 189q0 51 -51 51q-36 0 -58 -24.5t-32 -65.5t-10 -62q0 -56 48 -56q69 0 95 106q8 30 8 51zM733 272q78 0 78 -77q0 -24 -8 -57q-17 -69 -53.5 -103.5t-84 -34.5
t-66.5 34q-10 19 -10 45.5t8 59.5q34 133 136 133zM776 189q0 51 -51 51q-36 0 -58 -24.5t-32 -65.5t-10 -62q0 -56 48 -56q69 0 95 106q8 30 8 51z" />
    <glyph glyph-name="guilsinglleft" unicode="&#x2039;" horiz-adv-x="272" 
d="M295 391l-12 -41l-144 -101l94 -110l-11 -35l-124 137l8 22z" />
    <glyph glyph-name="guilsinglright" unicode="&#x203a;" horiz-adv-x="272" 
d="M92 104l12 41l144 101l-94 110l11 35l124 -137l-8 -22z" />
    <glyph glyph-name="fraction" unicode="&#x2044;" horiz-adv-x="0" 
d="M-119 -21l-33 13l425 688l33 -14z" />
    <glyph glyph-name="zerosuperior" unicode="&#x2070;" horiz-adv-x="280" 
d="M326 799q83 0 83 -89q0 -32 -11 -75q-26 -102 -74 -141q-32 -25 -80 -25q-82 0 -82 89q0 33 11 78q26 102 74 139q31 24 79 24zM372 705q0 60 -55 60q-39 0 -64.5 -31t-39 -87.5t-13.5 -84.5q0 -59 53 -59q38 0 64 30.5t40.5 87t14.5 84.5z" />
    <glyph glyph-name="foursuperior" unicode="&#x2074;" horiz-adv-x="280" 
d="M286 478l14 57h-146l8 32l144 223h40l-142 -221h104l22 87h36l-22 -87h37l-8 -34h-37l-14 -57h-36z" />
    <glyph glyph-name="fivesuperior" unicode="&#x2075;" horiz-adv-x="280" 
d="M236 653q28 22 70.5 22t63.5 -24q13 -15 13 -35t-5 -40q-28 -107 -128 -107q-40 0 -82 9l-14 3l12 35q50 -12 85 -12q69 0 88 72q4 15 4 26q0 38 -45 38q-35 0 -65 -16l-10 -6l-31 2l51 170h174l-8 -35h-140z" />
    <glyph glyph-name="sixsuperior" unicode="&#x2076;" horiz-adv-x="280" 
d="M408 758q-38 7 -76.5 7t-64 -24t-40.5 -80q45 19 87 19t61 -27q12 -17 12 -36.5t-5 -37.5q-28 -110 -133 -110q-79 0 -79 86q0 34 12 80q22 90 60.5 127t98.5 37q27 0 66 -7l11 -2zM208 562q0 -59 50 -59q66 0 86 76q4 18 4 31.5t-5 21.5q-10 14 -37 14t-46 -6
q-43 -11 -43 -16q-9 -36 -9 -62z" />
    <glyph glyph-name="sevensuperior" unicode="&#x2077;" horiz-adv-x="280" 
d="M210 756l8 34h194l-15 -61l-176 -259l-39 11l176 250l6 25h-154z" />
    <glyph glyph-name="eightsuperior" unicode="&#x2078;" horiz-adv-x="280" 
d="M236 642q-41 17 -41 51q0 10 3 24q20 82 129 82q90 0 90 -58q0 -11 -5 -34q-12 -48 -72 -66q45 -16 45 -50q0 -12 -4 -28q-14 -54 -47.5 -74t-87 -20t-75 18t-21.5 45q0 11 6 37q14 52 80 73zM253 503q75 0 90 59q2 11 2 22t-7.5 21t-36.5 18h-36q-33 -8 -49.5 -21.5
t-23.5 -43.5q-2 -9 -2 -16q0 -39 63 -39zM318 765q-70 0 -82 -48q-2 -10 -2 -20t6.5 -19t33.5 -18h36q33 8 46 20q22 18 22 50q0 15 -11 25t-49 10z" />
    <glyph glyph-name="ninesuperior" unicode="&#x2079;" horiz-adv-x="280" 
d="M241 503q82 0 110 103q-48 -17 -89 -17t-61 29q-13 17 -13 37.5t5 38.5q12 50 47.5 77.5t85.5 27.5q79 0 79 -88q0 -33 -12 -80q-23 -91 -59.5 -126.5t-101.5 -35.5q-33 0 -68 7l-11 3l11 31q40 -7 77 -7zM368 703q0 62 -51 62q-68 0 -86 -70q-3 -13 -3 -26.5t7 -25.5
q12 -20 42 -20q26 0 69 16l14 5q8 34 8 59z" />
    <glyph glyph-name="zeroinferior" unicode="&#x2080;" horiz-adv-x="280" 
d="M217 321q83 0 83 -89q0 -32 -11 -75q-26 -102 -74 -141q-32 -25 -80 -25q-82 0 -82 89q0 33 11 78q26 102 74 139q31 24 79 24zM263 227q0 60 -55 60q-39 0 -64.5 -31t-39 -87.5t-13.5 -84.5q0 -59 53 -59q38 0 64 30.5t40.5 87t14.5 84.5z" />
    <glyph glyph-name="oneinferior" unicode="&#x2081;" horiz-adv-x="280" 
d="M94 145l115 67h36l-77 -312h-36l68 273l-96 -56z" />
    <glyph glyph-name="twoinferior" unicode="&#x2082;" horiz-adv-x="280" 
d="M231 152q0 35 -47 35q-31 0 -78 -9l-15 -3l6 33q55 13 97 13q75 0 75 -56q0 -48 -35 -89q-23 -26 -65 -61l-96 -81h148l-8 -34h-195l8 34l124 104q81 67 81 114z" />
    <glyph glyph-name="threeinferior" unicode="&#x2083;" horiz-adv-x="280" 
d="M200 63q43 -14 43 -46q0 -13 -5 -33q-23 -93 -124 -93q-49 0 -89 8l-15 3l11 32q52 -9 102 -9q63 0 77 58q3 13 3 23q0 38 -47 38h-65l8 34h65q18 0 40 19q29 26 29 59q0 13 -8.5 22t-34.5 9q-39 0 -90 -7l-14 -2l5 32q56 11 103 11t62.5 -15.5t15.5 -32.5t-4 -32
q-15 -55 -68 -78z" />
    <glyph glyph-name="fourinferior" unicode="&#x2084;" horiz-adv-x="280" 
d="M163 -100l14 57h-146l8 32l144 223h40l-142 -221h104l22 87h36l-22 -87h37l-8 -34h-37l-14 -57h-36z" />
    <glyph glyph-name="fiveinferior" unicode="&#x2085;" horiz-adv-x="280" 
d="M95 75q28 22 70.5 22t63.5 -24q13 -15 13 -35t-5 -40q-28 -107 -128 -107q-40 0 -82 9l-14 3l12 35q50 -12 85 -12q69 0 88 72q4 15 4 26q0 38 -45 38q-35 0 -65 -16l-10 -6l-31 2l51 170h174l-8 -35h-140z" />
    <glyph glyph-name="sixinferior" unicode="&#x2086;" horiz-adv-x="280" 
d="M273 180q-38 7 -76.5 7t-64 -24t-40.5 -80q45 19 87 19t61 -27q12 -17 12 -36.5t-5 -37.5q-28 -110 -133 -110q-78 0 -78 87q0 33 11 79q22 90 60.5 127t98.5 37q27 0 66 -7l11 -2zM73 -16q0 -59 50 -59q66 0 86 76q4 18 4 31.5t-5 21.5q-10 14 -37 14t-47 -6
q-42 -11 -42 -16q-9 -36 -9 -62z" />
    <glyph glyph-name="seveninferior" unicode="&#x2087;" horiz-adv-x="280" 
d="M84 178l8 34h194l-15 -61l-176 -259l-39 11l176 250l6 25h-154z" />
    <glyph glyph-name="eightinferior" unicode="&#x2088;" horiz-adv-x="280" 
d="M104 64q-41 17 -41 51q0 10 3 24q20 82 129 82q90 0 90 -58q0 -11 -5 -34q-12 -48 -72 -66q45 -16 45 -50q0 -12 -4 -28q-14 -54 -47.5 -74t-87 -20t-75 18t-21.5 45q0 11 6 37q14 52 80 73zM121 -75q75 0 90 59q2 11 2 22t-7.5 21t-36.5 18h-36q-33 -8 -49.5 -21.5
t-23.5 -43.5q-2 -9 -2 -16q0 -39 63 -39zM186 187q-70 0 -82 -48q-2 -10 -2 -20t6.5 -19t33.5 -18h36q33 8 46 20q22 18 22 50q0 15 -11 25t-49 10z" />
    <glyph glyph-name="nineinferior" unicode="&#x2089;" horiz-adv-x="280" 
d="M106 -75q82 0 110 103q-48 -17 -89 -17t-61 29q-12 17 -12 37.5t4 38.5q12 50 47.5 77.5t85.5 27.5q79 0 79 -88q0 -33 -12 -80q-23 -91 -59.5 -126.5t-101.5 -35.5q-33 0 -67 7l-12 3l11 31q40 -7 77 -7zM233 125q0 62 -51 62q-68 0 -86 -70q-3 -13 -3 -26.5t7 -25.5
q12 -20 42 -20q26 0 70 16l13 5q8 34 8 59z" />
    <glyph glyph-name="Euro" unicode="&#x20ac;" 
d="M328 -9q-175 0 -175 189q0 15 2 47h-49l8 32h44q8 68 28 130h-43l8 32h46q41 111 113.5 180t171.5 69q64 0 132 -14l22 -4l-7 -30q-83 16 -158 16t-137 -60t-99 -157h306l-7 -32h-311q-22 -66 -29 -130h310l-7 -32h-306q-2 -16 -2 -47q0 -80 34.5 -118t109.5 -38
q66 0 132 14l22 4l-1 -32q-82 -19 -158 -19z" />
    <glyph glyph-name="trademark" unicode="&#x2122;" horiz-adv-x="706" 
d="M222 590v31h200v-31h-83v-258h-33v258h-84zM457 331v290h50l84 -242l87 242h50v-290h-32v258l-88 -247h-35l-84 247v-258h-32z" />
    <glyph glyph-name="Omega" unicode="&#x2126;" 
d="M88 25h149q-13 25 -33 66t-53 133.5t-33 145.5q0 157 43 228.5t166 71.5t166 -71.5t43 -228.5q0 -53 -30 -139.5t-60 -146.5l-30 -59h150v-34h-189v29q46 88 83.5 191.5t37.5 155.5t-3.5 91.5t-14 76t-28.5 57.5q-41 44 -125 44q-85 0 -125 -44q-46 -51 -46 -232
q0 -45 30 -130t60 -148l31 -62v-29h-189v34z" />
    <glyph glyph-name="partialdiff" unicode="&#x2202;" 
d="M352 739q112 0 166 -86t54 -281t-51 -288t-164 -93q-215 0 -215 223q0 95 55 153t149 58q39 0 86.5 -8.5t75.5 -16.5l27 -9q-2 165 -46 239.5t-143 74.5q-32 0 -72 -13t-64 -26l-24 -13l-4 32q10 6 26 15t61 24t83 15zM536 356q-107 35 -187 35t-125.5 -49t-45.5 -134
t46.5 -134t136.5 -49t131.5 81.5t43.5 249.5z" />
    <glyph glyph-name="Delta" unicode="&#x2206;" 
d="M87 0v26l182 634h76l182 -634l1 -26h-441zM319 626h-25l-167 -592h359z" />
    <glyph glyph-name="product" unicode="&#x220f;" 
d="M521 -151v867h-268v-867h-36v867h-80v34h500v-34h-80v-867h-36z" />
    <glyph glyph-name="summation" unicode="&#x2211;" 
d="M123 749h450v-34h-413v-27l284 -360v-30l-284 -383v-32h413v-34h-450v75l286 390l-286 362v73z" />
    <glyph glyph-name="minus" unicode="&#x2212;" 
d="M127 234v34h422v-34h-422z" />
    <glyph glyph-name="radical" unicode="&#x221a;" 
d="M123 416v34h93l152 -558h8l269 876h37l-281 -908h-60l-157 556h-61z" />
    <glyph glyph-name="infinity" unicode="&#x221e;" 
d="M215 121q-116 0 -116 171q0 81 28.5 126t82.5 45t83.5 -31.5t53.5 -95.5q24 64 53 95.5t83.5 31.5t83 -45t28.5 -126q0 -171 -116 -171q-51 0 -79.5 31.5t-52.5 94.5q-25 -75 -51 -100.5t-81 -25.5zM214 428q-77 0 -77 -136t77 -136q28 0 38.5 5.5t16.5 7.5t12.5 11.5
t10 13.5t10 19t8.5 21q11 26 22 58q-36 96 -60 116q-26 20 -58 20zM480 156q77 0 77 136t-77 136q-51 0 -77 -45q-19 -32 -41 -91q36 -96 60 -116q26 -20 58 -20z" />
    <glyph glyph-name="integral" unicode="&#x222b;" 
d="M365 0q0 -99 -29 -139t-98 -40l-82 5l2 33q48 -5 80 -5q51 0 71.5 32t20.5 114v564q0 117 32 166t95 49l83 -6l-2 -32q-41 5 -84 5t-66 -41t-23 -141v-564z" />
    <glyph glyph-name="approxequal" unicode="&#x2248;" 
d="M436 274q-30 0 -104 36.5t-92 36.5t-43.5 -13t-42.5 -26l-18 -13l-11 32q62 54 112 54q30 0 104 -36.5t92 -36.5q33 0 87 39l18 13l11 -31q-63 -55 -113 -55zM436 112q-30 0 -104 36.5t-92 36.5t-43.5 -13t-42.5 -26l-18 -13l-11 32q62 54 112 54q30 0 104 -36.5
t92 -36.5q33 0 87 39l18 13l11 -31q-63 -55 -113 -55z" />
    <glyph glyph-name="notequal" unicode="&#x2260;" 
d="M125 318v34h228l68 157l32 -13l-63 -144h159v-34h-174l-59 -135h233v-34h-248l-68 -158l-32 13l63 145h-139v34h154l59 135h-213z" />
    <glyph glyph-name="lessequal" unicode="&#x2264;" 
d="M533 446l-378 -137l378 -148v-39l-424 168v36l424 159v-39zM109 24v34h424v-34h-424z" />
    <glyph glyph-name="greaterequal" unicode="&#x2265;" 
d="M502 309l-378 137v39l424 -159v-36l-424 -168v39zM548 58v-34h-424v34h424z" />
    <glyph glyph-name="lozenge" unicode="&#x25ca;" 
d="M135 332l182 328h76l182 -328l-182 -332h-76zM533 332l-165 294h-27l-164 -294l164 -298h27z" />
    <glyph glyph-name="dotlessj" unicode="&#xf6be;" horiz-adv-x="182" 
d="M73 0l116 500h35l-116 -500q-27 -115 -57 -151.5t-138 -87.5l-12 30q98 49 124 80.5t48 128.5z" />
    <glyph glyph-name="commaaccent" unicode="&#xf6c3;" horiz-adv-x="161" 
d="M-23 -265l80 192h34l-88 -192h-26z" />
    <glyph glyph-name="questiondown.cap" horiz-adv-x="402" 
d="M112.5 18.5q-41.5 27.5 -41.5 83t17 92t48 67t108 93.5t88 119l8 39h34q-2 -22 -6 -43q-14 -70 -107 -145t-122.5 -115.5t-29.5 -103.5q0 -80 120 -80q49 0 121 17l24 5v-32q-87 -24 -153.5 -24t-108 27.5zM408 699l-17 -82h-37l18 82h36z" />
    <glyph glyph-name="endash.cap" horiz-adv-x="639" 
d="M138 316h500v-34h-500v34z" />
    <glyph glyph-name="emdash.cap" horiz-adv-x="1139" 
d="M138 316h1000v-34h-1000v34z" />
    <glyph glyph-name="periodcentered.cap" horiz-adv-x="182" 
d="M141 300l18 83h38l-18 -83h-38z" />
    <glyph glyph-name="exclamdown.cap" horiz-adv-x="206" 
d="M233 489l-113 -489h-33l118 489h28zM279 700l-19 -83h-36l19 83h36z" />
    <glyph glyph-name="parenleft.cap" horiz-adv-x="221" 
d="M167 318.5q-24 -100.5 -24 -175.5q0 -139 11 -213l3 -24h-33q-16 79 -16 198t22.5 220t55.5 178q66 160 120 242l22 34h35q-34 -52 -74 -132t-69 -153.5t-53 -174z" />
    <glyph glyph-name="parenright.cap" horiz-adv-x="223" 
d="M215 371.5q24 100.5 24 175.5q0 139 -11 213l-3 24h33q16 -79 16 -198t-22.5 -220t-55.5 -178q-66 -160 -120 -242l-22 -34h-35q34 52 74 132t69 153.5t53 174z" />
    <glyph glyph-name="bracketleft.cap" horiz-adv-x="297" 
d="M262 777h173l-7 -33h-139l-189 -803h139l-9 -33h-172z" />
    <glyph glyph-name="bracketright.cap" horiz-adv-x="295" 
d="M192 -91h-173l7 33h139l189 803h-139l9 33h172z" />
    <glyph glyph-name="braceleft.cap" horiz-adv-x="330" 
d="M214 254q0 -18 -25 -105.5t-25 -122.5q0 -83 109 -83l-10 -36q-70 3 -102 29.5t-32 71.5t25 132.5t25 102.5q0 34 -18 51.5t-58 27.5l8 35q66 18 91.5 46t37.5 88q3 14 8 43q10 61 20 92q25 77 71 113t130 40l-6 -36q-79 -4 -117 -38.5t-53 -106.5q-3 -16 -10 -57
t-11 -58q-14 -65 -40.5 -94.5t-81.5 -47.5q64 -23 64 -87z" />
    <glyph glyph-name="braceright.cap" horiz-adv-x="331" 
d="M274 429q0 18 25 105.5t25 122.5q0 83 -109 83l10 36q70 -3 102 -29.5t32 -71.5t-25 -132.5t-25 -102.5q0 -34 18 -51.5t58 -27.5l-8 -35q-66 -18 -91.5 -46t-37.5 -88q-3 -14 -8 -44q-10 -60 -20 -91q-25 -77 -71 -113t-130 -40l6 36q79 4 117 38.5t53 106.5q3 16 10 57
t11 58q14 65 40.5 94.5t81.5 47.5q-64 23 -64 87z" />
    </font>
</defs>
</svg>
