<?xml version="1.0" standalone="no"?>
<!DOCTYPE svg PUBLIC "-//W3C//DTD SVG 1.1//EN" "http://www.w3.org/Graphics/SVG/1.1/DTD/svg11.dtd" >
<svg xmlns="http://www.w3.org/2000/svg" xmlns:xlink="http://www.w3.org/1999/xlink" version="1.1">
<metadata>
Created by FontForge 20170731 at Fri May  5 14:19:03 2017
 By Aleksey,,,
Copyright (c) 2009-2011 by Accademia di Belle Arti di Urbino and students of MA course of Visual design. Some rights reserved.
</metadata>
<defs>
<font id="TitilliumWeb-BoldItalic" horiz-adv-x="560" >
  <font-face 
    font-family="Titillium Web"
    font-weight="700"
    font-style="italic"
    font-stretch="normal"
    units-per-em="1000"
    panose-1="0 0 8 0 0 0 0 0 0 0"
    ascent="800"
    descent="-200"
    x-height="500"
    cap-height="680"
    bbox="-158 -309 1082 1133"
    underline-thickness="30"
    underline-position="-130"
    slope="-13"
    unicode-range="U+0020-F6C3"
  />
<missing-glyph horiz-adv-x="223" 
 />
    <glyph glyph-name=".notdef" horiz-adv-x="223" 
 />
    <glyph glyph-name=".null" horiz-adv-x="0" 
 />
    <glyph glyph-name="nonmarkingreturn" horiz-adv-x="333" 
 />
    <glyph glyph-name="space" unicode=" " horiz-adv-x="220" 
 />
    <glyph glyph-name="exclam" unicode="!" horiz-adv-x="163" 
d="M77 258l95 442h143l-112 -442h-126zM14 0l35 153h136l-35 -153h-136z" />
    <glyph glyph-name="quotedbl" unicode="&#x22;" horiz-adv-x="306" 
d="M224 437h-115l58 251h125zM392 437h-115l58 251h125z" />
    <glyph glyph-name="numbersign" unicode="#" 
d="M579 165h-96l-41 -165h-116l41 165h-104l-41 -165h-116l41 165h-96l28 112h96l26 106h-96l28 112h96l41 165h116l-41 -165h104l41 165h116l-41 -165h96l-28 -112h-96l-26 -106h96zM395 277l26 106h-104l-26 -106h104z" />
    <glyph glyph-name="dollar" unicode="$" 
d="M540 217q0 -110 -68 -169.5t-182 -59.5q-16 0 -42 2l-49 -109h-85l55 122l-81 25l22 97q52 -10 106 -16l82 183q-64 30 -90.5 66t-26.5 98q0 94 61 155.5t163 61.5q22 0 62 -4l46 102h86l-52 -117l62 -18l-25 -95q-39 6 -83 11l-78 -172q70 -32 93.5 -66t23.5 -97z
M404 201q0 20 -7 31.5t-29 24.5l-69 -152q52 2 78.5 24t26.5 72zM317 472q0 -21 7 -32.5t29 -25.5l65 145h-9q-43 0 -67.5 -24t-24.5 -63z" />
    <glyph glyph-name="percent" unicode="%" 
d="M266.5 607q-7.5 -14 -16.5 -48t-9 -51.5t13.5 -17.5t21.5 15t16.5 48.5t8.5 50.5t-13.5 17t-21 -14zM108 6l424 714l79 -30l-424 -714zM143 496q0 26 8 60q36 145 156 145q92 0 92 -86q0 -26 -8 -59q-36 -146 -156 -146q-92 0 -92 86zM487 291q92 0 92 -86q0 -26 -8 -59
q-36 -146 -156 -146q-92 0 -92 86q0 26 8 60q36 145 156 145zM446 196.5q-8 -14.5 -17 -48.5t-9 -51t13.5 -17t22 15t17 48.5t8.5 50.5t-13.5 17t-21.5 -14.5z" />
    <glyph glyph-name="ampersand" unicode="&#x26;" horiz-adv-x="641" 
d="M430 692q176 0 176 -151q0 -71 -36.5 -112t-139.5 -82l76 -102q12 18 28.5 57.5t20.5 63.5h123q-11 -45 -43.5 -109.5t-60.5 -97.5l80 -93l-93 -80l-72 92q-93 -90 -214 -90t-166.5 47.5t-45.5 130.5t48.5 139.5t147.5 96.5q-30 52 -30 107q0 93 55 138t146 45zM297 102
q32 0 69.5 17.5t58.5 38.5l-118 167q-105 -49 -105 -146q0 -77 95 -77zM428 580q-65 0 -65 -86q0 -44 20 -75q55 29 72 51t17 59q0 51 -44 51z" />
    <glyph glyph-name="quotesingle" unicode="'" horiz-adv-x="138" 
d="M224 437h-115l58 251h125z" />
    <glyph glyph-name="parenleft" unicode="(" horiz-adv-x="234" 
d="M216 307q-24 -95 -24 -166q0 -134 12 -231l4 -33h-128q-29 97 -29 255q0 89 24.5 185t58.5 169q74 157 128 230l25 32h125q-29 -43 -71.5 -124.5t-71.5 -151.5t-53 -165z" />
    <glyph glyph-name="parenright" unicode=")" horiz-adv-x="235" 
d="M164 323q24 95 24 166q0 134 -12 231l-4 33h128q29 -97 29 -255q0 -89 -24.5 -185t-58.5 -169q-74 -157 -128 -230l-25 -32h-125q29 43 71.5 124.5t71.5 151.5t53 165z" />
    <glyph glyph-name="asterisk" unicode="*" horiz-adv-x="423" 
d="M511 499h-123l38 -120l-73 -22l-41 121l-103 -79l-47 59l105 78l-102 73l46 63l101 -73l39 121l75 -25l-38 -122h123v-74z" />
    <glyph glyph-name="plus" unicode="+" 
d="M107 191v120h169v168h120v-168h171v-120h-171v-170h-120v170h-169z" />
    <glyph glyph-name="comma" unicode="," horiz-adv-x="175" 
d="M58 -130h-111l117 283h147z" />
    <glyph glyph-name="hyphen" unicode="-" horiz-adv-x="267" 
d="M53 205l30 120h253l-30 -120h-253z" />
    <glyph glyph-name="period" unicode="." horiz-adv-x="152" 
d="M8 0l35 153h136l-35 -153h-136z" />
    <glyph glyph-name="slash" unicode="/" horiz-adv-x="468" 
d="M163 -24l-126 44l431 698l126 -44z" />
    <glyph glyph-name="zero" unicode="0" 
d="M401 672q216 0 216 -212t-86.5 -342t-219.5 -130q-216 0 -216 212t86.5 342t219.5 130zM459.5 527q-16.5 27 -63 27t-85 -56t-57 -131.5t-18.5 -141.5t16.5 -92.5t62.5 -26.5t84.5 56t57.5 131t19 141t-16.5 93z" />
    <glyph glyph-name="one" unicode="1" 
d="M194 516l255 144h119l-152 -660h-137l115 498l-163 -90z" />
    <glyph glyph-name="two" unicode="2" 
d="M423 410.5q38 42.5 38 78t-20.5 50.5t-64.5 15q-66 0 -146 -12l-25 -3l18 100q96 33 189.5 33t141.5 -37t48 -118t-40.5 -137t-129.5 -124l-182 -138h267l-29 -118h-425l27 112l199 173q96 83 134 125.5z" />
    <glyph glyph-name="three" unicode="3" 
d="M212 631q89 41 190.5 41t149.5 -34t48 -105.5t-26.5 -111.5t-93.5 -74q36 -21 49.5 -46.5t13.5 -77.5q0 -105 -78 -170t-206 -65q-44 0 -94 9t-78 18l-28 9l29 94q114 -12 176 -12t100 29.5t38 81.5q0 29 -18.5 41.5t-67.5 13.5l-126 2l25 102l129 6q39 2 77 35t38 75
q0 62 -90 62q-76 0 -145 -10l-26 -3z" />
    <glyph glyph-name="four" unicode="4" 
d="M322 -5l27 117h-279l23 100l276 448h150l-279 -434h135l41 178h136l-41 -178h61l-27 -114h-60l-27 -117h-136z" />
    <glyph glyph-name="five" unicode="5" 
d="M386 418q174 0 174 -160q0 -118 -75 -194t-188 -76q-52 0 -111 10.5t-92 21.5l-32 11l31 104q116 -29 182 -29t105 36t39 80t-18 61t-50 17q-57 0 -99 -16l-15 -5l-100 23l111 359h393l-27 -118h-284l-59 -156q71 31 115 31z" />
    <glyph glyph-name="six" unicode="6" 
d="M440 554q-115 0 -173 -164q80 35 135 35q181 0 181 -174q0 -119 -70.5 -191t-200.5 -72q-100 0 -156.5 58.5t-56.5 176.5q0 76 25.5 154t71 144.5t118 108.5t158.5 42q66 0 142 -16l26 -6l-43 -111q-78 15 -157 15zM361 307q-56 0 -98 -18l-14 -6q-9 -38 -9 -74
t19.5 -69.5t61.5 -33.5q59 0 90 33.5t31 98.5q0 69 -81 69z" />
    <glyph glyph-name="seven" unicode="7" 
d="M197 542l27 118h412l-40 -173l-354 -505l-125 36l347 483l8 41h-275z" />
    <glyph glyph-name="eight" unicode="8" 
d="M441 673q94 0 145.5 -38.5t51.5 -94.5q0 -74 -28.5 -117.5t-86.5 -82.5q52 -39 52 -123q0 -101 -89.5 -166t-207.5 -65t-165.5 42t-47.5 126q0 99 130 186q-21 21 -31 41t-10.5 28.5t-0.5 29.5q0 94 78.5 164t209.5 70zM233.5 121.5q19.5 -17.5 70 -17.5t88.5 33t38 74
q0 25 -9 39t-34 25h-88q-36 -13 -60.5 -38t-24.5 -61.5t19.5 -54zM470.5 536q-19.5 19 -63 19t-78.5 -31.5t-35 -68.5q0 -24 6.5 -36.5t26.5 -29.5h88q30 17 52.5 45t22.5 55.5t-19.5 46.5z" />
    <glyph glyph-name="nine" unicode="9" 
d="M121 129q58 -15 130 -15t124 41.5t69 109.5l-26 -6q-89 -20 -122 -20q-86 0 -128.5 42t-42.5 135q0 90 69 168q34 39 92.5 63.5t131.5 24.5q95 0 141 -66.5t46 -185.5q0 -202 -110 -317t-268 -115q-66 0 -127 16l-21 6zM478 436q0 111 -90 111q-52 0 -90.5 -33t-38.5 -79
t18 -60t52 -14q64 0 122 11l21 4q6 33 6 60z" />
    <glyph glyph-name="colon" unicode=":" horiz-adv-x="158" 
d="M80 296l35 153h136l-35 -153h-136zM10 0l35 153h136l-35 -153h-136z" />
    <glyph glyph-name="semicolon" unicode=";" horiz-adv-x="175" 
d="M-54 -130l117 283h147l-153 -283h-111zM95 296l35 153h136l-35 -153h-136z" />
    <glyph glyph-name="less" unicode="&#x3c;" 
d="M520 353l-261 -99l261 -108v-136l-406 186v110l406 183v-136z" />
    <glyph glyph-name="equal" unicode="=" 
d="M116 295v121h444v-121h-444zM116 87v121h444v-121h-444z" />
    <glyph glyph-name="greater" unicode="&#x3e;" 
d="M416 254l-261 99v136l406 -183v-110l-406 -186v136z" />
    <glyph glyph-name="question" unicode="?" horiz-adv-x="431" 
d="M522 536q0 -68 -32 -111.5t-119 -103.5q-54 -37 -62 -73l-9 -40h-126q0 49 8.5 94t93.5 106q59 41 81.5 64.5t22.5 52t-17.5 38t-52.5 9.5q-66 0 -126 -9l-20 -3l14 105q90 27 160 27q184 0 184 -156zM120 0l38 168h136l-38 -168h-136z" />
    <glyph glyph-name="at" unicode="@" horiz-adv-x="959" 
d="M635 727q102 0 178 -23q141 -41 185 -156q22 -55 22 -117t-20 -136q-43 -165 -100 -235t-147 -70t-119 44q-33 -16 -90 -31t-102.5 -15t-78 24t-44.5 61q-16 48 -16 92t9 77q54 270 252 270q48 0 244 -33q-66 -288 -71 -329q-4 -33 40 -33q29 0 52 42.5t43 122.5
q25 97 25 135t-10 75t-40 64q-67 59 -233.5 59t-262.5 -88t-136 -256q-13 -56 -13 -99.5t7.5 -81.5t29.5 -72t56 -60q71 -53 202 -53l137 9l-26 -111q-97 -10 -142 -10q-93 0 -167 26.5t-119.5 72t-73.5 106.5q-29 63 -29 133.5t14 139.5q58 243 190 349.5t354 106.5z
M483 102q57 0 119 38q4 40 52 244q-64 14 -91 14q-81 0 -116 -156q-9 -37 -9 -60q0 -79 42 -80h3z" />
    <glyph glyph-name="A" unicode="A" horiz-adv-x="551" 
d="M13 0l306 680h238l-21 -680h-138l4 118h-198l-53 -118h-138zM400 560l-144 -322h151l14 322h-21z" />
    <glyph glyph-name="B" unicode="B" horiz-adv-x="573" 
d="M458 680q178 0 178 -147q0 -65 -28 -107t-84 -76q39 -23 52 -50t13 -68q0 -100 -69.5 -166t-198.5 -66h-256l157 680h236zM382 285h-113l-39 -167h118q45 0 72 31t27 80q0 56 -65 56zM436 562h-103l-38 -162h103q41 0 69 29.5t28 75.5q0 57 -59 57z" />
    <glyph glyph-name="C" unicode="C" horiz-adv-x="494" 
d="M304 -12q-205 0 -205 197q0 146 49 269q27 68 66 120.5t99.5 85t135.5 32.5q73 0 147 -22l24 -8l-32 -102q-62 12 -144 12q-62 0 -109.5 -55t-70.5 -140t-23 -182q0 -87 81 -87q77 0 139 10l23 3l-11 -107q-93 -26 -169 -26z" />
    <glyph glyph-name="D" unicode="D" horiz-adv-x="605" 
d="M309 0h-244l157 680h214q224 0 224 -207q0 -146 -54 -264q-61 -132 -167 -181q-59 -28 -130 -28zM507 364.5q11 57.5 11 107t-27.5 69t-82.5 19.5h-76l-101 -440h90q51 0 91 37t62 93.5t33 114z" />
    <glyph glyph-name="E" unicode="E" horiz-adv-x="497" 
d="M65 0l156 680h399l-28 -120h-260l-37 -160h206l-28 -120h-205l-37 -160h261l-27 -120h-400z" />
    <glyph glyph-name="F" unicode="F" horiz-adv-x="477" 
d="M65 0l157 680h392l-28 -120h-254l-47 -205h210l-29 -120h-209l-54 -235h-138z" />
    <glyph glyph-name="G" unicode="G" horiz-adv-x="568" 
d="M327 -12q-225 0 -225 214q0 162 56 282q61 132 174 182q60 26 121 26t113 -10t80 -20l27 -10l-32 -100q-99 20 -187 20q-54 0 -96.5 -35.5t-65.5 -92.5q-48 -115 -48 -243q0 -93 100 -93l63 5l35 151h-64l27 114h201l-85 -364q-68 -26 -194 -26z" />
    <glyph glyph-name="H" unicode="H" horiz-adv-x="620" 
d="M417 0l66 288h-214l-66 -288h-138l157 680h138l-63 -272h214l63 272h138l-157 -680h-138z" />
    <glyph glyph-name="I" unicode="I" horiz-adv-x="268" 
d="M65 0l157 680h138l-157 -680h-138z" />
    <glyph glyph-name="J" unicode="J" horiz-adv-x="283" 
d="M378 680l-126 -545q-23 -101 -54 -150q-16 -25 -43 -35q-51 -19 -149 -19l23 120q42 2 57 15t28 69l126 545h138z" />
    <glyph glyph-name="K" unicode="K" horiz-adv-x="540" 
d="M384 0l-44 273l-76 -7l-61 -266h-138l157 680h138l-68 -294l64 8l176 286h151l-217 -341l63 -339h-145z" />
    <glyph glyph-name="L" unicode="L" horiz-adv-x="422" 
d="M419 0h-354l157 680h138l-129 -560h215z" />
    <glyph glyph-name="M" unicode="M" horiz-adv-x="789" 
d="M65 0l157 680h214l1 -495l226 495h218l-157 -680h-138l130 560h-6l-243 -530h-130l-1 530h-5l-128 -560h-138z" />
    <glyph glyph-name="N" unicode="N" horiz-adv-x="651" 
d="M65 0l157 680h219l36 -533h12l121 533h133l-157 -680h-208l-44 543h-12l-127 -543h-130z" />
    <glyph glyph-name="O" unicode="O" horiz-adv-x="615" 
d="M264.5 131.5q21.5 -23.5 73 -23.5t85.5 34q47 47 75.5 142t28.5 186q0 55 -21 78.5t-73 23.5t-82 -30q-50 -49 -79 -148.5t-29 -169t21.5 -93zM628 228.5q-41 -118.5 -119.5 -179.5t-186.5 -61q-221 0 -221 208q0 131 40 247t117 182.5t190 66.5q221 0 221 -208
q0 -137 -41 -255.5z" />
    <glyph glyph-name="P" unicode="P" horiz-adv-x="547" 
d="M333 196h-85l-45 -196h-138l157 680h196q111 0 160.5 -45.5t49.5 -146.5q0 -143 -78.5 -217.5t-216.5 -74.5zM351 316q63 0 99 44.5t36 125.5q0 38 -18 56t-60 18h-76l-56 -244h75z" />
    <glyph glyph-name="Q" unicode="Q" horiz-adv-x="615" 
d="M315 -12q-102 0 -158 51.5t-56 156.5q0 131 40 247t117 182.5t190 66.5q221 0 221 -208q0 -137 -41 -255.5t-123 -182.5q-22 -16 -34 -22l48 -135l-131 -43l-43 144q-20 -2 -30 -2zM264.5 131.5q21.5 -23.5 73 -23.5t85.5 34q47 47 75.5 142t28.5 186q0 55 -21 78.5
t-73 23.5t-82 -30q-50 -49 -79 -148.5t-29 -169t21.5 -93z" />
    <glyph glyph-name="R" unicode="R" horiz-adv-x="559" 
d="M418 680q108 0 159 -45.5t51 -143.5t-43 -164t-109 -92l55 -235h-138l-45 216h-95l-50 -216h-138l157 680h196zM454.5 377q31.5 43 31.5 95t-17 71t-59 19h-77l-53 -228h89q54 0 85.5 43z" />
    <glyph glyph-name="S" unicode="S" horiz-adv-x="495" 
d="M381 574q-44 0 -69.5 -24.5t-25.5 -58.5t16 -49.5t88 -47.5t98.5 -67.5t26.5 -103.5q0 -113 -69.5 -174t-187.5 -61q-47 0 -99 10t-81 20l-28 11l23 99q113 -20 177.5 -20t94.5 22.5t30 76.5q0 29 -17.5 44.5t-85.5 46.5t-97 68t-29 103q0 97 63 160t168 63
q48 0 100.5 -9.5t80.5 -18.5l28 -10l-25 -98q-110 18 -180 18z" />
    <glyph glyph-name="T" unicode="T" horiz-adv-x="456" 
d="M138 560l28 120h438l-28 -120h-151l-129 -560h-138l129 560h-149z" />
    <glyph glyph-name="U" unicode="U" horiz-adv-x="595" 
d="M249 231q-9 -38 -9 -68.5t20.5 -42.5t72 -12t77.5 27.5t41 95.5l104 449h138l-104 -449q-29 -128 -94.5 -185.5t-173.5 -57.5q-218 0 -218 154q0 52 13 111l99 427h138z" />
    <glyph glyph-name="V" unicode="V" horiz-adv-x="555" 
d="M561 680h138l-308 -680h-235l14 680h138l-24 -560h33z" />
    <glyph glyph-name="W" unicode="W" horiz-adv-x="865" 
d="M174 680h138l-42 -553h14l226 543h152l-33 -543h14l224 553h138l-291 -680h-200l33 494l-198 -494h-206z" />
    <glyph glyph-name="X" unicode="X" horiz-adv-x="520" 
d="M313 680l49 -239l164 239h145l-250 -338l94 -342h-145l-55 243l-169 -243h-145l256 343l-90 337h146z" />
    <glyph glyph-name="Y" unicode="Y" horiz-adv-x="504" 
d="M661 680l-280 -392l-68 -288h-128l68 294l-95 386h140l48 -265l169 265h146z" />
    <glyph glyph-name="Z" unicode="Z" horiz-adv-x="490" 
d="M165 560l28 120h418l-32 -139l-353 -397l-6 -24h262l-28 -120h-418l31 137l351 399l5 24h-258z" />
    <glyph glyph-name="bracketleft" unicode="[" horiz-adv-x="246" 
d="M187 747h229l-28 -114h-88l-149 -641h88l-28 -114h-226z" />
    <glyph glyph-name="backslash" unicode="\" horiz-adv-x="484" 
d="M458 0h-139l-133 702h140z" />
    <glyph glyph-name="bracketright" unicode="]" horiz-adv-x="245" 
d="M203 -122h-229l28 114h88l149 641h-88l28 114h226z" />
    <glyph glyph-name="asciicircum" unicode="^" 
d="M417 313l-109 217l-113 -217h-140l194 347h114l194 -347h-140z" />
    <glyph glyph-name="underscore" unicode="_" horiz-adv-x="478" 
d="M-4 -80h448l-28 -125h-448z" />
    <glyph glyph-name="grave" unicode="`" horiz-adv-x="518" 
d="M308 772l221 -90l-56 -99l-229 79z" />
    <glyph glyph-name="a" unicode="a" horiz-adv-x="528" 
d="M221 -12q-73 0 -107 49.5t-34 132.5q0 115 58 221q29 53 80 87t116 34q69 0 204 -24l46 -9l-75 -323l-27 -153l-133 -5q9 61 13 78q-41 -55 -96 -78q-23 -10 -45 -10zM338 398q-38 0 -67 -39q-55 -74 -55 -189q0 -35 11 -51.5t34.5 -16.5t53 22t49.5 44l20 23l46 193
q-66 14 -92 14z" />
    <glyph glyph-name="b" unicode="b" horiz-adv-x="527" 
d="M412 512q81 0 115.5 -46.5t34.5 -116.5q0 -157 -70 -258.5t-190 -101.5q-48 0 -109 8t-98 17l-37 8l156 678h134l-55 -239q23 20 57.5 35.5t61.5 15.5zM213 113q44 -10 81.5 -10t63.5 25t40 63q27 77 27 142t-53 65q-20 0 -46 -12.5t-42 -25.5l-17 -12z" />
    <glyph glyph-name="c" unicode="c" horiz-adv-x="409" 
d="M343 512q60 0 127 -24l22 -7l-34 -98q-77 13 -121 13q-57 0 -88 -62.5t-31 -146t76 -83.5l107 8l-11 -99q-73 -25 -146 -25t-117.5 46t-44.5 128q0 153 67.5 251.5t193.5 98.5z" />
    <glyph glyph-name="d" unicode="d" horiz-adv-x="528" 
d="M224 -12q-71 0 -107.5 46t-36.5 131t27.5 162t86.5 130.5t138 53.5q34 0 100 -16l20 -5l49 210h134l-162 -700h-130l9 52q-20 -23 -58 -43.5t-70 -20.5zM428 383q-58 14 -94.5 14t-64 -39.5t-40.5 -91.5t-13 -100q0 -64 51 -64q16 0 44.5 18t48.5 36l20 18z" />
    <glyph glyph-name="e" unicode="e" horiz-adv-x="476" 
d="M235.5 117q20.5 -15 51.5 -15q69 0 141 10l26 3l-15 -99q-93 -28 -184 -28t-132.5 41t-41.5 120t16 141t47.5 112t86 79.5t124.5 29.5q175 0 175 -149q0 -95 -64 -131t-213 -36h-35q-3 -12 -3 -37.5t20.5 -40.5zM274 294q69 0 96.5 15t27.5 51q0 43 -50 43
q-89 0 -115 -109h41z" />
    <glyph glyph-name="f" unicode="f" horiz-adv-x="328" 
d="M378 712q39 0 82 -18l13 -5l-24 -98q-35 7 -61.5 7t-37 -19.5t-20.5 -59.5l-5 -19h105l-28 -114h-102l-90 -386l-63 -211h-121l140 595h-46l28 116h43l5 20q24 105 62.5 148.5t119.5 43.5z" />
    <glyph glyph-name="g" unicode="g" horiz-adv-x="484" 
d="M226 -230q-217 0 -217 137q0 47 33.5 77.5t88.5 57.5q-20 20 -20 46.5t15 50.5t30 38l15 14q-68 40 -68 125t57 140.5t150 55.5q43 0 102 -14l19 -4l146 6l-25 -108h-58q4 -22 4 -51q0 -77 -59.5 -130.5t-149.5 -53.5l-43 5q-15 -20 -15 -34t19 -20t75 -14
q142 -21 142 -126q0 -89 -64.5 -143.5t-176.5 -54.5zM149.5 -24.5q-18.5 -19.5 -18.5 -40.5t22 -37t70 -16q118 0 118 70q0 13 -9.5 21t-21.5 11t-63.5 11.5t-58.5 10.5q-20 -11 -38.5 -30.5zM296 266q35 0 57 23.5t22 57.5q0 56 -70 56q-35 0 -57 -23t-22 -58q0 -56 70 -56
z" />
    <glyph glyph-name="h" unicode="h" horiz-adv-x="513" 
d="M419 512q122 0 122 -141q0 -36 -21 -126l-56 -245h-134l54 235q18 75 18 104.5t-7.5 43t-26.5 13.5q-34 0 -85 -45l-17 -15l-77 -336h-134l161 700h134l-56 -247q22 22 59 40.5t66 18.5z" />
    <glyph glyph-name="i" unicode="i" horiz-adv-x="243" 
d="M55 0l115 500h134l-115 -500h-134zM181 552l32 137h135l-31 -137h-136z" />
    <glyph glyph-name="j" unicode="j" horiz-adv-x="243" 
d="M55 0l115 500h134l-115 -500q-9 -40 -14.5 -60t-17.5 -43.5t-23 -35t-36 -27.5q-34 -24 -126 -64l-42 107q77 40 95.5 58.5t29.5 64.5zM179 543l32 137h135l-31 -137h-136z" />
    <glyph glyph-name="k" unicode="k" horiz-adv-x="467" 
d="M189 0h-134l161 700h134l-90 -389l34 7l127 181h147l-174 -240l66 -259h-137l-48 207l-40 -6z" />
    <glyph glyph-name="l" unicode="l" horiz-adv-x="244" 
d="M55 0l161 700h134l-161 -700h-134z" />
    <glyph glyph-name="m" unicode="m" horiz-adv-x="776" 
d="M383 235q18 75 18 104t-8.5 43t-27.5 14q-33 0 -83 -45l-16 -15l-77 -336h-134l115 500h128l-5 -48q38 38 89 54q21 6 50 6t55 -18t33 -36l7 -17q9 8 24 20t56.5 31.5t75.5 19.5q120 0 120 -141q0 -45 -19 -126l-56 -245h-134l56 235q18 75 18 103t-8 43t-26.5 15
t-43 -14.5t-40.5 -29.5l-16 -14q-7 -60 -15 -93l-56 -245h-134z" />
    <glyph glyph-name="n" unicode="n" horiz-adv-x="513" 
d="M419 512q122 0 122 -141q0 -36 -21 -126l-56 -245h-134l54 235q18 75 18 104.5t-7.5 43t-27.5 13.5q-35 0 -85 -45l-16 -15l-77 -336h-134l115 500h128l-6 -49q23 23 60.5 42t66.5 19z" />
    <glyph glyph-name="o" unicode="o" horiz-adv-x="496" 
d="M333 511q197 0 197 -189q0 -81 -27 -155t-86.5 -126.5t-139.5 -52.5q-197 0 -197 189q0 80 29 155t88.5 127t135.5 52zM277 102q54 0 87 68.5t33 153.5q0 73 -64 73q-54 0 -87 -68.5t-33 -153.5q0 -73 64 -73z" />
    <glyph glyph-name="p" unicode="p" horiz-adv-x="527" 
d="M418 512q73 0 109 -46.5t36 -129t-27.5 -161t-86.5 -132.5t-138 -54q-45 0 -101 15l-20 6l-51 -220h-132l163 710h131l-10 -52q25 25 61.5 44.5t65.5 19.5zM376 398q-16 0 -44.5 -18t-48.5 -36l-20 -18l-48 -209q58 -14 94.5 -14t64 39.5t40.5 91.5t13 100q0 64 -51 64z
" />
    <glyph glyph-name="q" unicode="q" horiz-adv-x="526" 
d="M224 -12q-70 0 -107 46t-37 131t28.5 163.5t87.5 130.5t136 52q70 0 207 -25l44 -8l-158 -688h-134l61 263q-6 -7 -17.5 -18t-45 -29t-65.5 -18zM331 397q-49 0 -82 -74.5t-33 -156.5q0 -64 51 -64q16 0 44.5 18t48.5 36l20 18l48 209q-59 14 -97 14z" />
    <glyph glyph-name="r" unicode="r" horiz-adv-x="334" 
d="M55 0l115 500h133l-18 -72q30 27 77 53.5t80 30.5l-39 -140q-48 -15 -117 -46l-24 -11l-73 -315h-134z" />
    <glyph glyph-name="s" unicode="s" horiz-adv-x="432" 
d="M302 397q-30 0 -46 -14t-16 -32.5t14 -27.5t72.5 -27t88 -41.5t29.5 -76.5q0 -94 -61.5 -142t-163.5 -48q-43 0 -86.5 8.5t-64.5 17.5l-22 8l25 98q96 -18 166 -18t70 49q0 13 -14 20.5t-48 17.5q-71 20 -105 47t-34 77q0 93 61 145.5t147 52.5q47 0 92 -7.5t66 -15.5
l22 -8l-24 -99q-103 16 -168 16z" />
    <glyph glyph-name="t" unicode="t" horiz-adv-x="329" 
d="M238 130q0 -28 29 -28l68 5l-11 -96q-53 -23 -109.5 -23t-86 30.5t-29.5 74t15 105.5l44 188h-54l30 114h51l29 128h134l-29 -128h105l-28 -114h-104l-46 -200q-8 -34 -8 -56z" />
    <glyph glyph-name="u" unicode="u" horiz-adv-x="513" 
d="M209 -12q-122 0 -122 141q0 39 21 126l56 245h134l-54 -235q-18 -75 -18 -104t8.5 -43t27.5 -14q34 0 84 45l16 15l77 336h134l-115 -500h-128l6 49q-23 -23 -60.5 -42t-66.5 -19z" />
    <glyph glyph-name="v" unicode="v" horiz-adv-x="463" 
d="M126 500h131l-14 -389h18l171 389h135l-235 -500h-210z" />
    <glyph glyph-name="w" unicode="w" horiz-adv-x="762" 
d="M135 500h135l-32 -386h23l159 376h152l-20 -376h23l149 386h135l-204 -500h-223l19 311l-126 -311h-219z" />
    <glyph glyph-name="x" unicode="x" horiz-adv-x="430" 
d="M124 500h136l39 -153l104 153h136l-197 -260l80 -240h-136l-39 147l-102 -147h-139l196 250z" />
    <glyph glyph-name="y" unicode="y" horiz-adv-x="464" 
d="M126 500h131l-14 -389h15l174 389h135l-332 -710h-133l103 210h-83z" />
    <glyph glyph-name="z" unicode="z" horiz-adv-x="414" 
d="M122 386l29 114h345l-28 -111l-252 -275h192l-29 -114h-345l25 112l251 274h-188z" />
    <glyph glyph-name="braceleft" unicode="{" horiz-adv-x="288" 
d="M204 313q61 -34 61 -86q0 -27 -22.5 -103t-22.5 -94q0 -48 58 -48l-31 -115q-73 0 -116 33t-43 92q0 21 21 99.5t21 98.5q0 50 -67 85l24 95q61 16 80.5 33.5t28.5 53.5l29 146q25 84 78 118t155 38l-22 -115q-41 -4 -61 -22t-28 -50l-24 -126q-14 -57 -40.5 -86
t-78.5 -47z" />
    <glyph glyph-name="bar" unicode="|" horiz-adv-x="335" 
d="M157 -210v910h134v-910h-134z" />
    <glyph glyph-name="braceright" unicode="}" horiz-adv-x="287" 
d="M227 310q-61 34 -61 86q0 27 22.5 103t22.5 94q0 48 -58 48l31 115q73 0 116 -33t43 -92q0 -21 -21 -99.5t-21 -98.5q0 -50 67 -85l-24 -95q-61 -16 -80.5 -33.5t-28.5 -53.5l-29 -146q-25 -84 -78 -118t-155 -38l22 115q41 4 61 22t28 50l24 126q14 57 40.5 86t78.5 47z
" />
    <glyph glyph-name="asciitilde" unicode="~" 
d="M442 170q-28 0 -107 22t-98 22t-46.5 -10t-44.5 -20l-16 -9l-10 107q63 52 123 52q28 0 104 -22t96 -22q37 0 88 28l17 10l8 -107q-19 -19 -52.5 -35t-61.5 -16z" />
    <glyph glyph-name="uni00A0" unicode="&#xa0;" horiz-adv-x="220" 
 />
    <glyph glyph-name="exclamdown" unicode="&#xa1;" horiz-adv-x="161" 
d="M201 242l-95 -442h-143l112 442h126zM264 500l-35 -153h-136l35 153h136z" />
    <glyph glyph-name="cent" unicode="&#xa2;" 
d="M159 105q-11 31 -12 53t-1 41t9 51q26 103 84 158t140 60l23 102h108l-26 -105l70 -10l-34 -112q-71 3 -118.5 3t-76 -21.5t-42.5 -74.5q-5 -22 -5 -41.5t10 -32.5q18 -23 82 -23l108 4l-21 -112q-37 -6 -75 -9l-25 -110h-106l23 103q-44 3 -74 24t-41 52z" />
    <glyph glyph-name="sterling" unicode="&#xa3;" 
d="M593 553q-63 8 -100.5 8t-52 -22t-27.5 -76l-5 -20h157l-27 -114h-156l-50 -215h92l68 18l-3 -115l-74 -17h-340l26 114h95l49 215h-80l27 114h79l9 36q28 110 71.5 155t129.5 45q41 0 119 -19l24 -6z" />
    <glyph glyph-name="currency" unicode="&#xa4;" 
d="M338.5 54q-42.5 0 -84.5 21l-73 -73l-92 92l73 73q-20 42 -20 84.5t20 85.5l-73 73l92 92l73 -73q42 20 84.5 20t85.5 -20l73 73l92 -92l-73 -73q20 -43 20 -85.5t-20 -84.5l73 -73l-92 -92l-73 73q-43 -21 -85.5 -21zM339 177q31 0 53 22t22 53t-22 53t-53 22t-53 -22
t-22 -53t22 -53t53 -22z" />
    <glyph glyph-name="yen" unicode="&#xa5;" 
d="M139 276l26 118h70l-108 266h149l98 -231l178 231h178l-214 -266h71l-28 -118h-132l-9 -11l-6 -22h140l-27 -118h-140l-29 -125h-137l30 125h-146l28 118h145l5 22l-3 11h-139z" />
    <glyph glyph-name="brokenbar" unicode="&#xa6;" horiz-adv-x="335" 
d="M157 700h134v-372h-134v372zM157 170h134v-380h-134v380z" />
    <glyph glyph-name="section" unicode="&#xa7;" horiz-adv-x="487" 
d="M538 502q-104 16 -151.5 16t-75.5 -16.5t-28 -46.5q0 -19 10.5 -26.5t16.5 -11t19.5 -7.5t20.5 -6q15 -5 46 -11q116 -28 116 -127q0 -29 -16.5 -63t-31 -52.5t-39.5 -47.5q17 -27 17 -53.5t-4 -51.5t-20 -60t-42 -61.5t-75 -45.5t-97 -19q-76 0 -160 16l-28 6l38 111
q99 -14 148.5 -14t79 16t29.5 44q0 23 -17 34q-7 5 -45 16t-54 16q-63 20 -90 49.5t-27 75.5q0 93 96 164q-20 18 -20 82q0 67 62 134q29 33 80 54t96 21q76 0 151 -18l25 -6zM227 262q-12 -27 -12 -38t0.5 -14t1.5 -5t3 -4q8 -8 16 -11t10.5 -4t7 -3t10.5 -4.5t33.5 -12.5
t39.5 -15q11 11 23.5 39t12.5 45.5t-14.5 28t-57.5 21.5t-52 16q-10 -12 -22 -39z" />
    <glyph glyph-name="dieresis" unicode="&#xa8;" horiz-adv-x="514" 
d="M215 601l31 135h111l-32 -135h-110zM409 601l31 135h111l-32 -135h-110z" />
    <glyph glyph-name="copyright" unicode="&#xa9;" horiz-adv-x="641" 
d="M223.5 232q-78.5 82 -78.5 203.5t78 202t199.5 80.5t197.5 -82.5t76 -203.5t-76 -201.5t-197 -80.5t-199.5 82zM207 434q0 -93 61 -158.5t152.5 -65.5t152.5 65t61 158t-61.5 159t-152 66t-152 -65.5t-61.5 -158.5zM513 287q-28 -18 -90.5 -18t-92 36t-29.5 129.5
t30.5 128.5t101.5 35q39 0 71 -12l9 -3l-7 -86q-35 6 -61 6t-33.5 -14t-7.5 -50q0 -75 35 -75l67 5z" />
    <glyph glyph-name="ordfeminine" unicode="&#xaa;" horiz-adv-x="329" 
d="M278 346q-50 -32 -99 -32t-70 30q-13 18 -13 40q0 79 50 114q34 24 102 27l64 3l6 22q2 15 -39 15l-133 -7l14 75q77 26 151 26t106 -25q22 -16 22 -52q0 -17 -5 -38l-32 -141q6 -6 16 -8l-21 -82q-68 0 -89.5 7.5t-29.5 25.5zM213 422q0 -20 26 -20q17 0 49 16l8 40
l-44 -3q-39 -3 -39 -33z" />
    <glyph glyph-name="guillemotleft" unicode="&#xab;" horiz-adv-x="482" 
d="M576 436l-37 -131l-113 -65l80 -77l-33 -120l-170 169l23 61zM326 436l-37 -131l-113 -65l80 -77l-33 -120l-170 169l23 61z" />
    <glyph glyph-name="logicalnot" unicode="&#xac;" 
d="M113 358h436v-254h-120v134h-316v120z" />
    <glyph glyph-name="registered" unicode="&#xae;" horiz-adv-x="641" 
d="M223.5 231.5q-78.5 81.5 -78.5 203.5t78 202.5t199 80.5t197.5 -82.5t76.5 -203.5t-75.5 -201.5t-197 -80.5t-200 81.5zM207 434q0 -92 62 -158t152.5 -66t151.5 65.5t61 158t-61.5 158.5t-152 66t-152 -66t-61.5 -158zM396 369v-93h-96v315h136q52 0 83 -25.5t31 -72
t-8 -68t-30 -39.5l41 -110h-100l-28 93h-29zM395 519v-79h28q34 0 34 39.5t-35 39.5h-27z" />
    <glyph glyph-name="macron" unicode="&#xaf;" horiz-adv-x="462" 
d="M217 627l25 109h309l-26 -109h-308z" />
    <glyph glyph-name="degree" unicode="&#xb0;" 
d="M255 542q0 67 41.5 108.5t108.5 41.5t108.5 -41.5t41.5 -108.5t-41.5 -108t-108.5 -41t-108.5 41t-41.5 108zM330 542q0 -34 20.5 -55t54.5 -21t55.5 21t21.5 55t-21.5 55.5t-55.5 21.5t-54.5 -21.5t-20.5 -55.5z" />
    <glyph glyph-name="plusminus" unicode="&#xb1;" 
d="M99 270v120h169v108h120v-108h171v-120h-171v-100h-120v100h-169zM99 139h460v-120h-460v120z" />
    <glyph glyph-name="twosuperior" unicode="&#xb2;" horiz-adv-x="280" 
d="M213 792q75 9 128 9t73 -23q11 -13 11 -33.5t-7 -48.5q-14 -54 -80 -95l-45 -28h94l-23 -95h-231l22 90l88 59q54 36 60 57q2 9 -5.5 12t-27.5 3l-78 -6z" />
    <glyph glyph-name="threesuperior" unicode="&#xb3;" horiz-adv-x="280" 
d="M321 801q102 0 102 -63q0 -12 -3 -26q-12 -52 -46 -70q21 -10 21 -40q0 -14 -5 -33q-25 -102 -143 -102l-119 8l29 93q60 -6 91 -6t35 16q2 9 -3 11.5t-20 2.5h-66l21 85h64q20 0 23 11t-3 14.5t-19 3.5l-86 -5l17 91q70 9 110 9z" />
    <glyph glyph-name="acute" unicode="&#xb4;" horiz-adv-x="559" 
d="M254 576l-10 107l264 91l10 -120z" />
    <glyph glyph-name="mu" unicode="&#xb5;" 
d="M261 224q-9 -43 -9 -67.5t8.5 -38.5t27.5 -14q34 0 84 45l16 15l77 336h134l-115 -500h-128l6 49q-23 -23 -60.5 -42t-60 -19t-34.5 3l-46 -201h-134l101 442l3 10q0 3 2 9l57 249h134l-49 -210h1z" />
    <glyph glyph-name="paragraph" unicode="&#xb6;" horiz-adv-x="565" 
d="M140 460q0 94 64 167t163 73h313l-25 -106h-34l-142 -594h-107l141 594h-57l-142 -594h-108l73 306q-74 1 -106.5 44t-32.5 110z" />
    <glyph glyph-name="periodcentered" unicode="&#xb7;" horiz-adv-x="151" 
d="M56 207l38 169h135l-38 -169h-135z" />
    <glyph glyph-name="cedilla" unicode="&#xb8;" horiz-adv-x="791" 
d="M416 -33q93 0 93 -61q0 -13 -4 -30q-25 -105 -129 -105q-40 0 -72 8l-12 3l20 81q30 -1 46 -1q36 0 42 24q3 12 -4.5 16t-26.5 4h-22l22 99h52l-11 -38h6z" />
    <glyph glyph-name="onesuperior" unicode="&#xb9;" horiz-adv-x="280" 
d="M189 715l124 75h96l-77 -312h-106l48 195l-55 -32z" />
    <glyph glyph-name="ordmasculine" unicode="&#xba;" horiz-adv-x="343" 
d="M321 660q48 0 88 -17t48 -52q4 -19 4 -42.5t-7 -54.5q-24 -100 -73.5 -140t-141.5 -40q-65 0 -98 32.5t-33 81.5q0 32 9 67q22 89 71 127t133 38zM232.5 419q8.5 -9 34 -9t42.5 17.5t26 51t9 49.5q0 40 -43 40q-28 0 -43.5 -15.5t-24.5 -50t-9 -54.5t8.5 -29z" />
    <glyph glyph-name="guillemotright" unicode="&#xbb;" horiz-adv-x="474" 
d="M259 43l37 131l113 65l-80 77l33 120l170 -169l-23 -61zM19 43l37 131l113 65l-80 77l33 120l170 -169l-23 -61z" />
    <glyph glyph-name="onequarter" unicode="&#xbc;" horiz-adv-x="634" 
d="M158 715l124 75h96l-77 -312h-106l48 195l-55 -32zM228 -24l-126 44l431 698l126 -44zM516 0l8 35h-135l22 88l89 189h118l-97 -182h27l37 90h91l-23 -90h11l-24 -95h-11l-8 -35h-105z" />
    <glyph glyph-name="onehalf" unicode="&#xbd;" horiz-adv-x="647" 
d="M158 715l124 75h96l-77 -312h-106l48 195l-55 -32zM228 -24l-126 44l431 698l126 -44zM491 314q75 9 128 9t73 -23q11 -13 11 -33.5t-7 -48.5q-14 -54 -80 -95l-45 -28h94l-23 -95h-231l22 90l88 59q54 36 60 57q2 9 -5.5 12t-27.5 3l-78 -6z" />
    <glyph glyph-name="threequarters" unicode="&#xbe;" horiz-adv-x="631" 
d="M301 801q102 0 102 -63q0 -12 -3 -26q-12 -52 -46 -70q21 -10 21 -40q0 -14 -5 -33q-25 -102 -143 -102l-119 8l29 93q60 -6 91 -6t35 16q2 9 -3 11.5t-20 2.5h-66l21 85h64q20 0 23 11t-3 14.5t-19 3.5l-86 -5l17 91q70 9 110 9zM225 -24l-126 44l431 698l126 -44z
M513 0l8 35h-135l22 88l89 189h118l-97 -182h27l37 90h91l-23 -90h11l-24 -95h-11l-8 -35h-105z" />
    <glyph glyph-name="questiondown" unicode="&#xbf;" horiz-adv-x="432" 
d="M26 -36q0 68 32 111.5t119 103.5q54 37 62 73l9 40h126q0 -49 -8.5 -94t-93.5 -106q-59 -41 -81.5 -64.5t-22.5 -52t17.5 -38t52.5 -9.5q66 0 126 9l20 3l-14 -105q-90 -27 -160 -27q-184 0 -184 156zM428 500l-38 -168h-136l38 168h136z" />
    <glyph glyph-name="Agrave" unicode="&#xc0;" horiz-adv-x="551" 
d="M383 950l222 -91l-61 -105l-227 77zM13 0l306 680h238l-21 -680h-138l4 118h-198l-53 -118h-138zM400 560l-144 -322h151l14 322h-21z" />
    <glyph glyph-name="Aacute" unicode="&#xc1;" horiz-adv-x="551" 
d="M354 765l-10 106l264 91l10 -120zM13 0l306 680h238l-21 -680h-138l4 118h-198l-53 -118h-138zM400 560l-144 -322h151l14 322h-21z" />
    <glyph glyph-name="Acircumflex" unicode="&#xc2;" horiz-adv-x="551" 
d="M273 779l176 152h80l96 -152h-122l-26 55l-62 -55h-142zM13 0l306 680h238l-21 -680h-138l4 118h-198l-53 -118h-138zM400 560l-144 -322h151l14 322h-21z" />
    <glyph glyph-name="Atilde" unicode="&#xc3;" horiz-adv-x="551" 
d="M516.5 779q-24.5 0 -77.5 21.5t-67 21.5q-23 0 -72 -30l-15 -9l-4 93q30 26 62.5 45t60 19t80 -21t62.5 -21q21 0 69 28l16 10l2 -94q-24 -24 -58 -43.5t-58.5 -19.5zM13 0l306 680h238l-21 -680h-138l4 118h-198l-53 -118h-138zM400 560l-144 -322h151l14 322h-21z" />
    <glyph glyph-name="Adieresis" unicode="&#xc4;" horiz-adv-x="551" 
d="M308 788l31 135h111l-32 -135h-110zM507 788l31 135h111l-33 -135h-109zM13 0l306 680h238l-21 -680h-138l4 118h-198l-53 -118h-138zM400 560l-144 -322h151l14 322h-21z" />
    <glyph glyph-name="Aring" unicode="&#xc5;" horiz-adv-x="551" 
d="M313 666q-1 8 -1 20.5t4 30.5q14 58 57 87.5t101.5 29.5t87.5 -29q21 -20 21 -53q0 -47 -27 -85l-20 -667h-138l4 118h-198l-53 -118h-138zM400 560l-144 -322h151l14 322h-21zM402 717q-1 -3 -1 -9.5t9 -14t29 -7.5q45 0 52 31q1 4 1 11.5t-11 13.5t-27 6q-44 0 -52 -31
z" />
    <glyph glyph-name="AE" unicode="&#xc6;" horiz-adv-x="754" 
d="M313 0l28 119h-143l-53 -119h-131l308 690h559l-30 -131l-276 2l-38 -159h220l-29 -125h-221l-35 -147h276l-29 -130h-406zM393 560l-137 -313h116l73 313h-52z" />
    <glyph glyph-name="Ccedilla" unicode="&#xc7;" horiz-adv-x="494" 
d="M294 -33q93 0 93 -61q0 -13 -4 -30q-25 -105 -129 -105q-40 0 -72 8l-12 3l20 81q30 -1 46 -1q36 0 42 24q3 12 -4.5 16t-26.5 4h-22l19 87q-145 27 -145 192q0 146 49 269q27 68 66 120.5t99.5 85t135.5 32.5q73 0 147 -22l24 -8l-32 -102q-62 12 -144 12
q-62 0 -109.5 -55t-70.5 -140t-23 -182q0 -87 81 -87q77 0 139 10l23 3l-11 -107q-93 -26 -169 -26h-10l-6 -21h6z" />
    <glyph glyph-name="Egrave" unicode="&#xc8;" horiz-adv-x="497" 
d="M336 950l222 -91l-61 -105l-227 77zM65 0l156 680h399l-28 -120h-260l-37 -160h206l-28 -120h-205l-37 -160h261l-27 -120h-400z" />
    <glyph glyph-name="Eacute" unicode="&#xc9;" horiz-adv-x="497" 
d="M349 765l-10 106l264 91l10 -120zM65 0l156 680h399l-28 -120h-260l-37 -160h206l-28 -120h-205l-37 -160h261l-27 -120h-400z" />
    <glyph glyph-name="Ecircumflex" unicode="&#xca;" horiz-adv-x="497" 
d="M260 782l176 152h80l96 -152h-122l-26 55l-62 -55h-142zM65 0l156 680h399l-28 -120h-260l-37 -160h206l-28 -120h-205l-37 -160h261l-27 -120h-400z" />
    <glyph glyph-name="Edieresis" unicode="&#xcb;" horiz-adv-x="497" 
d="M287 788l31 135h111l-32 -135h-110zM486 788l31 135h111l-33 -135h-109zM65 0l156 680h399l-28 -120h-260l-37 -160h206l-28 -120h-205l-37 -160h261l-27 -120h-400z" />
    <glyph glyph-name="Igrave" unicode="&#xcc;" horiz-adv-x="268" 
d="M210 950l222 -91l-61 -105l-227 77zM65 0l157 680h138l-157 -680h-138z" />
    <glyph glyph-name="Iacute" unicode="&#xcd;" horiz-adv-x="268" 
d="M229 765l-10 106l264 91l10 -120zM65 0l157 680h138l-157 -680h-138z" />
    <glyph glyph-name="Icircumflex" unicode="&#xce;" horiz-adv-x="268" 
d="M132 782l176 152h80l96 -152h-122l-26 55l-62 -55h-142zM65 0l157 680h138l-157 -680h-138z" />
    <glyph glyph-name="Idieresis" unicode="&#xcf;" horiz-adv-x="268" 
d="M158 800l31 135h111l-32 -135h-110zM357 800l31 135h111l-33 -135h-109zM65 0l157 680h138l-157 -680h-138z" />
    <glyph glyph-name="Eth" unicode="&#xd0;" horiz-adv-x="613" 
d="M317 0h-244l63 275h-53l29 136h56l62 269h214q224 0 224 -207q0 -146 -54 -264q-61 -132 -167 -181q-59 -28 -130 -28zM515 364.5q11 57.5 11 107t-27.5 69t-82.5 19.5h-76l-34 -149h109l-30 -136h-111l-35 -155h90q51 0 91 37t62 93.5t33 114z" />
    <glyph glyph-name="Ntilde" unicode="&#xd1;" horiz-adv-x="651" 
d="M560.5 778q-24.5 0 -77.5 21.5t-67 21.5q-27 0 -72 -29l-15 -10l-4 93q30 26 62.5 45t60 19t80 -21t62.5 -21q21 0 69 29l16 9l2 -94q-24 -24 -58 -43.5t-58.5 -19.5zM65 0l157 680h219l36 -533h12l121 533h133l-157 -680h-208l-44 543h-12l-127 -543h-130z" />
    <glyph glyph-name="Ograve" unicode="&#xd2;" horiz-adv-x="615" 
d="M396 950l222 -91l-61 -105l-227 77zM264.5 131.5q21.5 -23.5 73 -23.5t85.5 34q47 47 75.5 142t28.5 186q0 55 -21 78.5t-73 23.5t-82 -30q-50 -49 -79 -148.5t-29 -169t21.5 -93zM628 228.5q-41 -118.5 -119.5 -179.5t-186.5 -61q-221 0 -221 208q0 131 40 247
t117 182.5t190 66.5q221 0 221 -208q0 -137 -41 -255.5z" />
    <glyph glyph-name="Oacute" unicode="&#xd3;" horiz-adv-x="615" 
d="M264.5 131.5q21.5 -23.5 73 -23.5t85.5 34q47 47 75.5 142t28.5 186q0 55 -21 78.5t-73 23.5t-82 -30q-50 -49 -79 -148.5t-29 -169t21.5 -93zM628 228.5q-41 -118.5 -119.5 -179.5t-186.5 -61q-221 0 -221 208q0 131 40 247t117 182.5t190 66.5q221 0 221 -208
q0 -137 -41 -255.5zM388 765l-10 106l264 91l10 -120z" />
    <glyph glyph-name="Ocircumflex" unicode="&#xd4;" horiz-adv-x="615" 
d="M264.5 131.5q21.5 -23.5 73 -23.5t85.5 34q47 47 75.5 142t28.5 186q0 55 -21 78.5t-73 23.5t-82 -30q-50 -49 -79 -148.5t-29 -169t21.5 -93zM628 228.5q-41 -118.5 -119.5 -179.5t-186.5 -61q-221 0 -221 208q0 131 40 247t117 182.5t190 66.5q221 0 221 -208
q0 -137 -41 -255.5zM309 779l176 152h80l96 -152h-122l-26 55l-62 -55h-142z" />
    <glyph glyph-name="Otilde" unicode="&#xd5;" horiz-adv-x="615" 
d="M563.5 778q-24.5 0 -77.5 21.5t-67 21.5q-27 0 -71 -29l-16 -10l-4 93q30 26 62.5 45t60 19t80 -21t61.5 -21q22 0 70 29l16 9l2 -94q-24 -24 -58 -43.5t-58.5 -19.5zM264.5 131.5q21.5 -23.5 73 -23.5t85.5 34q47 47 75.5 142t28.5 186q0 55 -21 78.5t-73 23.5t-82 -30
q-50 -49 -79 -148.5t-29 -169t21.5 -93zM628 228.5q-41 -118.5 -119.5 -179.5t-186.5 -61q-221 0 -221 208q0 131 40 247t117 182.5t190 66.5q221 0 221 -208q0 -137 -41 -255.5z" />
    <glyph glyph-name="Odieresis" unicode="&#xd6;" horiz-adv-x="615" 
d="M321 781l31 135h121l-32 -135h-120zM525 781l31 135h121l-32 -135h-120zM264.5 131.5q21.5 -23.5 73 -23.5t85.5 34q47 47 75.5 142t28.5 186q0 55 -21 78.5t-73 23.5t-82 -30q-50 -49 -79 -148.5t-29 -169t21.5 -93zM628 228.5q-41 -118.5 -119.5 -179.5t-186.5 -61
q-221 0 -221 208q0 131 40 247t117 182.5t190 66.5q221 0 221 -208q0 -137 -41 -255.5z" />
    <glyph glyph-name="multiply" unicode="&#xd7;" 
d="M200 473l138 -141l140 143l84 -85l-143 -140l143 -139l-85 -85l-139 142l-139 -141l-85 84l142 139l-141 138z" />
    <glyph glyph-name="Oslash" unicode="&#xd8;" horiz-adv-x="615" 
d="M101 196q0 131 40 247t117 182.5t190 66.5q69 0 115 -20l91 133l74 -31l-102 -150q43 -53 43 -140q0 -137 -41 -256q-83 -240 -313 -240q-60 0 -109 19l-87 -128l-66 40l91 134q-43 52 -43 143zM282 118q20 -10 63.5 -10t77.5 34q47 47 75.5 142t28.5 186v8zM488 562
q-20 10 -63.5 10t-73.5 -30q-50 -49 -79 -148.5t-29 -183.5v-10z" />
    <glyph glyph-name="Ugrave" unicode="&#xd9;" horiz-adv-x="595" 
d="M389 950l222 -91l-61 -105l-227 77zM249 231q-9 -38 -9 -68.5t20.5 -42.5t72 -12t77.5 27.5t41 95.5l104 449h138l-104 -449q-29 -128 -94.5 -185.5t-173.5 -57.5q-218 0 -218 154q0 52 13 111l99 427h138z" />
    <glyph glyph-name="Uacute" unicode="&#xda;" horiz-adv-x="595" 
d="M249 231q-9 -38 -9 -68.5t20.5 -42.5t72 -12t77.5 27.5t41 95.5l104 449h138l-104 -449q-29 -128 -94.5 -185.5t-173.5 -57.5q-218 0 -218 154q0 52 13 111l99 427h138zM361 765l-10 106l264 91l10 -120z" />
    <glyph glyph-name="Ucircumflex" unicode="&#xdb;" horiz-adv-x="595" 
d="M249 231q-9 -38 -9 -68.5t20.5 -42.5t72 -12t77.5 27.5t41 95.5l104 449h138l-104 -449q-29 -128 -94.5 -185.5t-173.5 -57.5q-218 0 -218 154q0 52 13 111l99 427h138zM295 779l176 152h80l96 -152h-122l-26 55l-62 -55h-142z" />
    <glyph glyph-name="Udieresis" unicode="&#xdc;" horiz-adv-x="595" 
d="M305 781l31 135h121l-32 -135h-120zM509 781l31 135h121l-32 -135h-120zM249 231q-9 -38 -9 -68.5t20.5 -42.5t72 -12t77.5 27.5t41 95.5l104 449h138l-104 -449q-29 -128 -94.5 -185.5t-173.5 -57.5q-218 0 -218 154q0 52 13 111l99 427h138z" />
    <glyph glyph-name="Yacute" unicode="&#xdd;" horiz-adv-x="504" 
d="M345 765l-10 106l264 91l10 -120zM661 680l-280 -392l-68 -288h-128l68 294l-95 386h140l48 -265l169 265h146z" />
    <glyph glyph-name="Thorn" unicode="&#xde;" horiz-adv-x="538" 
d="M343 236q96 0 124 112q4 19 4 39t-9 38q-16 31 -65 32l-96 2l-53 -223h95zM428 593q100 0 146 -71q32 -47 32 -111q0 -30 -7 -63q-26 -117 -101.5 -183t-182.5 -66h-3l-96 1l-23 -100h-130l163 690h131l-25 -97h96z" />
    <glyph glyph-name="germandbls" unicode="&#xdf;" horiz-adv-x="564" 
d="M260.5 670.5q57.5 41.5 159 41.5t152 -37.5t50.5 -107.5q0 -52 -20 -86t-72 -54.5t-70.5 -33t-18.5 -29.5t12 -28t48.5 -35t49.5 -35q32 -27 32 -86q0 -89 -55 -140.5t-151 -51.5q-65 0 -137 21l-24 7l29 98q70 -12 114.5 -12t66 17.5t21.5 38.5t-10 31t-53.5 36t-61 50
t-17.5 72t26 81t77 57t64.5 35.5t13.5 32.5q0 45 -76 45q-48 0 -74 -22.5t-38 -73.5l-118 -502h-126l123 520q26 109 83.5 150.5z" />
    <glyph glyph-name="agrave" unicode="&#xe0;" horiz-adv-x="528" 
d="M221 -12q-73 0 -107 49.5t-34 132.5q0 115 58 221q29 53 80 87t116 34q69 0 204 -24l46 -9l-75 -323l-27 -153l-133 -5q9 61 13 78q-41 -55 -96 -78q-23 -10 -45 -10zM338 398q-38 0 -67 -39q-55 -74 -55 -189q0 -35 11 -51.5t34.5 -16.5t53 22t49.5 44l20 23l46 193
q-66 14 -92 14zM352 772l221 -90l-56 -99l-229 79z" />
    <glyph glyph-name="aacute" unicode="&#xe1;" horiz-adv-x="528" 
d="M221 -12q-73 0 -107 49.5t-34 132.5q0 115 58 221q29 53 80 87t116 34q69 0 204 -24l46 -9l-75 -323l-27 -153l-133 -5q9 61 13 78q-41 -55 -96 -78q-23 -10 -45 -10zM338 398q-38 0 -67 -39q-55 -74 -55 -189q0 -35 11 -51.5t34.5 -16.5t53 22t49.5 44l20 23l46 193
q-66 14 -92 14zM336 576l-10 107l264 91l10 -120z" />
    <glyph glyph-name="acircumflex" unicode="&#xe2;" horiz-adv-x="528" 
d="M212 575l168 175h100l86 -175h-132l-24 64l-58 -64h-140zM221 -12q-73 0 -107 49.5t-34 132.5q0 115 58 221q29 53 80 87t116 34q69 0 204 -24l46 -9l-75 -323l-27 -153l-133 -5q9 61 13 78q-41 -55 -96 -78q-23 -10 -45 -10zM338 398q-38 0 -67 -39q-55 -74 -55 -189
q0 -35 11 -51.5t34.5 -16.5t53 22t49.5 44l20 23l46 193q-66 14 -92 14z" />
    <glyph glyph-name="atilde" unicode="&#xe3;" horiz-adv-x="528" 
d="M221 -12q-73 0 -107 49.5t-34 132.5q0 115 58 221q29 53 80 87t116 34q69 0 204 -24l46 -9l-75 -323l-27 -153l-133 -5q9 61 13 78q-41 -55 -96 -78q-23 -10 -45 -10zM338 398q-38 0 -67 -39q-55 -74 -55 -189q0 -35 11 -51.5t34.5 -16.5t53 22t49.5 44l20 23l46 193
q-66 14 -92 14zM547 608q-31 -18 -55 -18t-69.5 22t-58.5 22q-24 0 -70 -30l-16 -10l-3 92q8 7 20 18t43 29t57 18t71 -21.5t55 -21.5q19 0 69 30l16 9l4 -93l-20 -18q-12 -10 -43 -28z" />
    <glyph glyph-name="adieresis" unicode="&#xe4;" horiz-adv-x="528" 
d="M242 601l31 135h121l-32 -135h-120zM446 601l31 135h121l-32 -135h-120zM221 -12q-73 0 -107 49.5t-34 132.5q0 115 58 221q29 53 80 87t116 34q69 0 204 -24l46 -9l-75 -323l-27 -153l-133 -5q9 61 13 78q-41 -55 -96 -78q-23 -10 -45 -10zM338 398q-38 0 -67 -39
q-55 -74 -55 -189q0 -35 11 -51.5t34.5 -16.5t53 22t49.5 44l20 23l46 193q-66 14 -92 14z" />
    <glyph glyph-name="aring" unicode="&#xe5;" horiz-adv-x="528" 
d="M221 -12q-73 0 -107 49.5t-34 132.5q0 115 58 221q29 53 80 87t116 34q69 0 204 -24l46 -9l-75 -323l-27 -153l-133 -5q9 61 13 78q-41 -55 -96 -78q-23 -10 -45 -10zM338 398q-38 0 -67 -39q-55 -74 -55 -189q0 -35 11 -51.5t34.5 -16.5t53 22t49.5 44l20 23l46 193
q-66 14 -92 14zM378 733q34 30 81.5 30t65.5 -31q11 -18 11 -39q0 -75 -51 -117q-35 -29 -82 -29t-65 31q-12 19 -12 39q0 71 52 116zM403 656q-2 -4 -2 -9.5t5.5 -13t18.5 -7.5q27 0 36 29q1 4 1 9.5t-6 12t-17 6.5q-28 0 -36 -27z" />
    <glyph glyph-name="ae" unicode="&#xe6;" horiz-adv-x="714" 
d="M452 167q0 -58 69 -58q48 0 145 7l27 2l-23 -102q-91 -28 -190 -28t-136 49q-26 -14 -84.5 -31.5t-91.5 -17.5q-63 0 -95 51q-21 34 -21 63.5t5 50.5q29 126 153 149q56 10 92 10h47q7 13 7 29q0 45 -32 45q-62 0 -152 -10l-30 -4l21 117q127 22 203.5 22t106.5 -41
q56 41 131 41t114 -35q42 -39 42 -112q0 -40 -13 -87l-23 -85l-269 2q-3 -14 -3 -27zM184 143q0 -40 31 -40q47 0 101 13q-1 10 -1 32t11 64q-25 0 -79 -4q-22 -2 -39 -16q-24 -18 -24 -49zM628 294q7 25 7 40t-2 24q-8 38 -53.5 38t-67 -25.5t-34.5 -74.5z" />
    <glyph glyph-name="ccedilla" unicode="&#xe7;" horiz-adv-x="410" 
d="M262 -33q93 0 93 -61q0 -13 -4 -30q-25 -105 -129 -105q-40 0 -72 8l-12 3l20 81q30 -1 46 -1q36 0 42 24q3 12 -4.5 16t-26.5 4h-22l19 85q-60 10 -94.5 54.5t-34.5 116.5q0 153 67.5 251.5t193.5 98.5q60 0 128 -24l21 -7l-34 -98q-77 13 -121 13q-57 0 -88 -62.5
t-31 -146t76 -83.5l107 8l-11 -99q-63 -22 -129 -25l-6 -21h6z" />
    <glyph glyph-name="egrave" unicode="&#xe8;" horiz-adv-x="476" 
d="M235.5 117q20.5 -15 51.5 -15q69 0 141 10l26 3l-15 -99q-93 -28 -184 -28t-132.5 41t-41.5 120t16 141t47.5 112t86 79.5t124.5 29.5q175 0 175 -149q0 -95 -64 -131t-213 -36h-35q-3 -12 -3 -37.5t20.5 -40.5zM274 294q69 0 96.5 15t27.5 51q0 43 -50 43
q-89 0 -115 -109h41zM261 772l221 -90l-56 -99l-229 79z" />
    <glyph glyph-name="eacute" unicode="&#xe9;" horiz-adv-x="476" 
d="M235.5 117q20.5 -15 51.5 -15q69 0 141 10l26 3l-15 -99q-93 -28 -184 -28t-132.5 41t-41.5 120t16 141t47.5 112t86 79.5t124.5 29.5q175 0 175 -149q0 -95 -64 -131t-213 -36h-35q-3 -12 -3 -37.5t20.5 -40.5zM274 294q69 0 96.5 15t27.5 51q0 43 -50 43
q-89 0 -115 -109h41zM282 576l-10 107l264 91l10 -120z" />
    <glyph glyph-name="ecircumflex" unicode="&#xea;" horiz-adv-x="476" 
d="M185 575l168 175h100l86 -175h-132l-24 64l-58 -64h-140zM235.5 117q20.5 -15 51.5 -15q69 0 141 10l26 3l-15 -99q-93 -28 -184 -28t-132.5 41t-41.5 120t16 141t47.5 112t86 79.5t124.5 29.5q175 0 175 -149q0 -95 -64 -131t-213 -36h-35q-3 -12 -3 -37.5t20.5 -40.5z
M274 294q69 0 96.5 15t27.5 51q0 43 -50 43q-89 0 -115 -109h41z" />
    <glyph glyph-name="edieresis" unicode="&#xeb;" horiz-adv-x="476" 
d="M211 601l31 135h121l-32 -135h-120zM415 601l31 135h121l-32 -135h-120zM235.5 117q20.5 -15 51.5 -15q69 0 141 10l26 3l-15 -99q-93 -28 -184 -28t-132.5 41t-41.5 120t16 141t47.5 112t86 79.5t124.5 29.5q175 0 175 -149q0 -95 -64 -131t-213 -36h-35
q-3 -12 -3 -37.5t20.5 -40.5zM274 294q69 0 96.5 15t27.5 51q0 43 -50 43q-89 0 -115 -109h41z" />
    <glyph glyph-name="igrave" unicode="&#xec;" horiz-adv-x="243" 
d="M55 0l115 500h134l-115 -500h-134zM135 772l221 -90l-56 -99l-229 79z" />
    <glyph glyph-name="iacute" unicode="&#xed;" horiz-adv-x="243" 
d="M55 0l115 500h134l-115 -500h-134zM182 576l-10 107l264 91l10 -120z" />
    <glyph glyph-name="icircumflex" unicode="&#xee;" horiz-adv-x="243" 
d="M69 575l168 175h100l86 -175h-132l-24 64l-58 -64h-140zM55 0l115 500h134l-115 -500h-134z" />
    <glyph glyph-name="idieresis" unicode="&#xef;" horiz-adv-x="243" 
d="M89 601l31 135h121l-32 -135h-120zM293 601l31 135h121l-32 -135h-120zM55 0l115 500h134l-115 -500h-134z" />
    <glyph glyph-name="eth" unicode="&#xf0;" horiz-adv-x="527" 
d="M588 453q0 -46 -13 -100q-46 -189 -119.5 -275.5t-206.5 -86.5q-104 0 -149 68q-28 44 -28 98q0 30 9 64q26 97 93.5 157t164.5 60q58 0 100 -16l14 -6q2 14 2 26q0 69 -74 102l-107 -74l-46 72l45 31l-64 9l44 116q98 -5 164 -26l98 67l43 -72l-54 -38q84 -62 84 -176z
M209 177q0 -59 70 -59q103 0 148 178q-44 22 -107 22q-36 0 -63 -26.5t-39 -69.5q-9 -25 -9 -45z" />
    <glyph glyph-name="ntilde" unicode="&#xf1;" horiz-adv-x="513" 
d="M266 336l-77 -336h-134l115 500h128l-6 -49l17 15q17 16 49 31t61 15q122 0 122 -141q0 -36 -21 -126l-56 -245h-134l54 235q18 75 18 104.5t-7.5 43t-36.5 13.5t-92 -60zM519 608q-31 -18 -55 -18t-69.5 22t-58.5 22q-24 0 -70 -30l-16 -10l-3 92q8 7 20 18t43 29t57 18
t71 -21.5t55 -21.5q19 0 69 30l16 9l4 -93l-20 -18q-12 -10 -43 -28z" />
    <glyph glyph-name="ograve" unicode="&#xf2;" horiz-adv-x="496" 
d="M333 511q197 0 197 -189q0 -81 -27 -155t-86.5 -126.5t-139.5 -52.5q-197 0 -197 189q0 80 29 155t88.5 127t135.5 52zM277 102q54 0 87 68.5t33 153.5q0 73 -64 73q-54 0 -87 -68.5t-33 -153.5q0 -73 64 -73zM291 772l221 -90l-56 -99l-229 79z" />
    <glyph glyph-name="oacute" unicode="&#xf3;" horiz-adv-x="496" 
d="M333 511q197 0 197 -189q0 -81 -27 -155t-86.5 -126.5t-139.5 -52.5q-197 0 -197 189q0 80 29 155t88.5 127t135.5 52zM277 102q54 0 87 68.5t33 153.5q0 73 -64 73q-54 0 -87 -68.5t-33 -153.5q0 -73 64 -73zM283 576l-10 107l264 91l10 -120z" />
    <glyph glyph-name="ocircumflex" unicode="&#xf4;" horiz-adv-x="496" 
d="M200 575l168 175h100l86 -175h-132l-24 64l-58 -64h-140zM333 511q197 0 197 -189q0 -81 -27 -155t-86.5 -126.5t-139.5 -52.5q-197 0 -197 189q0 80 29 155t88.5 127t135.5 52zM277 102q54 0 87 68.5t33 153.5q0 73 -64 73q-54 0 -87 -68.5t-33 -153.5q0 -73 64 -73z
" />
    <glyph glyph-name="otilde" unicode="&#xf5;" horiz-adv-x="496" 
d="M333 511q197 0 197 -189q0 -81 -27 -155t-86.5 -126.5t-139.5 -52.5q-197 0 -197 189q0 80 29 155t88.5 127t135.5 52zM277 102q54 0 87 68.5t33 153.5q0 73 -64 73q-54 0 -87 -68.5t-33 -153.5q0 -73 64 -73zM494 608q-31 -18 -55 -18t-69.5 22t-57.5 22q-25 0 -72 -30
l-15 -10l-3 92q8 7 20 18t43 29t57 18t71 -21.5t55 -21.5q19 0 69 30l16 9l4 -93l-20 -18q-12 -10 -43 -28z" />
    <glyph glyph-name="odieresis" unicode="&#xf6;" horiz-adv-x="496" 
d="M333 511q197 0 197 -189q0 -81 -27 -155t-86.5 -126.5t-139.5 -52.5q-197 0 -197 189q0 80 29 155t88.5 127t135.5 52zM277 102q54 0 87 68.5t33 153.5q0 73 -64 73q-54 0 -87 -68.5t-33 -153.5q0 -73 64 -73zM228 601l31 135h111l-32 -135h-110zM422 601l31 135h111
l-32 -135h-110z" />
    <glyph glyph-name="divide" unicode="&#xf7;" 
d="M271 352v132h132v-132h-132zM108 191v120h460v-120h-460zM271 17v132h132v-132h-132z" />
    <glyph glyph-name="oslash" unicode="&#xf8;" horiz-adv-x="496" 
d="M334 513q48 0 85 -12l64 105l71 -31l-71 -111q48 -46 48 -133.5t-27 -161.5t-86.5 -126.5t-139.5 -52.5q-47 0 -86 11l-66 -108l-70 31l73 114q-48 46 -48 133.5t29 162.5t88.5 127t135.5 52zM334 399q-54 0 -87 -68.5t-33 -153.5v-8l62 97l79 130q-9 3 -21 3zM278 104
q54 0 87 68.5t33 153.5v5l-62 -96l-79 -129q12 -2 21 -2z" />
    <glyph glyph-name="ugrave" unicode="&#xf9;" horiz-adv-x="513" 
d="M295 772l221 -90l-56 -99l-229 79zM209 -12q-122 0 -122 141q0 39 21 126l56 245h134l-54 -235q-18 -75 -18 -104t8.5 -43t27.5 -14q34 0 84 45l16 15l77 336h134l-115 -500h-128l6 49q-23 -23 -60.5 -42t-66.5 -19z" />
    <glyph glyph-name="uacute" unicode="&#xfa;" horiz-adv-x="513" 
d="M209 -12q-122 0 -122 141q0 39 21 126l56 245h134l-54 -235q-18 -75 -18 -104t8.5 -43t27.5 -14q34 0 84 45l16 15l77 336h134l-115 -500h-128l6 49q-23 -23 -60.5 -42t-66.5 -19zM287 576l-10 107l264 91l10 -120z" />
    <glyph glyph-name="ucircumflex" unicode="&#xfb;" horiz-adv-x="513" 
d="M197 575l168 175h100l86 -175h-132l-24 64l-58 -64h-140zM209 -12q-122 0 -122 141q0 39 21 126l56 245h134l-54 -235q-18 -75 -18 -104t8.5 -43t27.5 -14q34 0 84 45l16 15l77 336h134l-115 -500h-128l6 49q-23 -23 -60.5 -42t-66.5 -19z" />
    <glyph glyph-name="udieresis" unicode="&#xfc;" horiz-adv-x="513" 
d="M216 601l31 135h121l-32 -135h-120zM420 601l31 135h121l-32 -135h-120zM209 -12q-122 0 -122 141q0 39 21 126l56 245h134l-54 -235q-18 -75 -18 -104t8.5 -43t27.5 -14q34 0 84 45l16 15l77 336h134l-115 -500h-128l6 49q-23 -23 -60.5 -42t-66.5 -19z" />
    <glyph glyph-name="yacute" unicode="&#xfd;" horiz-adv-x="464" 
d="M126 500h131l-14 -389h15l174 389h135l-332 -710h-133l103 210h-83zM273 576l-10 107l264 91l10 -120z" />
    <glyph glyph-name="thorn" unicode="&#xfe;" horiz-adv-x="495" 
d="M291 469q61 42 109.5 42t83 -24t44 -60.5t9.5 -57t-1 -45t-13 -69.5q-41 -150 -103.5 -208.5t-171.5 -58.5q-71 0 -71 5l-47 -201h-126l214 906h126zM394 255q9 33 9 53t-2 37t-15 30t-32 13q-31 0 -78 -29l-14 -9l-56 -237l67 -6q83 0 121 148z" />
    <glyph glyph-name="ydieresis" unicode="&#xff;" horiz-adv-x="464" 
d="M198 601l31 135h121l-32 -135h-120zM402 601l31 135h121l-32 -135h-120zM126 500h131l-14 -389h15l174 389h135l-332 -710h-133l103 210h-83z" />
    <glyph glyph-name="Amacron" unicode="&#x100;" horiz-adv-x="551" 
d="M288 806l25 109h327l-25 -109h-327zM13 0l306 680h238l-21 -680h-138l4 118h-198l-53 -118h-138zM400 560l-144 -322h151l14 322h-21z" />
    <glyph glyph-name="amacron" unicode="&#x101;" horiz-adv-x="528" 
d="M221 -12q-73 0 -107 49.5t-34 132.5q0 115 58 221q29 53 80 87t116 34q69 0 204 -24l46 -9l-75 -323l-27 -153l-133 -5q9 61 13 78q-41 -55 -96 -78q-23 -10 -45 -10zM338 398q-38 0 -67 -39q-55 -74 -55 -189q0 -35 11 -51.5t34.5 -16.5t53 22t49.5 44l20 23l46 193
q-66 14 -92 14zM277 627l25 109h309l-26 -109h-308z" />
    <glyph glyph-name="Abreve" unicode="&#x102;" horiz-adv-x="551" 
d="M444 918q0 -30 37 -30t52 39h122q-24 -71 -69 -107.5t-123.5 -36.5t-110 33.5t-31.5 83.5q0 13 2 27h122q-1 -5 -1 -9zM13 0l306 680h238l-21 -680h-138l4 118h-198l-53 -118h-138zM400 560l-144 -322h151l14 322h-21z" />
    <glyph glyph-name="abreve" unicode="&#x103;" horiz-adv-x="528" 
d="M221 -12q-73 0 -107 49.5t-34 132.5q0 115 58 221q29 53 80 87t116 34q69 0 204 -24l46 -9l-75 -323l-27 -153l-133 -5q9 61 13 78q-41 -55 -96 -78q-23 -10 -45 -10zM338 398q-38 0 -67 -39q-55 -74 -55 -189q0 -35 11 -51.5t34.5 -16.5t53 22t49.5 44l20 23l46 193
q-66 14 -92 14zM408 739q0 -37 44.5 -37t60.5 44h121q-52 -156 -218 -156q-132 0 -132 120q0 17 3 36h121v-7z" />
    <glyph glyph-name="Aogonek" unicode="&#x104;" horiz-adv-x="551" 
d="M536 0h-8q-22 -16 -44 -41.5t-22 -40t13 -14.5l37 3l-13 -110q-57 -11 -97 -11t-62 19.5t-22 57.5q0 64 90 137h-10l4 118h-198l-53 -118h-138l306 680h238l-21 -675v-5zM400 560l-144 -322h151l14 322h-21z" />
    <glyph glyph-name="aogonek" unicode="&#x105;" horiz-adv-x="528" 
d="M439 -203q-57 -11 -97 -11t-62 19.5t-22 57.5q0 64 91 138q0 1 5.5 33.5t7.5 41.5q-41 -55 -96 -78q-23 -10 -45 -10q-73 0 -107 49.5t-34 132.5q0 115 58 221q29 53 80 87t116 34q69 0 204 -24l46 -9l-75 -323l-27 -153l-10 -1q-22 -14 -46 -41t-24 -42t13 -15l37 3z
M338 398q-38 0 -67 -39q-55 -74 -55 -189q0 -35 11 -51.5t34.5 -16.5t53 22t49.5 44l20 23l46 193q-66 14 -92 14z" />
    <glyph glyph-name="Cacute" unicode="&#x106;" horiz-adv-x="494" 
d="M304 -12q-205 0 -205 197q0 146 49 269q27 68 66 120.5t99.5 85t135.5 32.5q73 0 147 -22l24 -8l-32 -102q-62 12 -144 12q-62 0 -109.5 -55t-70.5 -140t-23 -182q0 -87 81 -87q77 0 139 10l23 3l-11 -107q-93 -26 -169 -26zM384 765l-10 106l264 91l10 -120z" />
    <glyph glyph-name="cacute" unicode="&#x107;" horiz-adv-x="409" 
d="M343 512q60 0 127 -24l22 -7l-34 -98q-77 13 -121 13q-57 0 -88 -62.5t-31 -146t76 -83.5l107 8l-11 -99q-73 -25 -146 -25t-117.5 46t-44.5 128q0 153 67.5 251.5t193.5 98.5zM268 576l-10 107l264 91l10 -120z" />
    <glyph glyph-name="Ccircumflex" unicode="&#x108;" horiz-adv-x="494" 
d="M304 -12q-205 0 -205 197q0 146 49 269q27 68 66 120.5t99.5 85t135.5 32.5q73 0 147 -22l24 -8l-32 -102q-62 12 -144 12q-62 0 -109.5 -55t-70.5 -140t-23 -182q0 -87 81 -87q77 0 139 10l23 3l-11 -107q-93 -26 -169 -26zM292 779l176 152h80l96 -152h-122l-26 55
l-62 -55h-142z" />
    <glyph glyph-name="ccircumflex" unicode="&#x109;" horiz-adv-x="409" 
d="M343 512q60 0 127 -24l22 -7l-34 -98q-77 13 -121 13q-57 0 -88 -62.5t-31 -146t76 -83.5l107 8l-11 -99q-73 -25 -146 -25t-117.5 46t-44.5 128q0 153 67.5 251.5t193.5 98.5zM194 575l168 175h80l86 -175h-122l-24 64l-58 -64h-130z" />
    <glyph glyph-name="Cdotaccent" unicode="&#x10a;" horiz-adv-x="494" 
d="M304 -12q-205 0 -205 197q0 146 49 269q27 68 66 120.5t99.5 85t135.5 32.5q73 0 147 -22l24 -8l-32 -102q-62 12 -144 12q-62 0 -109.5 -55t-70.5 -140t-23 -182q0 -87 81 -87q77 0 139 10l23 3l-11 -107q-93 -26 -169 -26zM405 771l32 138h118l-34 -138h-116z" />
    <glyph glyph-name="cdotaccent" unicode="&#x10b;" horiz-adv-x="409" 
d="M343 512q60 0 127 -24l22 -7l-34 -98q-77 13 -121 13q-57 0 -88 -62.5t-31 -146t76 -83.5l107 8l-11 -99q-73 -25 -146 -25t-117.5 46t-44.5 128q0 153 67.5 251.5t193.5 98.5zM300 582l32 137h116l-32 -137h-116z" />
    <glyph glyph-name="Ccaron" unicode="&#x10c;" horiz-adv-x="494" 
d="M304 -12q-205 0 -205 197q0 146 49 269q27 68 66 120.5t99.5 85t135.5 32.5q73 0 147 -22l24 -8l-32 -102q-62 12 -144 12q-62 0 -109.5 -55t-70.5 -140t-23 -182q0 -87 81 -87q77 0 139 10l23 3l-11 -107q-93 -26 -169 -26zM678 927l-160 -151h-92l-93 151h132l29 -57
l53 57h131z" />
    <glyph glyph-name="ccaron" unicode="&#x10d;" horiz-adv-x="409" 
d="M412 575h-85l-82 175h123l29 -66l53 66h129zM343 512q60 0 127 -24l22 -7l-34 -98q-77 13 -121 13q-57 0 -88 -62.5t-31 -146t76 -83.5l107 8l-11 -99q-73 -25 -146 -25t-117.5 46t-44.5 128q0 153 67.5 251.5t193.5 98.5z" />
    <glyph glyph-name="Dcaron" unicode="&#x10e;" horiz-adv-x="605" 
d="M309 0h-244l157 680h214q224 0 224 -207q0 -146 -54 -264q-28 -61 -68 -107.5t-99 -74t-130 -27.5zM490.5 540.5q-27.5 19.5 -82.5 19.5h-76l-101 -440h90q51 0 91 37t62 93.5t33 114t11 107t-27.5 69zM647 927l-160 -151h-92l-93 151h132l29 -57l53 57h131z" />
    <glyph glyph-name="dcaron" unicode="&#x10f;" horiz-adv-x="637" 
d="M804 680l-60 -251h-123l61 251h122zM224 -12q-71 0 -107.5 46t-36.5 131t27.5 162t86.5 130.5t138 53.5q34 0 100 -16l20 -5l49 210h134l-162 -700h-130l9 52q-20 -23 -58 -43.5t-70 -20.5zM428 383q-58 14 -94.5 14t-64 -39.5t-40.5 -91.5t-13 -100q0 -64 51 -64
q16 0 44.5 18t48.5 36l20 18z" />
    <glyph glyph-name="Dcroat" unicode="&#x110;" horiz-adv-x="613" 
d="M317 0h-244l63 275h-54l29 136h57l62 269h214q224 0 224 -207q0 -146 -54 -264q-61 -132 -167 -181q-59 -28 -130 -28zM515 364.5q11 57.5 11 107t-27.5 69t-82.5 19.5h-76l-34 -149h108l-30 -136h-110l-35 -155h90q51 0 91 37t62 93.5t33 114z" />
    <glyph glyph-name="dcroat" unicode="&#x111;" horiz-adv-x="528" 
d="M224 -12q-71 0 -107.5 46t-36.5 131t27.5 162t86.5 130.5t138 53.5q34 0 100 -16l20 -5l13 57h-120l27 119h121l8 34h134l-8 -34h54l-28 -119h-54l-126 -547h-130l9 52q-20 -23 -58 -43.5t-70 -20.5zM428 383q-58 14 -94.5 14t-64 -39.5t-40.5 -91.5t-13 -100
q0 -64 51 -64q16 0 44.5 18t48.5 36l20 18z" />
    <glyph glyph-name="Emacron" unicode="&#x112;" horiz-adv-x="497" 
d="M277 806l25 109h327l-25 -109h-327zM65 0l156 680h399l-28 -120h-260l-37 -160h206l-28 -120h-205l-37 -160h261l-27 -120h-400z" />
    <glyph glyph-name="emacron" unicode="&#x113;" horiz-adv-x="476" 
d="M235.5 117q20.5 -15 51.5 -15q69 0 141 10l26 3l-15 -99q-93 -28 -184 -28t-132.5 41t-41.5 120t16 141t47.5 112t86 79.5t124.5 29.5q175 0 175 -149q0 -95 -64 -131t-213 -36h-35q-3 -12 -3 -37.5t20.5 -40.5zM274 294q69 0 96.5 15t27.5 51q0 43 -50 43
q-89 0 -115 -109h41zM218 627l25 109h309l-26 -109h-308z" />
    <glyph glyph-name="Ebreve" unicode="&#x114;" horiz-adv-x="497" 
d="M418 918q0 -30 37 -30t52 39h122q-24 -71 -69 -107.5t-123.5 -36.5t-110 33.5t-31.5 83.5q0 13 2 27h122q-1 -5 -1 -9zM65 0l156 680h399l-28 -120h-260l-37 -160h206l-28 -120h-205l-37 -160h261l-27 -120h-400z" />
    <glyph glyph-name="ebreve" unicode="&#x115;" horiz-adv-x="476" 
d="M235.5 117q20.5 -15 51.5 -15q69 0 141 10l26 3l-15 -99q-93 -28 -184 -28t-132.5 41t-41.5 120t16 141t47.5 112t86 79.5t124.5 29.5q175 0 175 -149q0 -95 -64 -131t-213 -36h-35q-3 -12 -3 -37.5t20.5 -40.5zM274 294q69 0 96.5 15t27.5 51q0 43 -50 43
q-89 0 -115 -109h41zM365 739q0 -37 44.5 -37t60.5 44h121q-52 -156 -218 -156q-132 0 -132 120q0 17 3 36h121v-7z" />
    <glyph glyph-name="Edotaccent" unicode="&#x116;" horiz-adv-x="497" 
d="M368 771l32 138h118l-34 -138h-116zM65 0l156 680h399l-28 -120h-260l-37 -160h206l-28 -120h-205l-37 -160h261l-27 -120h-400z" />
    <glyph glyph-name="edotaccent" unicode="&#x117;" horiz-adv-x="476" 
d="M235.5 117q20.5 -15 51.5 -15q69 0 141 10l26 3l-15 -99q-93 -28 -184 -28t-132.5 41t-41.5 120t16 141t47.5 112t86 79.5t124.5 29.5q175 0 175 -149q0 -95 -64 -131t-213 -36h-35q-3 -12 -3 -37.5t20.5 -40.5zM274 294q69 0 96.5 15t27.5 51q0 43 -50 43
q-89 0 -115 -109h41zM305 582l32 137h116l-32 -137h-116z" />
    <glyph glyph-name="Eogonek" unicode="&#x118;" horiz-adv-x="497" 
d="M409 -41.5q-22 -25.5 -22 -40t13 -14.5l37 3l-13 -110q-57 -11 -97 -11t-62 19.5t-22 57.5q0 64 90 137h-268l156 680h399l-28 -120h-260l-37 -160h206l-28 -120h-205l-37 -160h261l-27 -120h-12q-22 -16 -44 -41.5z" />
    <glyph glyph-name="eogonek" unicode="&#x119;" horiz-adv-x="476" 
d="M402 -183q-57 -11 -97 -11t-62 19.5t-22 61.5t56 102q-9 -1 -27 -1q-86 0 -127.5 41t-41.5 120t16 141t47.5 112t86 79.5t124.5 29.5q175 0 175 -149q0 -95 -64 -131t-213 -36h-35q-3 -12 -3 -37.5t20.5 -40.5t51.5 -15q69 0 141 10l26 3l-15 -99q-9 -3 -20 -6
q-54 -45 -54 -72q0 -14 13 -14l37 3zM274 294q69 0 96.5 15t27.5 51q0 43 -50 43q-89 0 -115 -109h41z" />
    <glyph glyph-name="Ecaron" unicode="&#x11a;" horiz-adv-x="497" 
d="M639 945l-160 -151h-92l-93 151h132l29 -57l53 57h131zM65 0l156 680h399l-28 -120h-260l-37 -160h206l-28 -120h-205l-37 -160h261l-27 -120h-400z" />
    <glyph glyph-name="ecaron" unicode="&#x11b;" horiz-adv-x="476" 
d="M235.5 117q20.5 -15 51.5 -15q69 0 141 10l26 3l-15 -99q-93 -28 -184 -28t-132.5 41t-41.5 120t16 141t47.5 112t86 79.5t124.5 29.5q175 0 175 -149q0 -95 -64 -131t-213 -36h-35q-3 -12 -3 -37.5t20.5 -40.5zM274 294q69 0 96.5 15t27.5 51q0 43 -50 43
q-89 0 -115 -109h41zM408 575h-85l-82 175h123l29 -66l53 66h129z" />
    <glyph glyph-name="Gcircumflex" unicode="&#x11c;" horiz-adv-x="568" 
d="M300 755l168 175h100l86 -175h-132l-24 64l-58 -64h-140zM327 -12q-225 0 -225 214q0 162 56 282q61 132 174 182q60 26 121 26t113 -10t80 -20l27 -10l-32 -100q-99 20 -187 20q-54 0 -96.5 -35.5t-65.5 -92.5q-48 -115 -48 -243q0 -93 100 -93l63 5l35 151h-64l27 114
h201l-85 -364q-68 -26 -194 -26z" />
    <glyph glyph-name="gcircumflex" unicode="&#x11d;" horiz-adv-x="484" 
d="M226 -230q-217 0 -217 137q0 47 33.5 77.5t88.5 57.5q-20 20 -20 46.5t15 50.5t30 38l15 14q-68 40 -68 125t57 140.5t150 55.5q43 0 102 -14l19 -4l146 6l-25 -108h-58q4 -22 4 -51q0 -77 -59.5 -130.5t-149.5 -53.5l-43 5q-15 -20 -15 -34t19 -20t75 -14
q142 -21 142 -126q0 -89 -64.5 -143.5t-176.5 -54.5zM149.5 -24.5q-18.5 -19.5 -18.5 -40.5t22 -37t70 -16q118 0 118 70q0 13 -9.5 21t-21.5 11t-63.5 11.5t-58.5 10.5q-20 -11 -38.5 -30.5zM296 266q35 0 57 23.5t22 57.5q0 56 -70 56q-35 0 -57 -23t-22 -58q0 -56 70 -56
zM181 575l168 175h80l86 -175h-122l-24 64l-58 -64h-130z" />
    <glyph glyph-name="Gbreve" unicode="&#x11e;" horiz-adv-x="568" 
d="M469 926v-13q3 -31 46 -31t59 44h131q-25 -76 -82.5 -121t-135.5 -45t-113 34q-38 36 -38 98q0 15 2 34h131zM327 -12q-225 0 -225 214q0 162 56 282q61 132 174 182q60 26 121 26t113 -10t80 -20l27 -10l-32 -100q-99 20 -187 20q-54 0 -96.5 -35.5t-65.5 -92.5
q-48 -115 -48 -243q0 -93 100 -93l63 5l35 151h-64l27 114h201l-85 -364q-68 -26 -194 -26z" />
    <glyph glyph-name="gbreve" unicode="&#x11f;" horiz-adv-x="484" 
d="M226 -230q-217 0 -217 137q0 47 33.5 77.5t88.5 57.5q-20 20 -20 46.5t15 50.5t30 38l15 14q-68 40 -68 125t57 140.5t150 55.5q43 0 102 -14l19 -4l146 6l-25 -108h-58q4 -22 4 -51q0 -77 -59.5 -130.5t-149.5 -53.5l-43 5q-15 -20 -15 -34t19 -20t75 -14
q142 -21 142 -126q0 -89 -64.5 -143.5t-176.5 -54.5zM149.5 -24.5q-18.5 -19.5 -18.5 -40.5t22 -37t70 -16q118 0 118 70q0 13 -9.5 21t-21.5 11t-63.5 11.5t-58.5 10.5q-20 -11 -38.5 -30.5zM296 266q35 0 57 23.5t22 57.5q0 56 -70 56q-35 0 -57 -23t-22 -58q0 -56 70 -56
zM344 739q0 -37 44.5 -37t60.5 44h121q-52 -156 -218 -156q-132 0 -132 120q0 17 3 36h121v-7z" />
    <glyph glyph-name="Gdotaccent" unicode="&#x120;" horiz-adv-x="568" 
d="M419 732l32 137h126l-32 -137h-126zM327 -12q-225 0 -225 214q0 162 56 282q61 132 174 182q60 26 121 26t113 -10t80 -20l27 -10l-32 -100q-99 20 -187 20q-54 0 -96.5 -35.5t-65.5 -92.5q-48 -115 -48 -243q0 -93 100 -93l63 5l35 151h-64l27 114h201l-85 -364
q-68 -26 -194 -26z" />
    <glyph glyph-name="gdotaccent" unicode="&#x121;" horiz-adv-x="484" 
d="M226 -230q-217 0 -217 137q0 47 33.5 77.5t88.5 57.5q-20 20 -20 46.5t15 50.5t30 38l15 14q-68 40 -68 125t57 140.5t150 55.5q43 0 102 -14l19 -4l146 6l-25 -108h-58q4 -22 4 -51q0 -77 -59.5 -130.5t-149.5 -53.5l-43 5q-15 -20 -15 -34t19 -20t75 -14
q142 -21 142 -126q0 -89 -64.5 -143.5t-176.5 -54.5zM149.5 -24.5q-18.5 -19.5 -18.5 -40.5t22 -37t70 -16q118 0 118 70q0 13 -9.5 21t-21.5 11t-63.5 11.5t-58.5 10.5q-20 -11 -38.5 -30.5zM296 266q35 0 57 23.5t22 57.5q0 56 -70 56q-35 0 -57 -23t-22 -58q0 -56 70 -56
zM294 582l32 137h116l-32 -137h-116z" />
    <glyph glyph-name="Gcommaaccent" unicode="&#x122;" horiz-adv-x="568" 
d="M327 -12q-225 0 -225 214q0 162 56 282q61 132 174 182q60 26 121 26t113 -10t80 -20l27 -10l-32 -100q-99 20 -187 20q-54 0 -96.5 -35.5t-65.5 -92.5q-48 -115 -48 -243q0 -93 100 -93l63 5l35 151h-64l27 114h201l-85 -364q-68 -26 -194 -26zM233 -72h123l-107 -237
h-113z" />
    <glyph glyph-name="gcommaaccent" unicode="&#x123;" horiz-adv-x="484" 
d="M393 814h114l-98 -236h-123zM226 -230q-217 0 -217 137q0 47 33.5 77.5t88.5 57.5q-20 20 -20 46.5t15 50.5t30 38l15 14q-68 40 -68 125t57 140.5t150 55.5q43 0 102 -14l19 -4l146 6l-25 -108h-58q4 -22 4 -51q0 -77 -59.5 -130.5t-149.5 -53.5l-43 5q-15 -20 -15 -34
t19 -20t75 -14q142 -21 142 -126q0 -89 -64.5 -143.5t-176.5 -54.5zM149.5 -24.5q-18.5 -19.5 -18.5 -40.5t22 -37t70 -16q118 0 118 70q0 13 -9.5 21t-21.5 11t-63.5 11.5t-58.5 10.5q-20 -11 -38.5 -30.5zM296 266q35 0 57 23.5t22 57.5q0 56 -70 56q-35 0 -57 -23
t-22 -58q0 -56 70 -56z" />
    <glyph glyph-name="Hcircumflex" unicode="&#x124;" horiz-adv-x="620" 
d="M417 0l66 288h-214l-66 -288h-138l157 680h138l-63 -272h214l63 272h138l-157 -680h-138zM308 779l176 152h80l96 -152h-122l-26 55l-62 -55h-142z" />
    <glyph glyph-name="hcircumflex" unicode="&#x125;" horiz-adv-x="513" 
d="M419 512q122 0 122 -141q0 -36 -21 -126l-56 -245h-134l54 235q18 75 18 104.5t-7.5 43t-26.5 13.5q-34 0 -85 -45l-17 -15l-77 -336h-134l161 700h134l-56 -247q22 22 59 40.5t66 18.5zM273 749l176 152h80l96 -152h-122l-26 55l-62 -55h-142z" />
    <glyph glyph-name="Hbar" unicode="&#x126;" horiz-adv-x="628" 
d="M115 481v3l28 116h64l19 80h132l-19 -80h226l19 80h132l-19 -80h64l-30 -119h-61l-111 -481h-132l64 278h-226l-64 -278h-132l111 481h-65zM295 407h226l17 74h-226z" />
    <glyph glyph-name="hbar" unicode="&#x127;" horiz-adv-x="513" 
d="M419 512q122 0 122 -141q0 -36 -21 -126l-56 -245h-134l54 235q18 75 18 104.5t-7.5 43t-26.5 13.5q-34 0 -85 -45l-17 -15l-77 -336h-134l122 530h-52l27 116h51l13 54h134l-12 -54h123l-28 -116h-122l-17 -77q22 22 59 40.5t66 18.5z" />
    <glyph glyph-name="Itilde" unicode="&#x128;" horiz-adv-x="268" 
d="M388.5 769q-24.5 0 -77.5 21.5t-67 21.5q-23 0 -72 -30l-15 -9l-4 93q30 26 62.5 45t60 19t80 -21t62.5 -21q21 0 69 28l16 10l2 -94q-24 -24 -58 -43.5t-58.5 -19.5zM65 0l157 680h138l-157 -680h-138z" />
    <glyph glyph-name="itilde" unicode="&#x129;" horiz-adv-x="243" 
d="M55 0l115 500h134l-115 -500h-134zM365 608q-31 -18 -55 -18t-69.5 22t-58.5 22q-24 0 -70 -30l-16 -10l-3 92q8 7 20 18t43 29t57 18t71 -21.5t55 -21.5q19 0 69 30l16 9l4 -93l-20 -18q-12 -10 -43 -28z" />
    <glyph glyph-name="Imacron" unicode="&#x12a;" horiz-adv-x="268" 
d="M150 817l25 109h327l-25 -109h-327zM65 0l157 680h138l-157 -680h-138z" />
    <glyph glyph-name="imacron" unicode="&#x12b;" horiz-adv-x="243" 
d="M55 0l115 500h134l-115 -500h-134zM101 627l25 109h309l-26 -109h-308z" />
    <glyph glyph-name="Ibreve" unicode="&#x12c;" horiz-adv-x="268" 
d="M303 918q0 -30 37 -30t52 39h122q-24 -71 -69 -107.5t-123.5 -36.5t-110 33.5t-31.5 83.5q0 13 2 27h122q-1 -5 -1 -9zM65 0l157 680h138l-157 -680h-138z" />
    <glyph glyph-name="ibreve" unicode="&#x12d;" horiz-adv-x="243" 
d="M55 0l115 500h134l-115 -500h-134zM233 739q0 -37 44.5 -37t60.5 44h121q-52 -156 -218 -156q-132 0 -132 120q0 17 3 36h121v-7z" />
    <glyph glyph-name="Iogonek" unicode="&#x12e;" horiz-adv-x="268" 
d="M151 -38q-26 -27 -26 -42.5t13 -15.5l37 3l-13 -110q-57 -11 -97 -11t-62 19.5t-22 57.5q0 64 90 137h-6l157 680h138l-157 -680q-26 -11 -52 -38z" />
    <glyph glyph-name="iogonek" unicode="&#x12f;" horiz-adv-x="243" 
d="M144 -203q-57 -11 -97 -11t-62 19.5t-22 56t28 74.5t64 66l115 498h134l-115 -500q-28 -14 -55 -39.5t-27 -41t13 -15.5l37 3zM181 552l32 137h135l-31 -137h-136z" />
    <glyph glyph-name="Idotaccent" unicode="&#x130;" horiz-adv-x="268" 
d="M251 771l32 138h118l-34 -138h-116zM65 0l157 680h138l-157 -680h-138z" />
    <glyph glyph-name="dotlessi" unicode="&#x131;" horiz-adv-x="244" 
d="M55 0l115 500h134l-115 -500h-134z" />
    <glyph glyph-name="Jcircumflex" unicode="&#x134;" horiz-adv-x="283" 
d="M378 680l-126 -545q-23 -101 -54 -150q-16 -25 -43 -35q-51 -19 -149 -19l23 120q42 2 57 15t28 69l126 545h138zM144 779l176 152h80l96 -152h-122l-26 55l-62 -55h-142z" />
    <glyph glyph-name="jcircumflex" unicode="&#x135;" horiz-adv-x="243" 
d="M55 0l115 500h134l-115 -500q-9 -40 -14.5 -60t-17.5 -43.5t-23 -35t-36 -27.5q-34 -24 -126 -64l-42 107q77 40 95.5 58.5t29.5 64.5zM80 575l168 175h80l86 -175h-122l-24 64l-58 -64h-130z" />
    <glyph glyph-name="Kcommaaccent" unicode="&#x136;" horiz-adv-x="540" 
d="M215 -72h123l-107 -237h-113zM384 0l-44 273l-76 -7l-61 -266h-138l157 680h138l-68 -294l64 8l176 286h151l-217 -341l63 -339h-145z" />
    <glyph glyph-name="kcommaaccent" unicode="&#x137;" horiz-adv-x="467" 
d="M74 -309l97 237h123l-107 -237h-113zM189 0h-134l161 700h134l-90 -389l34 7l127 181h147l-174 -240l66 -259h-137l-48 207l-40 -6z" />
    <glyph glyph-name="Lacute" unicode="&#x139;" horiz-adv-x="422" 
d="M300 765l-10 106l264 91l10 -120zM419 0h-354l157 680h138l-129 -560h215z" />
    <glyph glyph-name="lacute" unicode="&#x13a;" horiz-adv-x="244" 
d="M55 0l161 700h134l-161 -700h-134zM235 765l-10 106l264 91l10 -120z" />
    <glyph glyph-name="Lcommaaccent" unicode="&#x13b;" horiz-adv-x="422" 
d="M165 -72h123l-107 -237h-113zM419 0h-354l157 680h138l-129 -560h215z" />
    <glyph glyph-name="lcommaaccent" unicode="&#x13c;" horiz-adv-x="244" 
d="M46 -72h123l-107 -237h-113zM55 0l161 700h134l-161 -700h-134z" />
    <glyph glyph-name="Lcaron" unicode="&#x13d;" horiz-adv-x="464" 
d="M590 680l-60 -251h-123l61 251h122zM419 0h-354l157 680h138l-129 -560h215z" />
    <glyph glyph-name="lcaron" unicode="&#x13e;" horiz-adv-x="353" 
d="M520 680l-60 -251h-123l61 251h122zM55 0l161 700h134l-161 -700h-134z" />
    <glyph glyph-name="Lslash" unicode="&#x141;" horiz-adv-x="423" 
d="M421 0h-354l48 208l-28 -17l-41 93l101 62l77 334h138l-54 -234l96 60l41 -92l-169 -105l-43 -189h215z" />
    <glyph glyph-name="lslash" unicode="&#x142;" horiz-adv-x="292" 
d="M77 0l50 220l-37 -23l-41 93l110 69l79 341h134l-56 -244l40 25l41 -92l-113 -71l-73 -318h-134z" />
    <glyph glyph-name="Nacute" unicode="&#x143;" horiz-adv-x="651" 
d="M389 765l-10 106l264 91l10 -120zM65 0l157 680h219l36 -533h12l121 533h133l-157 -680h-208l-44 543h-12l-127 -543h-130z" />
    <glyph glyph-name="nacute" unicode="&#x144;" horiz-adv-x="513" 
d="M266 336l-77 -336h-134l115 500h128l-6 -49l17 15q17 16 49 31t61 15q122 0 122 -141q0 -36 -21 -126l-56 -245h-134l54 235q18 75 18 104.5t-7.5 43t-36.5 13.5t-92 -60zM288 576l-10 107l264 91l10 -120z" />
    <glyph glyph-name="Ncommaaccent" unicode="&#x145;" horiz-adv-x="651" 
d="M280 -72h123l-107 -237h-113zM65 0l157 680h219l36 -533h12l121 533h133l-157 -680h-208l-44 543h-12l-127 -543h-130z" />
    <glyph glyph-name="ncommaaccent" unicode="&#x146;" horiz-adv-x="513" 
d="M419 512q122 0 122 -141q0 -36 -21 -126l-56 -245h-134l54 235q18 75 18 104.5t-7.5 43t-27.5 13.5q-35 0 -85 -45l-16 -15l-77 -336h-134l115 500h128l-6 -49q23 23 60.5 42t66.5 19zM96 -309l97 237h123l-107 -237h-113z" />
    <glyph glyph-name="Ncaron" unicode="&#x147;" horiz-adv-x="651" 
d="M690 926l-160 -151h-92l-93 151h132l29 -57l53 57h131zM65 0l157 680h219l36 -533h12l121 533h133l-157 -680h-208l-44 543h-12l-127 -543h-130z" />
    <glyph glyph-name="ncaron" unicode="&#x148;" horiz-adv-x="513" 
d="M419 512q122 0 122 -141q0 -36 -21 -126l-56 -245h-134l54 235q18 75 18 104.5t-7.5 43t-27.5 13.5q-35 0 -85 -45l-16 -15l-77 -336h-134l115 500h128l-6 -49q23 23 60.5 42t66.5 19zM429 575h-85l-82 175h123l29 -66l53 66h129z" />
    <glyph glyph-name="Eng" unicode="&#x14a;" horiz-adv-x="651" 
d="M711 539l-126 -545q-17 -73 -30.5 -109.5t-41.5 -60t-63.5 -29t-104.5 -5.5l23 120q42 2 57 15t28 69l1 6h-76l-44 543h-12l-127 -543h-130l157 680h219l36 -533h11l122 533h133l-33 -141h1z" />
    <glyph glyph-name="eng" unicode="&#x14b;" horiz-adv-x="502" 
d="M398 332q0 54 -43 54q-28 0 -79 -33l-17 -11l-80 -342h-127l118 499h127l-12 -47q77 59 126 59q119 0 119 -130q0 -50 -16 -120l-61 -254q-24 -101 -69.5 -152.5t-157.5 -100.5l-32 114q76 38 98 60.5t34 73.5l62 259q10 41 10 71z" />
    <glyph glyph-name="Omacron" unicode="&#x14c;" horiz-adv-x="615" 
d="M264.5 131.5q21.5 -23.5 73 -23.5t85.5 34q47 47 75.5 142t28.5 186q0 55 -21 78.5t-73 23.5t-82 -30q-50 -49 -79 -148.5t-29 -169t21.5 -93zM628 228.5q-41 -118.5 -119.5 -179.5t-186.5 -61q-221 0 -221 208q0 131 40 247t117 182.5t190 66.5q221 0 221 -208
q0 -137 -41 -255.5zM317 806l25 109h327l-25 -109h-327z" />
    <glyph glyph-name="omacron" unicode="&#x14d;" horiz-adv-x="496" 
d="M333 511q197 0 197 -189q0 -81 -27 -155t-86.5 -126.5t-139.5 -52.5q-197 0 -197 189q0 80 29 155t88.5 127t135.5 52zM277 102q54 0 87 68.5t33 153.5q0 73 -64 73q-54 0 -87 -68.5t-33 -153.5q0 -73 64 -73zM224 627l25 109h309l-26 -109h-308z" />
    <glyph glyph-name="Obreve" unicode="&#x14e;" horiz-adv-x="615" 
d="M464 918q0 -30 37 -30t52 39h122q-24 -71 -69 -107.5t-123.5 -36.5t-110 33.5t-31.5 83.5q0 13 2 27h122q-1 -5 -1 -9zM264.5 131.5q21.5 -23.5 73 -23.5t85.5 34q47 47 75.5 142t28.5 186q0 55 -21 78.5t-73 23.5t-82 -30q-50 -49 -79 -148.5t-29 -169t21.5 -93z
M628 228.5q-41 -118.5 -119.5 -179.5t-186.5 -61q-221 0 -221 208q0 131 40 247t117 182.5t190 66.5q221 0 221 -208q0 -137 -41 -255.5z" />
    <glyph glyph-name="obreve" unicode="&#x14f;" horiz-adv-x="496" 
d="M333 511q197 0 197 -189q0 -81 -27 -155t-86.5 -126.5t-139.5 -52.5q-197 0 -197 189q0 80 29 155t88.5 127t135.5 52zM277 102q54 0 87 68.5t33 153.5q0 73 -64 73q-54 0 -87 -68.5t-33 -153.5q0 -73 64 -73zM345 739q0 -37 44.5 -37t60.5 44h121q-52 -156 -218 -156
q-132 0 -132 120q0 17 3 36h121v-7z" />
    <glyph glyph-name="Ohungarumlaut" unicode="&#x150;" horiz-adv-x="615" 
d="M623 740l-99 40l111 198l109 -45zM419 741l-100 39l112 199l109 -45zM264.5 131.5q21.5 -23.5 73 -23.5t85.5 34q47 47 75.5 142t28.5 186q0 55 -21 78.5t-73 23.5t-82 -30q-50 -49 -79 -148.5t-29 -169t21.5 -93zM628 228.5q-41 -118.5 -119.5 -179.5t-186.5 -61
q-221 0 -221 208q0 131 40 247t117 182.5t190 66.5q221 0 221 -208q0 -137 -41 -255.5z" />
    <glyph glyph-name="ohungarumlaut" unicode="&#x151;" horiz-adv-x="496" 
d="M333 511q197 0 197 -189q0 -81 -27 -155t-86.5 -126.5t-139.5 -52.5q-197 0 -197 189q0 80 29 155t88.5 127t135.5 52zM277 102q54 0 87 68.5t33 153.5q0 73 -64 73q-54 0 -87 -68.5t-33 -153.5q0 -73 64 -73zM468 563l-81 65l156 190l89 -67zM274 563l-80 65l155 189
l89 -66z" />
    <glyph glyph-name="OE" unicode="&#x152;" horiz-adv-x="831" 
d="M279 -12q-185 0 -185 189q0 72 23 168q44 185 125.5 271t204.5 86q42 0 108 -12h404l-30 -131h-276l-39 -157h220l-29 -125l-219 2l-35 -148h275l-30 -131h-401q-74 -12 -116 -12zM328 120q27 0 93 6l105 438q-51 6 -93 6q-68 0 -110 -50.5t-71 -174.5
q-20 -83 -20 -131.5t22.5 -71t73.5 -22.5z" />
    <glyph glyph-name="oe" unicode="&#x153;" horiz-adv-x="759" 
d="M495 165q0 -56 73 -56q47 0 145 7l28 2l-23 -102q-91 -28 -188.5 -28t-134.5 49q-66 -49 -156 -49q-141 0 -159 117q-4 24 -4 59.5t13.5 89.5t32 96.5t49.5 81.5q64 79 191 79q93 0 136 -54q63 54 143 54q152 0 165 -121q2 -16 2 -43t-12 -63l-29 -92l-268 2
q-4 -16 -4 -29zM205 172q0 -65 61 -65q64 0 94 71q37 85 37 151q0 32 -14.5 47.5t-48.5 15.5q-48 0 -74.5 -37t-40.5 -94.5t-14 -88.5zM674 294q8 32 8 45t-1 19q-6 31 -53 31t-71 -23t-35 -70z" />
    <glyph glyph-name="Racute" unicode="&#x154;" horiz-adv-x="559" 
d="M585 327q-43 -66 -109 -92l55 -235h-138l-45 216h-95l-50 -216h-138l157 680h196q108 0 159 -45.5t51 -143.5t-43 -164zM469 543q-17 19 -59 19h-77l-53 -228h89q54 0 85.5 43t31.5 95t-17 71zM331 765l-10 106l264 91l10 -120z" />
    <glyph glyph-name="racute" unicode="&#x155;" horiz-adv-x="334" 
d="M55 0l115 500h133l-18 -72q30 27 77 53.5t80 30.5l-39 -140q-48 -15 -117 -46l-24 -11l-73 -315h-134zM187 576l-10 107l264 91l10 -120z" />
    <glyph glyph-name="Rcommaaccent" unicode="&#x156;" horiz-adv-x="559" 
d="M132 -309l97 237h123l-107 -237h-113zM418 680q108 0 159 -45.5t51 -143.5t-43 -164t-109 -92l55 -235h-138l-45 216h-95l-50 -216h-138l157 680h196zM454.5 377q31.5 43 31.5 95t-17 71t-59 19h-77l-53 -228h89q54 0 85.5 43z" />
    <glyph glyph-name="rcommaaccent" unicode="&#x157;" horiz-adv-x="334" 
d="M55 0l115 500h133l-18 -72q30 27 77 53.5t80 30.5l-39 -140q-48 -15 -117 -46l-24 -11l-73 -315h-134zM53 -72h123l-107 -237h-113z" />
    <glyph glyph-name="Rcaron" unicode="&#x158;" horiz-adv-x="559" 
d="M627 927l-160 -151h-92l-93 151h132l29 -57l53 57h131zM585 327q-43 -66 -109 -92l55 -235h-138l-45 216h-95l-50 -216h-138l157 680h196q108 0 159 -45.5t51 -143.5t-43 -164zM469 543q-17 19 -59 19h-77l-53 -228h89q54 0 85.5 43t31.5 95t-17 71z" />
    <glyph glyph-name="rcaron" unicode="&#x159;" horiz-adv-x="334" 
d="M55 0l115 500h133l-18 -72q30 27 77 53.5t80 30.5l-39 -140q-48 -15 -117 -46l-24 -11l-73 -315h-134zM336 575h-85l-82 175h123l29 -66l53 66h129z" />
    <glyph glyph-name="Sacute" unicode="&#x15a;" horiz-adv-x="495" 
d="M381 574q-44 0 -69.5 -24.5t-25.5 -58.5t16 -49.5t88 -47.5t98.5 -67.5t26.5 -103.5q0 -113 -69.5 -174t-187.5 -61q-47 0 -99 10t-81 20l-28 11l23 99q113 -20 177.5 -20t94.5 22.5t30 76.5q0 29 -17.5 44.5t-85.5 46.5t-97 68t-29 103q0 97 63 160t168 63
q48 0 100.5 -9.5t80.5 -18.5l28 -10l-25 -98q-110 18 -180 18zM339 765l-10 106l264 91l10 -120z" />
    <glyph glyph-name="sacute" unicode="&#x15b;" horiz-adv-x="432" 
d="M302 397q-30 0 -46 -14t-16 -32.5t14 -27.5t72.5 -27t88 -41.5t29.5 -76.5q0 -94 -61.5 -142t-163.5 -48q-43 0 -86.5 8.5t-64.5 17.5l-22 8l25 98q96 -18 166 -18t70 49q0 13 -14 20.5t-48 17.5q-71 20 -105 47t-34 77q0 93 61 145.5t147 52.5q47 0 92 -7.5t66 -15.5
l22 -8l-24 -99q-103 16 -168 16zM256 576l-10 107l264 91l10 -120z" />
    <glyph glyph-name="Scircumflex" unicode="&#x15c;" horiz-adv-x="495" 
d="M381 574q-44 0 -69.5 -24.5t-25.5 -58.5t16 -49.5t88 -47.5t98.5 -67.5t26.5 -103.5q0 -113 -69.5 -174t-187.5 -61q-47 0 -99 10t-81 20l-28 11l23 99q113 -20 177.5 -20t94.5 22.5t30 76.5q0 29 -17.5 44.5t-85.5 46.5t-97 68t-29 103q0 97 63 160t168 63
q48 0 100.5 -9.5t80.5 -18.5l28 -10l-25 -98q-110 18 -180 18zM244 779l176 152h80l96 -152h-122l-26 55l-62 -55h-142z" />
    <glyph glyph-name="scircumflex" unicode="&#x15d;" horiz-adv-x="432" 
d="M302 397q-30 0 -46 -14t-16 -32.5t14 -27.5t72.5 -27t88 -41.5t29.5 -76.5q0 -94 -61.5 -142t-163.5 -48q-43 0 -86.5 8.5t-64.5 17.5l-22 8l25 98q96 -18 166 -18t70 49q0 13 -14 20.5t-48 17.5q-71 20 -105 47t-34 77q0 93 61 145.5t147 52.5q47 0 92 -7.5t66 -15.5
l22 -8l-24 -99q-103 16 -168 16zM178 575l168 175h80l86 -175h-122l-24 64l-58 -64h-130z" />
    <glyph glyph-name="Scedilla" unicode="&#x15e;" horiz-adv-x="495" 
d="M266 -33q93 0 93 -61q0 -13 -4 -30q-25 -105 -129 -105q-40 0 -72 8l-12 3l20 81q30 -1 46 -1q36 0 42 24q3 12 -4.5 16t-26.5 4h-22l18 84q-82 8 -143 31l-22 8l23 99q113 -20 177.5 -20t94.5 22.5t30 76.5q0 29 -17.5 44.5t-85.5 46.5t-97 68t-29 103q0 97 63 160
t168 63q48 0 100.5 -9.5t80.5 -18.5l28 -10l-25 -98q-110 18 -180 18q-44 0 -69.5 -24.5t-25.5 -58.5t16 -49.5t88 -47.5t98.5 -67.5t26.5 -103.5q0 -111 -67 -172t-182 -63l-6 -21h6z" />
    <glyph glyph-name="scedilla" unicode="&#x15f;" horiz-adv-x="434" 
d="M227 -33q93 0 93 -61q0 -13 -4 -30q-25 -105 -129 -105q-40 0 -72 8l-12 3l20 81q30 -1 46 -1q36 0 42 24q3 12 -4.5 16t-26.5 4h-22l18 84q-67 8 -114 26l-15 6l25 98q96 -18 166 -18t70 49q0 13 -14 20.5t-48 17.5q-71 20 -105 47t-34 77q0 93 61 145.5t147 52.5
q47 0 92 -7.5t67 -15.5l21 -8l-24 -99q-103 16 -168 16q-30 0 -46 -14t-16 -32.5t14 -27.5t72.5 -27t88 -41.5t29.5 -76.5q0 -92 -59.5 -140t-158.5 -50l-6 -21h6z" />
    <glyph glyph-name="Scaron" unicode="&#x160;" horiz-adv-x="495" 
d="M637 927l-160 -151h-92l-93 151h132l29 -57l53 57h131zM381 574q-44 0 -69.5 -24.5t-25.5 -58.5t16 -49.5t88 -47.5t98.5 -67.5t26.5 -103.5q0 -113 -69.5 -174t-187.5 -61q-47 0 -99 10t-81 20l-28 11l23 99q113 -20 177.5 -20t94.5 22.5t30 76.5q0 29 -17.5 44.5
t-85.5 46.5t-97 68t-29 103q0 97 63 160t168 63q48 0 100.5 -9.5t80.5 -18.5l28 -10l-25 -98q-110 18 -180 18z" />
    <glyph glyph-name="scaron" unicode="&#x161;" horiz-adv-x="432" 
d="M302 397q-30 0 -46 -14t-16 -32.5t14 -27.5t72.5 -27t88 -41.5t29.5 -76.5q0 -94 -61.5 -142t-163.5 -48q-43 0 -86.5 8.5t-64.5 17.5l-22 8l25 98q96 -18 166 -18t70 49q0 13 -14 20.5t-48 17.5q-71 20 -105 47t-34 77q0 93 61 145.5t147 52.5q47 0 92 -7.5t66 -15.5
l22 -8l-24 -99q-103 16 -168 16zM387 575h-85l-82 175h123l29 -66l53 66h129z" />
    <glyph glyph-name="Tcedilla" unicode="&#x162;" horiz-adv-x="456" 
d="M252 -33q93 0 93 -61q0 -13 -4 -30q-25 -105 -129 -105q-40 0 -72 8l-12 3l20 81q30 -1 46 -1q36 0 42 24q3 12 -4.5 16t-26.5 4h-22l21 94h-46l129 560h-149l28 120h438l-28 -120h-151l-129 -560h-41l-9 -33h6z" />
    <glyph glyph-name="tcedilla" unicode="&#x163;" horiz-adv-x="329" 
d="M215 -33q93 0 93 -61q0 -13 -4 -30q-25 -105 -129 -105q-40 0 -72 8l-12 3l20 81q30 -1 46 -1q36 0 42 24q3 12 -4.5 16t-26.5 4h-22l20 90q-33 11 -50 37.5t-17 64.5t15 100l44 188h-54l30 114h51l29 128h134l-29 -128h105l-28 -114h-104l-46 -200q-8 -34 -8 -56
q0 -28 29 -28l68 5l-11 -96q-51 -22 -109 -23l-6 -21h6z" />
    <glyph glyph-name="Tcaron" unicode="&#x164;" horiz-adv-x="456" 
d="M595 927l-160 -151h-92l-93 151h132l29 -57l53 57h131zM138 560l28 120h438l-28 -120h-151l-129 -560h-138l129 560h-149z" />
    <glyph glyph-name="tcaron" unicode="&#x165;" horiz-adv-x="464" 
d="M631 680l-60 -251h-123l61 251h122zM238 130q0 -28 29 -28l68 5l-11 -96q-53 -23 -109.5 -23t-86 30.5t-29.5 74t15 105.5l44 188h-54l30 114h51l29 128h134l-29 -128h105l-28 -114h-104l-46 -200q-8 -34 -8 -56z" />
    <glyph glyph-name="Tbar" unicode="&#x166;" horiz-adv-x="461" 
d="M141 560l28 120h438l-28 -120h-151l-45 -193h128l-29 -119h-126l-57 -248h-138l57 248h-121l27 119h121l45 193h-149z" />
    <glyph glyph-name="tbar" unicode="&#x167;" horiz-adv-x="332" 
d="M240 130q0 -28 29 -28l68 5l-11 -96q-53 -23 -109.5 -23t-86 30.5t-29.5 74t15 105.5v2h-50l25 116h52l17 70h-54l30 114h51l29 128h134l-29 -128h105l-28 -114h-104l-16 -70h91l-25 -116h-93l-3 -14q-8 -34 -8 -56z" />
    <glyph glyph-name="Utilde" unicode="&#x168;" horiz-adv-x="595" 
d="M535.5 779q-24.5 0 -77.5 21.5t-67 21.5q-23 0 -71 -30l-16 -9l-4 93q30 26 62.5 45t60 19t80 -21t61.5 -21q22 0 70 28l16 10l2 -94q-24 -24 -58 -43.5t-58.5 -19.5zM249 231q-9 -38 -9 -68.5t20.5 -42.5t72 -12t77.5 27.5t41 95.5l104 449h138l-104 -449
q-29 -128 -94.5 -185.5t-173.5 -57.5q-218 0 -218 154q0 52 13 111l99 427h138z" />
    <glyph glyph-name="utilde" unicode="&#x169;" horiz-adv-x="513" 
d="M500 608q-31 -18 -55 -18t-69.5 22t-57.5 22q-25 0 -72 -30l-15 -10l-3 92q8 7 20 18t43 29t57 18t71 -21.5t55 -21.5q19 0 69 30l16 9l4 -93l-20 -18q-12 -10 -43 -28zM209 -12q-122 0 -122 141q0 39 21 126l56 245h134l-54 -235q-18 -75 -18 -104t8.5 -43t27.5 -14
q34 0 84 45l16 15l77 336h134l-115 -500h-128l6 49q-23 -23 -60.5 -42t-66.5 -19z" />
    <glyph glyph-name="Umacron" unicode="&#x16a;" horiz-adv-x="595" 
d="M249 231q-9 -38 -9 -68.5t20.5 -42.5t72 -12t77.5 27.5t41 95.5l104 449h138l-104 -449q-29 -128 -94.5 -185.5t-173.5 -57.5q-218 0 -218 154q0 52 13 111l99 427h138zM305 806l25 109h327l-25 -109h-327z" />
    <glyph glyph-name="umacron" unicode="&#x16b;" horiz-adv-x="513" 
d="M209 -12q-122 0 -122 141q0 39 21 126l56 245h134l-54 -235q-18 -75 -18 -104t8.5 -43t27.5 -14q34 0 84 45l16 15l77 336h134l-115 -500h-128l6 49q-23 -23 -60.5 -42t-66.5 -19zM230 627l25 109h309l-26 -109h-308z" />
    <glyph glyph-name="Ubreve" unicode="&#x16c;" horiz-adv-x="595" 
d="M444 918q0 -30 37 -30t52 39h122q-24 -71 -69 -107.5t-123.5 -36.5t-110 33.5t-31.5 83.5q0 13 2 27h122q-1 -5 -1 -9zM249 231q-9 -38 -9 -68.5t20.5 -42.5t72 -12t77.5 27.5t41 95.5l104 449h138l-104 -449q-29 -128 -94.5 -185.5t-173.5 -57.5q-218 0 -218 154
q0 52 13 111l99 427h138z" />
    <glyph glyph-name="ubreve" unicode="&#x16d;" horiz-adv-x="513" 
d="M209 -12q-122 0 -122 141q0 39 21 126l56 245h134l-54 -235q-18 -75 -18 -104t8.5 -43t27.5 -14q34 0 84 45l16 15l77 336h134l-115 -500h-128l6 49q-23 -23 -60.5 -42t-66.5 -19zM362 739q0 -37 44.5 -37t60.5 44h121q-52 -156 -218 -156q-132 0 -132 120q0 17 3 36h121
v-7z" />
    <glyph glyph-name="Uring" unicode="&#x16e;" horiz-adv-x="595" 
d="M562 748q-43 -30 -102 -30t-88 30q-20 20 -20 44q0 88 62 130q43 30 101.5 30t88.5 -29q20 -20 20 -53q0 -16 -5 -35q-14 -57 -57 -87zM480 804q45 0 52 31q4 17 -8.5 24t-28.5 7q-44 0 -52 -31q-3 -14 7 -22.5t30 -8.5zM249 231q-9 -38 -9 -68.5t20.5 -42.5t72 -12
t77.5 27.5t41 95.5l104 449h138l-104 -449q-29 -128 -94.5 -185.5t-173.5 -57.5q-218 0 -218 154q0 52 13 111l99 427h138z" />
    <glyph glyph-name="uring" unicode="&#x16f;" horiz-adv-x="513" 
d="M346 713q34 30 81.5 30t65.5 -31q11 -18 11 -39q0 -75 -51 -117q-35 -29 -82 -29t-65 31q-12 19 -12 39q0 71 52 116zM393 606q27 0 36 29q4 12 -3.5 20t-18.5 8q-28 0 -36 -27q-4 -11 2.5 -20.5t19.5 -9.5zM209 -12q-122 0 -122 141q0 39 21 126l56 245h134l-54 -235
q-18 -75 -18 -104t8.5 -43t27.5 -14q34 0 84 45l16 15l77 336h134l-115 -500h-128l6 49q-23 -23 -60.5 -42t-66.5 -19z" />
    <glyph glyph-name="Uhungarumlaut" unicode="&#x170;" horiz-adv-x="595" 
d="M600 740l-99 40l111 198l109 -45zM396 741l-100 39l112 199l109 -45zM249 231q-9 -38 -9 -68.5t20.5 -42.5t72 -12t77.5 27.5t41 95.5l104 449h138l-104 -449q-29 -128 -94.5 -185.5t-173.5 -57.5q-218 0 -218 154q0 52 13 111l99 427h138z" />
    <glyph glyph-name="uhungarumlaut" unicode="&#x171;" horiz-adv-x="513" 
d="M492 563l-81 65l156 190l89 -67zM298 563l-80 65l155 189l89 -66zM209 -12q-122 0 -122 141q0 39 21 126l56 245h134l-54 -235q-18 -75 -18 -104t8.5 -43t27.5 -14q34 0 84 45l16 15l77 336h134l-115 -500h-128l6 49q-23 -23 -60.5 -42t-66.5 -19z" />
    <glyph glyph-name="Uogonek" unicode="&#x172;" horiz-adv-x="598" 
d="M251 231q-9 -38 -9 -68.5t20.5 -42.5t72 -12t77.5 27.5t41 95.5l104 449h138l-104 -449q-25 -109 -76 -166.5t-138 -71.5q-21 -17 -39 -39.5t-18 -36t13 -13.5l37 3l-13 -110q-57 -11 -97 -11t-62 19.5t-22 57.5q0 60 80 129q-151 21 -151 150q0 52 13 111l99 427h138z
" />
    <glyph glyph-name="uogonek" unicode="&#x173;" horiz-adv-x="513" 
d="M409 -38.5q-26 -26.5 -26 -42t13 -15.5l37 3l-13 -110q-57 -11 -97 -11t-62 19.5t-22 56t28 74t63 65.5l6 48q-23 -23 -60.5 -42t-66.5 -19q-122 0 -122 141q0 39 21 126l56 245h134l-54 -235q-18 -75 -18 -104t8.5 -43t27.5 -14q34 0 84 45l16 15l77 336h134l-115 -500
q-23 -12 -49 -38.5z" />
    <glyph glyph-name="Wcircumflex" unicode="&#x174;" horiz-adv-x="865" 
d="M428 779l176 152h80l96 -152h-122l-26 55l-62 -55h-142zM174 680h138l-42 -553h14l226 543h152l-33 -543h14l224 553h138l-291 -680h-200l33 494l-198 -494h-206z" />
    <glyph glyph-name="wcircumflex" unicode="&#x175;" horiz-adv-x="762" 
d="M135 500h135l-32 -386h23l159 376h152l-20 -376h23l149 386h135l-204 -500h-223l19 311l-126 -311h-219zM339 575l168 175h80l86 -175h-122l-24 64l-58 -64h-130z" />
    <glyph glyph-name="Ycircumflex" unicode="&#x176;" horiz-adv-x="504" 
d="M251 779l176 152h80l96 -152h-122l-26 55l-62 -55h-142zM661 680l-280 -392l-68 -288h-128l68 294l-95 386h140l48 -265l169 265h146z" />
    <glyph glyph-name="ycircumflex" unicode="&#x177;" horiz-adv-x="464" 
d="M126 500h131l-14 -389h15l174 389h135l-332 -710h-133l103 210h-83zM184 575l168 175h80l86 -175h-122l-24 64l-58 -64h-130z" />
    <glyph glyph-name="Ydieresis" unicode="&#x178;" horiz-adv-x="504" 
d="M273 788l31 135h111l-32 -135h-110zM472 788l31 135h111l-33 -135h-109zM661 680l-280 -392l-68 -288h-128l68 294l-95 386h140l48 -265l169 265h146z" />
    <glyph glyph-name="Zacute" unicode="&#x179;" horiz-adv-x="490" 
d="M316 765l-10 106l264 91l10 -120zM165 560l28 120h418l-32 -139l-353 -397l-6 -24h262l-28 -120h-418l31 137l351 399l5 24h-258z" />
    <glyph glyph-name="zacute" unicode="&#x17a;" horiz-adv-x="414" 
d="M151 500h345l-28 -111l-252 -275h192l-29 -114h-345l25 112l251 274h-188zM238 576l-10 107l264 91l10 -120z" />
    <glyph glyph-name="Zdotaccent" unicode="&#x17b;" horiz-adv-x="490" 
d="M367 771l32 138h118l-34 -138h-116zM165 560l28 120h418l-32 -139l-353 -397l-6 -24h262l-28 -120h-418l31 137l351 399l5 24h-258z" />
    <glyph glyph-name="zdotaccent" unicode="&#x17c;" horiz-adv-x="414" 
d="M151 500h345l-28 -111l-252 -275h192l-29 -114h-345l25 112l251 274h-188zM276 582l32 137h116l-32 -137h-116z" />
    <glyph glyph-name="Zcaron" unicode="&#x17d;" horiz-adv-x="490" 
d="M630 927l-160 -151h-92l-93 151h132l29 -57l53 57h131zM165 560l28 120h418l-32 -139l-353 -397l-6 -24h262l-28 -120h-418l31 137l351 399l5 24h-258z" />
    <glyph glyph-name="zcaron" unicode="&#x17e;" horiz-adv-x="414" 
d="M377 575h-85l-82 175h123l29 -66l53 66h129zM122 386l29 114h345l-28 -111l-252 -275h192l-29 -114h-345l25 112l251 274h-188z" />
    <glyph glyph-name="florin" unicode="&#x192;" 
d="M110 -243q-24 0 -77 10l-16 3l24 106q50 -3 77 -3q44 0 59 64l104 438h-88l28 124h89l6 21q31 108 70 148t107.5 40t129.5 -13l-27 -112q-59 2 -89 2q-52 0 -64 -73l-2 -13h133l-29 -124h-133l-105 -438q-25 -104 -69.5 -142t-127.5 -38z" />
    <glyph glyph-name="Aringacute" unicode="&#x1fa;" horiz-adv-x="551" 
d="M313 666q-1 8 -1 20.5t4 30.5q14 58 57 87.5t101.5 29.5t87.5 -29q21 -20 21 -53q0 -47 -27 -85l-20 -667h-138l4 118h-198l-53 -118h-138zM355 856l-10 107l264 91l10 -120zM400 560l-144 -322h151l14 322h-21zM402 717q-1 -3 -1 -9.5t9 -14t29 -7.5q45 0 52 31
q1 4 1 11.5t-11 13.5t-27 6q-44 0 -52 -31z" />
    <glyph glyph-name="aringacute" unicode="&#x1fb;" horiz-adv-x="528" 
d="M365 758l-11 117l264 91l11 -130zM221 -12q-73 0 -107 49.5t-34 132.5q0 115 58 221q29 53 80 87t116 34q69 0 204 -24l46 -9l-75 -323l-27 -153l-133 -5q9 61 13 78q-41 -55 -96 -78q-23 -10 -45 -10zM338 398q-38 0 -67 -39q-55 -74 -55 -189q0 -35 11 -51.5
t34.5 -16.5t53 22t49.5 44l20 23l46 193q-66 14 -92 14zM372 713q34 30 81.5 30t65.5 -31q11 -18 11 -39q0 -75 -51 -117q-35 -29 -82 -29t-65 31q-12 19 -12 39q0 71 52 116zM397 636q-2 -4 -2 -9.5t5.5 -13t18.5 -7.5q27 0 36 29q1 4 1 9.5t-6 12t-17 6.5q-28 0 -36 -27z
" />
    <glyph glyph-name="AEacute" unicode="&#x1fc;" horiz-adv-x="754" 
d="M313 0l28 119h-143l-53 -119h-131l308 690h559l-30 -131l-276 2l-38 -159h220l-29 -125h-221l-35 -147h276l-29 -130h-406zM393 560l-137 -313h116l73 313h-52zM494 765l-10 106l264 91l10 -120z" />
    <glyph glyph-name="aeacute" unicode="&#x1fd;" horiz-adv-x="714" 
d="M452 167q0 -58 69 -58q48 0 145 7l27 2l-23 -102q-91 -28 -190 -28t-136 49q-26 -14 -84.5 -31.5t-91.5 -17.5q-63 0 -95 51q-21 34 -21 63.5t5 50.5q29 126 153 149q56 10 92 10h47q7 13 7 29q0 45 -32 45q-62 0 -152 -10l-30 -4l21 117q127 22 203.5 22t106.5 -41
q56 41 131 41t114 -35q42 -39 42 -112q0 -40 -13 -87l-23 -85l-269 2q-3 -14 -3 -27zM184 143q0 -40 31 -40q47 0 101 13q-1 10 -1 32t11 64q-25 0 -79 -4q-22 -2 -39 -16q-24 -18 -24 -49zM628 294q7 25 7 40t-2 24q-8 38 -53.5 38t-67 -25.5t-34.5 -74.5zM387 576l-10 107
l264 91l10 -120z" />
    <glyph glyph-name="Oslashacute" unicode="&#x1fe;" horiz-adv-x="617" 
d="M102 196q0 131 40 247t117 182.5t190 66.5q69 0 115 -20l91 133l74 -31l-102 -150q43 -53 43 -140q0 -137 -41 -256q-83 -240 -313 -240q-60 0 -109 19l-87 -128l-66 40l91 134q-43 52 -43 143zM388 755l-11 116l264 91l11 -130zM283 118q20 -10 63.5 -10t77.5 34
q47 47 75.5 142t28.5 186v8zM489 562q-20 10 -63.5 10t-73.5 -30q-50 -49 -79 -148.5t-29 -183.5v-10z" />
    <glyph glyph-name="oslashacute" unicode="&#x1ff;" horiz-adv-x="496" 
d="M333 511q46 0 85 -11l65 106l71 -31l-72 -112q48 -48 48 -135t-27 -161t-86.5 -126.5t-139.5 -52.5q-49 0 -86 12l-65 -107l-70 31l72 112q-48 46 -48 133.5t29 162.5t88.5 127t135.5 52zM278 576l-10 107l264 91l10 -120zM333 397q-54 0 -87 -68.5t-33 -153.5v-7l63 98
l78 128q-10 3 -21 3zM277 102q54 0 87 68.5t33 153.5v6l-61 -95l-80 -131q12 -2 21 -2z" />
    <glyph glyph-name="Scommaaccent" unicode="&#x218;" horiz-adv-x="495" 
d="M180 -72h123l-107 -237h-113zM381 574q-44 0 -69.5 -24.5t-25.5 -58.5t16 -49.5t88 -47.5t98.5 -67.5t26.5 -103.5q0 -113 -69.5 -174t-187.5 -61q-47 0 -99 10t-81 20l-28 11l23 99q113 -20 177.5 -20t94.5 22.5t30 76.5q0 29 -17.5 44.5t-85.5 46.5t-97 68t-29 103
q0 97 63 160t168 63q48 0 100.5 -9.5t80.5 -18.5l28 -10l-25 -98q-110 18 -180 18z" />
    <glyph glyph-name="scommaaccent" unicode="&#x219;" horiz-adv-x="432" 
d="M302 397q-30 0 -46 -14t-16 -32.5t14 -27.5t72.5 -27t88 -41.5t29.5 -76.5q0 -94 -61.5 -142t-163.5 -48q-43 0 -86.5 8.5t-64.5 17.5l-22 8l25 98q96 -18 166 -18t70 49q0 13 -14 20.5t-48 17.5q-71 20 -105 47t-34 77q0 93 61 145.5t147 52.5q47 0 92 -7.5t66 -15.5
l22 -8l-24 -99q-103 16 -168 16zM155 -72h123l-107 -237h-113z" />
    <glyph glyph-name="Tcommaaccent" unicode="&#x21a;" horiz-adv-x="456" 
d="M155 -72h123l-107 -237h-113zM138 560l28 120h438l-28 -120h-151l-129 -560h-138l129 560h-149z" />
    <glyph glyph-name="tcommaaccent" unicode="&#x21b;" horiz-adv-x="329" 
d="M238 130q0 -28 29 -28l68 5l-11 -96q-53 -23 -109.5 -23t-86 30.5t-29.5 74t15 105.5l44 188h-54l30 114h51l29 128h134l-29 -128h105l-28 -114h-104l-46 -200q-8 -34 -8 -56zM112 -72h123l-107 -237h-113z" />
    <glyph glyph-name="circumflex" unicode="&#x2c6;" horiz-adv-x="791" 
d="M353 575l168 175h80l86 -175h-122l-24 64l-58 -64h-130z" />
    <glyph glyph-name="caron" unicode="&#x2c7;" horiz-adv-x="791" 
d="M562 575h-85l-82 175h123l29 -66l53 66h129z" />
    <glyph glyph-name="breve" unicode="&#x2d8;" horiz-adv-x="462" 
d="M331 739q0 -37 44.5 -37t60.5 44h121q-52 -156 -218 -156q-132 0 -132 120q0 17 3 36h121v-7z" />
    <glyph glyph-name="dotaccent" unicode="&#x2d9;" horiz-adv-x="255" 
d="M206 582l32 137h116l-32 -137h-116z" />
    <glyph glyph-name="ring" unicode="&#x2da;" horiz-adv-x="791" 
d="M348 713q35 30 82.5 30t65.5 -31q11 -18 11 -39q0 -75 -51 -117q-35 -29 -82 -29t-66 31q-11 19 -11 39q0 71 51 116zM374 636q-2 -4 -2 -9.5t5.5 -13t18.5 -7.5q27 0 36 29q1 4 1 9.5t-6 12t-17 6.5q-28 0 -36 -27z" />
    <glyph glyph-name="ogonek" unicode="&#x2db;" horiz-adv-x="450" 
d="M356 -203q-57 -11 -97 -11t-62 19.5t-22 58.5t36.5 82.5t73.5 68.5l108 -10q-21 -13 -47.5 -42t-26.5 -44t13 -15l37 3z" />
    <glyph glyph-name="tilde" unicode="&#x2dc;" horiz-adv-x="446" 
d="M469 608q-31 -18 -55 -18t-69.5 22t-58.5 22q-24 0 -70 -30l-16 -10l-3 92q8 7 20 18t43 29t57 18t71 -21.5t55 -21.5q19 0 69 30l16 9l4 -93l-20 -18q-12 -10 -43 -28z" />
    <glyph glyph-name="hungarumlaut" unicode="&#x2dd;" horiz-adv-x="689" 
d="M546 563l-81 65l156 190l89 -67zM352 563l-80 65l155 189l89 -66z" />
    <glyph glyph-name="pi" unicode="&#x3c0;" 
d="M384 154v232h-85l-26 -386h-135l32 386q-32 0 -73 -10l-15 -3v109q64 18 150 18h251q51 0 95 9l14 3v-110q-24 -11 -74 -14v-234q0 -27 14 -38.5t55 -11.5v-114q-70 0 -108.5 6t-60.5 26.5t-28 49t-6 82.5z" />
    <glyph glyph-name="Wgrave" unicode="&#x1e80;" horiz-adv-x="865" 
d="M517 950l222 -91l-61 -105l-227 77zM174 680h138l-42 -553h14l226 543h152l-33 -543h14l224 553h138l-291 -680h-200l33 494l-198 -494h-206z" />
    <glyph glyph-name="wgrave" unicode="&#x1e81;" horiz-adv-x="762" 
d="M404 772l221 -90l-56 -99l-229 79zM135 500h135l-32 -386h23l159 376h152l-20 -376h23l149 386h135l-204 -500h-223l19 311l-126 -311h-219z" />
    <glyph glyph-name="Wacute" unicode="&#x1e82;" horiz-adv-x="865" 
d="M502 765l-10 106l264 91l10 -120zM174 680h138l-42 -553h14l226 543h152l-33 -543h14l224 553h138l-291 -680h-200l33 494l-198 -494h-206z" />
    <glyph glyph-name="wacute" unicode="&#x1e83;" horiz-adv-x="762" 
d="M135 500h135l-32 -386h23l159 376h152l-20 -376h23l149 386h135l-204 -500h-223l19 311l-126 -311h-219zM400 576l-10 107l264 91l10 -120z" />
    <glyph glyph-name="Wdieresis" unicode="&#x1e84;" horiz-adv-x="865" 
d="M449 788l31 135h111l-32 -135h-110zM648 788l31 135h111l-33 -135h-109zM174 680h138l-42 -553h14l226 543h152l-33 -543h14l224 553h138l-291 -680h-200l33 494l-198 -494h-206z" />
    <glyph glyph-name="wdieresis" unicode="&#x1e85;" horiz-adv-x="762" 
d="M135 500h135l-32 -386h23l159 376h152l-20 -376h23l149 386h135l-204 -500h-223l19 311l-126 -311h-219zM356 601l31 135h111l-32 -135h-110zM550 601l31 135h111l-32 -135h-110z" />
    <glyph glyph-name="uni1EAB" unicode="&#x1eab;" horiz-adv-x="528" 
d="M221 -12q-73 0 -107 49.5t-34 132.5q0 115 58 221q29 53 80 87t116 34q69 0 204 -24l46 -9l-75 -323l-27 -153l-133 -5q9 61 13 78q-41 -55 -96 -78q-23 -10 -45 -10zM338 398q-38 0 -67 -39q-55 -74 -55 -189q0 -35 11 -51.5t34.5 -16.5t53 22t49.5 44l20 23l46 193
q-66 14 -92 14zM569 768q-31 -18 -55 -18t-69.5 22t-58.5 22q-24 0 -70 -30l-16 -10l-3 92q8 7 20 18t43 29t57 18t71 -21.5t55 -21.5q19 0 69 30l16 9l4 -93l-20 -18q-12 -10 -43 -28zM236 545l168 175h80l86 -175h-122l-24 64l-58 -64h-130z" />
    <glyph glyph-name="uni1EB0" unicode="&#x1eb0;" horiz-adv-x="551" 
d="M442 1133l221 -90l-56 -99l-229 79zM13 0l306 680h238l-21 -680h-138l4 118h-198l-53 -118h-138zM400 560l-144 -322h151l14 322h-21zM437 878q0 -30 37 -30t52 39h122q-24 -71 -69 -107.5t-123.5 -36.5t-110 33.5t-31.5 83.5q0 13 2 27h122q-1 -5 -1 -9z" />
    <glyph glyph-name="uni1EC5" unicode="&#x1ec5;" horiz-adv-x="476" 
d="M544 768q-31 -18 -55 -18t-69.5 22t-57.5 22q-25 0 -72 -30l-15 -10l-3 92q8 7 20 18t43 29t57 18t71 -21.5t55 -21.5q19 0 69 30l16 9l4 -93l-20 -18q-12 -10 -43 -28zM235.5 117q20.5 -15 51.5 -15q69 0 141 10l26 3l-15 -99q-93 -28 -184 -28t-132.5 41t-41.5 120
t16 141t47.5 112t86 79.5t124.5 29.5q175 0 175 -149q0 -95 -64 -131t-213 -36h-35q-3 -12 -3 -37.5t20.5 -40.5zM274 294q69 0 96.5 15t27.5 51q0 43 -50 43q-89 0 -115 -109h41zM204 545l168 175h80l86 -175h-122l-24 64l-58 -64h-130z" />
    <glyph glyph-name="uni1ED7" unicode="&#x1ed7;" horiz-adv-x="496" 
d="M333 511q197 0 197 -189q0 -81 -27 -155t-86.5 -126.5t-139.5 -52.5q-197 0 -197 189q0 80 29 155t88.5 127t135.5 52zM277 102q54 0 87 68.5t33 153.5q0 73 -64 73q-54 0 -87 -68.5t-33 -153.5q0 -73 64 -73zM538 768q-31 -18 -55 -18t-69.5 22t-57.5 22q-25 0 -72 -30
l-15 -10l-3 92q8 7 20 18t43 29t57 18t71 -21.5t55 -21.5q19 0 69 30l16 9l4 -93l-20 -18q-12 -10 -43 -28zM202 545l168 175h80l86 -175h-122l-24 64l-58 -64h-130z" />
    <glyph glyph-name="Ygrave" unicode="&#x1ef2;" horiz-adv-x="504" 
d="M339 950l222 -91l-61 -105l-227 77zM661 680l-280 -392l-68 -288h-128l68 294l-95 386h140l48 -265l169 265h146z" />
    <glyph glyph-name="ygrave" unicode="&#x1ef3;" horiz-adv-x="464" 
d="M256 772l221 -90l-56 -99l-229 79zM126 500h131l-14 -389h15l174 389h135l-332 -710h-133l103 210h-83z" />
    <glyph glyph-name="uni1EF8" unicode="&#x1ef8;" horiz-adv-x="504" 
d="M553 799q-31 -18 -55 -18t-69.5 22t-58.5 22q-24 0 -70 -30l-16 -10l-3 92q8 7 20 18t43 29t57 18t71 -21.5t55 -21.5q23 0 69 29l16 10l4 -93l-20 -17q-12 -11 -43 -29zM661 680l-280 -392l-68 -288h-128l68 294l-95 386h140l48 -265l169 265h146z" />
    <glyph glyph-name="uni1EF9" unicode="&#x1ef9;" horiz-adv-x="464" 
d="M489 608q-31 -18 -55 -18t-69.5 22t-58.5 22q-24 0 -70 -30l-16 -10l-3 92q8 7 20 18t43 29t57 18t71 -21.5t55 -21.5q19 0 69 30l16 9l4 -93l-20 -18q-12 -10 -43 -28zM126 500h131l-14 -389h15l174 389h135l-332 -710h-133l103 210h-83z" />
    <glyph glyph-name="endash" unicode="&#x2013;" horiz-adv-x="526" 
d="M75 323h500v-114h-500v114z" />
    <glyph glyph-name="emdash" unicode="&#x2014;" horiz-adv-x="1026" 
d="M75 323h1000v-114h-1000v114z" />
    <glyph glyph-name="quoteleft" unicode="&#x2018;" horiz-adv-x="174" 
d="M233 679h100l-105 -255h-132z" />
    <glyph glyph-name="quoteright" unicode="&#x2019;" horiz-adv-x="174" 
d="M196 425h-100l105 255h132z" />
    <glyph glyph-name="quotesinglbase" unicode="&#x201a;" horiz-adv-x="150" 
d="M34 -165h-100l105 255h132z" />
    <glyph glyph-name="quotedblleft" unicode="&#x201c;" horiz-adv-x="363" 
d="M231 680h100l-105 -255h-132zM421 680h100l-105 -255h-132z" />
    <glyph glyph-name="quotedblright" unicode="&#x201d;" horiz-adv-x="364" 
d="M196 425h-100l105 255h132zM386 425h-100l105 255h132z" />
    <glyph glyph-name="quotedblbase" unicode="&#x201e;" horiz-adv-x="347" 
d="M266 85h100l-105 -255h-132zM46 85h100l-105 -255h-132z" />
    <glyph glyph-name="dagger" unicode="&#x2020;" horiz-adv-x="454" 
d="M112 362l30 135h138l40 171h125l-40 -171h136l-29 -135h-138l-103 -432h-124l101 432h-136z" />
    <glyph glyph-name="daggerdbl" unicode="&#x2021;" horiz-adv-x="473" 
d="M157 -70l39 170h-137l31 135h138l30 127h-136l30 135l138 -1l40 172h125l-40 -171h135l-29 -135h-137l-31 -127h138l-32 -135h-138l-40 -170h-124z" />
    <glyph glyph-name="bullet" unicode="&#x2022;" horiz-adv-x="458" 
d="M160 100v280h250v-280h-250z" />
    <glyph glyph-name="ellipsis" unicode="&#x2026;" horiz-adv-x="614" 
d="M8 0l35 153h136l-35 -153h-136zM238 0l35 153h136l-35 -153h-136zM470 0l35 153h136l-35 -153h-136z" />
    <glyph glyph-name="perthousand" unicode="&#x2030;" horiz-adv-x="833" 
d="M270.5 607q-7.5 -14 -16.5 -48t-9 -51.5t13.5 -17.5t21.5 15t16.5 48.5t8.5 50.5t-13.5 17t-21 -14zM144 -2l372 722l80 -23l-371 -721zM147 496q0 26 8 60q36 145 156 145q92 0 92 -86q0 -26 -8 -59q-36 -146 -156 -146q-92 0 -92 86zM501 291q92 0 92 -86q0 -26 -8 -59
q-36 -146 -156 -146q-92 0 -92 86q0 26 8 60q36 145 156 145zM460 196.5q-8 -14.5 -17 -48.5t-9 -51t13.5 -17t22 15t17 48.5t8.5 50.5t-13.5 17t-21.5 -14.5zM758 291q92 0 92 -86q0 -26 -8 -59q-36 -146 -156 -146q-92 0 -92 86q0 26 8 60q36 145 156 145zM717 196.5
q-8 -14.5 -17 -48.5t-9 -51t13.5 -17t22 15t17 48.5t8.5 50.5t-13.5 17t-21.5 -14.5z" />
    <glyph glyph-name="guilsinglleft" unicode="&#x2039;" horiz-adv-x="232" 
d="M326 436l-37 -131l-113 -65l80 -77l-33 -120l-170 169l23 61z" />
    <glyph glyph-name="guilsinglright" unicode="&#x203a;" horiz-adv-x="234" 
d="M19 43l37 131l113 65l-80 77l33 120l170 -169l-23 -61z" />
    <glyph glyph-name="fraction" unicode="&#x2044;" horiz-adv-x="73" 
d="M-32 -32l-126 44l431 698l126 -44z" />
    <glyph glyph-name="zerosuperior" unicode="&#x2070;" horiz-adv-x="280" 
d="M234 777q33 24 96 24t86 -39q11 -19 11 -51t-12 -79q-27 -109 -75 -143q-32 -22 -97 -22t-87 37q-11 17 -11 49t12 79q27 108 77 145zM317 691q0 15 -11.5 15t-19 -13.5t-17.5 -52.5q-12 -48 -12 -63t11.5 -15t18.5 12q11 18 20.5 64t9.5 53z" />
    <glyph glyph-name="foursuperior" unicode="&#x2074;" horiz-adv-x="280" 
d="M258 478l8 35h-135l22 88l89 189h118l-97 -182h27l37 90h91l-23 -90h11l-24 -95h-11l-8 -35h-105z" />
    <glyph glyph-name="fivesuperior" unicode="&#x2075;" horiz-adv-x="280" 
d="M324 681q74 0 74 -63q0 -16 -5 -36q-16 -59 -50.5 -85t-95.5 -26q-47 0 -98 11l-17 3l30 85q53 -9 84.5 -9t34.5 15q4 16 -10 16l-27 -4l-75 11l58 191h207l-22 -90h-124l-9 -25q29 6 45 6z" />
    <glyph glyph-name="sixsuperior" unicode="&#x2076;" horiz-adv-x="280" 
d="M415 702q-65 6 -95.5 6t-36.5 -26q23 5 39 5q83 0 83 -67q0 -17 -5 -38q-30 -115 -148 -115q-101 0 -101 91q0 28 9 64q22 90 63.5 134.5t117.5 44.5q31 0 83 -9l18 -3zM260 593q-2 -10 -2 -17q0 -17 12 -17q17 0 22 21q2 5 2 10q0 11 -12 11t-22 -8z" />
    <glyph glyph-name="sevensuperior" unicode="&#x2077;" horiz-adv-x="280" 
d="M183 685l26 105h227l-25 -101l-150 -221l-121 21l139 183l3 13h-99z" />
    <glyph glyph-name="eightsuperior" unicode="&#x2078;" horiz-adv-x="280" 
d="M329 801q105 0 105 -65q0 -32 -15 -56t-24 -32l-9 -8q8 -5 13.5 -20t5.5 -25t-5 -23q-14 -57 -52 -81t-102.5 -24t-89.5 24q-17 15 -17 38t5 43t17 37t22 25l10 7q-7 7 -10.5 21.5t-3.5 24.5t5 25q22 89 145 89zM272 599q-20 -16 -20 -31.5t16.5 -15.5t23.5 22
q3 12 -6 25h-14zM304 672q18 16 18 30t-15.5 14t-21.5 -19q-1 -3 -1 -8.5t6 -16.5h14z" />
    <glyph glyph-name="ninesuperior" unicode="&#x2079;" horiz-adv-x="280" 
d="M284 585q-20 -4 -36 -4q-81 0 -81 66q0 17 5 38q14 55 53 85.5t95 30.5q100 0 100 -95q0 -30 -10 -70q-23 -89 -61.5 -129t-111.5 -40q-43 0 -89 11l-16 3l28 87q48 -6 83.5 -6t40.5 23zM310 669q3 13 3 26t-12 13q-15 0 -22 -23q-1 -5 -1 -9q0 -13 12 -13z" />
    <glyph glyph-name="zeroinferior" unicode="&#x2080;" horiz-adv-x="280" 
d="M124 299q33 24 96 24t86 -39q11 -19 11 -51t-12 -79q-27 -109 -75 -143q-32 -22 -97 -22t-87 37q-11 17 -11 49t12 79q27 108 77 145zM207 213q0 15 -11.5 15t-19 -13.5t-17.5 -52.5q-12 -48 -12 -63t11.5 -15t18.5 12q11 18 20.5 64t9.5 53z" />
    <glyph glyph-name="oneinferior" unicode="&#x2081;" horiz-adv-x="280" 
d="M65 137l124 75h96l-77 -312h-106l48 195l-55 -32z" />
    <glyph glyph-name="twoinferior" unicode="&#x2082;" horiz-adv-x="280" 
d="M76 214q75 9 128 9t72 -23q12 -13 12 -33.5t-7 -48.5q-14 -54 -80 -95l-45 -28h94l-23 -95h-231l22 90l88 59q54 36 60 57q2 9 -5.5 12t-27.5 3l-78 -6z" />
    <glyph glyph-name="threeinferior" unicode="&#x2083;" horiz-adv-x="280" 
d="M184 223q102 0 102 -63q0 -12 -3 -26q-12 -52 -46 -70q21 -10 21 -40q0 -14 -5 -33q-25 -102 -143 -102l-119 8l29 93q60 -6 91 -6t35 16q2 9 -3 11.5t-20 2.5h-66l21 85h64q20 0 23 11t-3 14.5t-19 3.5l-86 -5l17 91q70 9 110 9z" />
    <glyph glyph-name="fourinferior" unicode="&#x2084;" horiz-adv-x="280" 
d="M125 -100l8 35h-135l22 88l89 189h118l-97 -182h27l37 90h91l-23 -90h11l-24 -95h-11l-8 -35h-105z" />
    <glyph glyph-name="fiveinferior" unicode="&#x2085;" horiz-adv-x="280" 
d="M186 103q74 0 74 -63q0 -16 -5 -36q-16 -59 -50.5 -85t-95.5 -26q-47 0 -98 11l-17 3l30 85q53 -9 84.5 -9t34.5 15q4 16 -10 16l-27 -4l-75 11l58 191h207l-22 -90h-124l-9 -25q29 6 45 6z" />
    <glyph glyph-name="sixinferior" unicode="&#x2086;" horiz-adv-x="280" 
d="M281 124q-65 6 -95.5 6t-36.5 -26q23 5 39 5q83 0 83 -67q0 -17 -5 -38q-30 -115 -148 -115q-101 0 -101 91q0 28 9 64q22 90 63.5 134.5t117.5 44.5q33 0 84 -9l17 -3zM126 15q-2 -10 -2 -17q0 -17 12 -17q17 0 22 21q2 5 2 10q0 11 -12 11t-22 -8z" />
    <glyph glyph-name="seveninferior" unicode="&#x2087;" horiz-adv-x="280" 
d="M50 107l26 105h227l-25 -101l-150 -221l-121 21l139 183l3 13h-99z" />
    <glyph glyph-name="eightinferior" unicode="&#x2088;" horiz-adv-x="280" 
d="M194 223q105 0 105 -65q0 -32 -15 -56t-24 -32l-9 -8q8 -5 13.5 -20t5.5 -25t-5 -23q-14 -57 -52 -81t-102.5 -24t-90.5 24q-16 15 -16 38t5 43t17 37.5t22 24.5l10 7q-7 7 -10.5 21.5t-3.5 24.5t5 25q22 89 145 89zM137 21q-20 -16 -20 -31.5t16.5 -15.5t23.5 22
q3 12 -6 25h-14zM169 94q18 16 18 30t-15.5 14t-21.5 -19q-2 -10 5 -25h14z" />
    <glyph glyph-name="nineinferior" unicode="&#x2089;" horiz-adv-x="280" 
d="M151 7q-20 -4 -36 -4q-81 0 -81 66q0 17 5 38q14 55 53 85.5t95 30.5q100 0 100 -95q0 -30 -10 -70q-23 -89 -61.5 -129t-111.5 -40q-43 0 -90 11l-15 3l28 87q48 -6 83.5 -6t40.5 23zM177 91q3 13 3 26t-12 13q-15 0 -22 -23q-1 -5 -1 -9q0 -13 12 -13z" />
    <glyph glyph-name="Euro" unicode="&#x20ac;" 
d="M348 -12q-199 0 -199 192v3h-58l24 105h41q8 46 14 69h-40l25 105h49q93 210 285 210q75 0 143 -22l23 -7l-31 -99q-60 11 -140 11t-135 -93h206l-24 -105h-223q-10 -36 -14 -69h222l-24 -105h-205q2 -78 79 -78q67 0 134 9l23 3l-11 -103q-90 -26 -164 -26z" />
    <glyph glyph-name="trademark" unicode="&#x2122;" horiz-adv-x="689" 
d="M214 565v79h200v-79h-41v-233h-88v233h-71zM439 331v313h103l41 -158l45 158h102v-313h-82v174l-34 -153h-55l-38 153v-174h-82z" />
    <glyph glyph-name="Omega" unicode="&#x2126;" 
d="M115 105h80q-9 9 -28.5 43t-31.5 64q-32 82 -32 173q0 151 56 219t184 68t184 -68t56 -219q0 -76 -23 -146t-46 -102l-23 -32h80v-114h-208v99q29 49 53.5 126.5t24.5 133.5q0 116 -18.5 159t-79.5 43t-79.5 -43t-18.5 -159q0 -56 19.5 -121t39.5 -102l19 -37v-99h-208
v114z" />
    <glyph glyph-name="partialdiff" unicode="&#x2202;" 
d="M343 712q135 0 195.5 -89t60.5 -274t-60 -271.5t-195 -86.5q-235 0 -235 225q0 106 57 164t162 58q61 0 110 -18l17 -6q-6 105 -34 144.5t-101 39.5q-32 0 -70.5 -8.5t-61.5 -17.5l-22 -8l-4 103q85 45 181 45zM345 324q-92 0 -92 -109.5t91 -109.5q56 0 83.5 46.5
t27.5 150.5q-38 22 -110 22z" />
    <glyph glyph-name="Delta" unicode="&#x2206;" 
d="M554 0h-472v104l124 556h225l123 -558v-102zM332 548h-27l-90 -434h206z" />
    <glyph glyph-name="product" unicode="&#x220f;" 
d="M429 -180v820h-113v-820h-138v820h-53v120h499v-120h-57v-820h-138z" />
    <glyph glyph-name="summation" unicode="&#x2211;" 
d="M96 760h500v-120h-354v-15l215 -281v-93l-215 -296v-15h354v-120h-500v139l238 339l-238 322v140z" />
    <glyph glyph-name="minus" unicode="&#x2212;" 
d="M119 191v120h436v-120h-436z" />
    <glyph glyph-name="radical" unicode="&#x221a;" 
d="M101 320v120h166l92 -456h13l163 807h136l-200 -921h-214l-102 450h-54z" />
    <glyph glyph-name="infinity" unicode="&#x221e;" 
d="M233 121q-139 0 -139 171t137 171q75 0 116 -78q41 78 116 78q137 0 137 -171t-139 -171q-75 0 -114 77q-40 -77 -114 -77zM252 348q-36 0 -36 -56t36 -56q13 0 24 13.5t26 42.5q-28 56 -50 56zM442 236q36 0 36 56t-36 56q-22 0 -50 -56q15 -29 26 -42.5t24 -13.5z" />
    <glyph glyph-name="integral" unicode="&#x222b;" 
d="M416 -16q0 -183 -149 -183q-30 0 -81 10l-16 3l4 110q25 -3 53.5 -3t39.5 14.5t11 51.5v606q0 106 33 147t116 41q33 0 87 -11l18 -3l-4 -110q-32 4 -62 4t-40 -15.5t-10 -53.5v-608z" />
    <glyph glyph-name="approxequal" unicode="&#x2248;" 
d="M439 265q-28 0 -107.5 22t-99 22t-47 -9.5t-44.5 -19.5l-17 -10l-10 107q64 52 124 52q28 0 105 -22t97 -22q38 0 89 29l17 9l9 -107q-20 -20 -54 -35.5t-62 -15.5zM439 45q-28 0 -107.5 22t-99 22t-47 -9.5t-44.5 -19.5l-17 -10l-10 107q64 52 124 52q28 0 105 -22
t97 -22q38 0 89 29l17 9l9 -107q-20 -20 -54 -35.5t-62 -15.5z" />
    <glyph glyph-name="notequal" unicode="&#x2260;" 
d="M116 295v121h228l68 154l104 -41l-50 -113h94v-121h-147l-38 -87h185v-121h-238l-63 -143l-104 41l45 102h-84v121h137l38 87h-175z" />
    <glyph glyph-name="lessequal" unicode="&#x2264;" 
d="M539 386l-272 -49l272 -54v-130l-421 121v116l421 126v-130zM118 19v120h421v-120h-421z" />
    <glyph glyph-name="greaterequal" unicode="&#x2265;" 
d="M402 337l-272 49v130l421 -126v-116l-421 -121v130zM551 139v-120h-421v120h421z" />
    <glyph glyph-name="lozenge" unicode="&#x25ca;" 
d="M268 0l-149 324l149 336h175l148 -336l-148 -324h-175zM364 114l94 210l-94 222h-17l-95 -222l95 -210h17z" />
    <glyph glyph-name="dotlessj" unicode="&#xf6be;" horiz-adv-x="244" 
d="M55 0l115 500h134l-115 -500q-9 -40 -14.5 -60t-17.5 -43.5t-23 -35t-36 -27.5q-34 -24 -126 -64l-42 107q77 40 95.5 58.5t29.5 64.5z" />
    <glyph glyph-name="commaaccent" unicode="&#xf6c3;" horiz-adv-x="161" 
d="M-77 -309l97 237h123l-107 -237h-113z" />
    <glyph glyph-name="questiondown.cap" horiz-adv-x="378" 
d="M44 164q0 68 32 111.5t119 103.5q54 37 62 73l9 40h126q0 -49 -8.5 -94t-93.5 -106q-59 -41 -81.5 -64.5t-22.5 -52t17.5 -38t52.5 -9.5q66 0 126 9l20 3l-14 -105q-90 -27 -160 -27q-184 0 -184 156zM446 700l-38 -168h-136l38 168h136z" />
    <glyph glyph-name="endash.cap" horiz-adv-x="527" 
d="M82 353h500v-114h-500v114z" />
    <glyph glyph-name="emdash.cap" horiz-adv-x="1027" 
d="M82 353h1000v-114h-1000v114z" />
    <glyph glyph-name="periodcentered.cap" horiz-adv-x="152" 
d="M66 247l38 169h135l-38 -169h-135z" />
    <glyph glyph-name="exclamdown.cap" horiz-adv-x="163" 
d="M243 422l-95 -442h-143l112 442h126zM306 680l-35 -153h-136l35 153h136z" />
    <glyph glyph-name="parenleft.cap" horiz-adv-x="234" 
d="M223 337q-24 -95 -24 -166q0 -134 12 -231l4 -33h-128q-29 97 -29 255q0 89 24.5 185t59.5 169q73 157 128 230l24 32h125q-29 -43 -71.5 -124.5t-71.5 -151.5t-53 -165z" />
    <glyph glyph-name="parenright.cap" horiz-adv-x="236" 
d="M172 353q24 95 24 166q0 134 -12 231l-4 33h128q29 -97 29 -255q0 -89 -24.5 -185t-58.5 -169q-74 -157 -128 -230l-25 -32h-125q29 43 71.5 124.5t71.5 151.5t53 165z" />
    <glyph glyph-name="bracketleft.cap" horiz-adv-x="245" 
d="M193 777h229l-28 -114h-88l-149 -641h88l-28 -114h-226z" />
    <glyph glyph-name="bracketright.cap" horiz-adv-x="245" 
d="M210 -92h-229l28 114h88l149 641h-88l28 114h226z" />
    <glyph glyph-name="braceleft.cap" horiz-adv-x="288" 
d="M211 343q61 -34 61 -86q0 -27 -22.5 -103t-22.5 -94q0 -48 58 -48l-31 -115q-73 0 -116 33t-43 92q0 21 21 99.5t21 98.5q0 50 -67 85l24 95q61 16 80.5 33.5t28.5 53.5l29 146q25 84 78 118t155 38l-22 -115q-41 -4 -61 -22t-28 -50l-24 -126q-14 -57 -40.5 -86
t-78.5 -47z" />
    <glyph glyph-name="braceright.cap" horiz-adv-x="287" 
d="M234 340q-61 34 -61 86q0 27 22.5 103t22.5 94q0 48 -58 48l31 115q73 0 116 -33t43 -92q0 -21 -21 -99.5t-21 -98.5q0 -50 67 -85l-24 -95q-61 -16 -80.5 -33.5t-28.5 -53.5l-29 -146q-25 -84 -78 -118t-155 -38l22 115q41 4 61 22t28 50l24 126q14 57 40.5 86t78.5 47z
" />
    </font>
</defs>
</svg>
