<?xml version="1.0" standalone="no"?>
<!DOCTYPE svg PUBLIC "-//W3C//DTD SVG 1.1//EN" "http://www.w3.org/Graphics/SVG/1.1/DTD/svg11.dtd" >
<svg xmlns="http://www.w3.org/2000/svg" xmlns:xlink="http://www.w3.org/1999/xlink" version="1.1">
<metadata>
Created by FontForge 20170731 at Fri May  5 14:19:03 2017
 By Aleksey,,,
Copyright (c) 2009-2011 by Accademia di Belle Arti di Urbino and students of MA course of Visual design. Some rights reserved.
</metadata>
<defs>
<font id="TitilliumWeb-Black" horiz-adv-x="550" >
  <font-face 
    font-family="Titillium Web Black"
    font-weight="900"
    font-stretch="normal"
    units-per-em="1000"
    panose-1="0 0 10 0 0 0 0 0 0 0"
    ascent="800"
    descent="-200"
    x-height="505"
    cap-height="670"
    bbox="-112 -388 1030 1081"
    underline-thickness="127"
    underline-position="-253"
    unicode-range="U+0020-F6C3"
  />
<missing-glyph horiz-adv-x="235" 
 />
    <glyph glyph-name=".notdef" horiz-adv-x="235" 
 />
    <glyph glyph-name=".null" horiz-adv-x="0" 
 />
    <glyph glyph-name="nonmarkingreturn" horiz-adv-x="333" 
 />
    <glyph glyph-name="space" unicode=" " horiz-adv-x="215" 
 />
    <glyph glyph-name="exclam" unicode="!" horiz-adv-x="290" 
d="M31 0v198h228v-198h-228zM38 244l-14 426h242l-14 -426h-214z" />
    <glyph glyph-name="quotedbl" unicode="&#x22;" horiz-adv-x="544" 
d="M45 420l-32 250h239l-31 -250h-176zM323 420l-32 250h239l-31 -250h-176z" />
    <glyph glyph-name="numbersign" unicode="#" 
d="M57 0l3 113h-55l7 177h53l2 80h-55l7 177h52l4 123h176l-4 -123h62l4 123h177l-4 -123h58l-7 -177h-55l-2 -80h56l-4 -177h-57l-3 -113h-177l3 113h-62l-3 -113h-176zM243 370l-2 -80h62l2 80h-62z" />
    <glyph glyph-name="dollar" unicode="$" 
d="M520 468q-138 15 -201 15t-73 -3.5t-10 -14t12 -16.5t66.5 -18t89.5 -22.5t67 -26.5t47 -38q30 -45 30 -131q0 -117 -59.5 -169t-179.5 -56v-73h-62v73q-116 6 -204 28l-31 7l9 173q150 -22 246 -22q29 0 40 5.5t11 16.5t-11.5 15t-63.5 12q-137 22 -186.5 68t-49.5 149
q0 127 59 177t181 52v82h62v-82q89 -4 185 -19l32 -5z" />
    <glyph glyph-name="percent" unicode="%" horiz-adv-x="666" 
d="M228 -59l158 760l44 -9l-159 -759zM49 627.5q32 40.5 113.5 40.5t112 -40t30.5 -138t-31 -138.5t-113 -40.5t-113 40.5t-31 138t32 138zM161 562q-12 0 -15 -11t-3 -53.5t2 -57.5t5 -18.5t13 -3.5t13 11t3 61.5t-3 61t-15 10.5zM393 304.5q32 40.5 113.5 40.5t112 -40
t30.5 -138t-31 -138.5t-113 -40.5t-113 40.5t-31 138t32 138zM505 239q-12 0 -15 -11t-3 -53.5t2 -57.5t5 -18.5t13 -3.5t13 11t3 61.5t-3 61t-15 10.5z" />
    <glyph glyph-name="ampersand" unicode="&#x26;" horiz-adv-x="702" 
d="M337 683q183 0 229 -93q19 -36 19 -98t-26 -94t-119 -56l59 -51q11 21 16 40l182 -7q-25 -97 -58 -156l65 -56l-46 -125l-135 55q-89 -55 -238 -55t-214 44.5t-65 158.5q0 78 27 121t81 66q-27 41 -27 123q0 183 250 183zM304 498q0 -33 25 -58q36 25 36 58
q0 45 -30.5 45t-30.5 -45zM308 168q19 0 35 4l-107 90q-4 -13 -4 -33q0 -61 76 -61z" />
    <glyph glyph-name="quotesingle" unicode="'" horiz-adv-x="266" 
d="M45 420l-32 250h239l-31 -250h-176z" />
    <glyph glyph-name="parenleft" unicode="(" horiz-adv-x="326" 
d="M264 517q-21 -119 -21 -215.5t18.5 -203t37.5 -164.5l19 -59h-203q-63 111 -89 281q-10 72 -10 166.5t25 206.5t49 167l25 54h203q-8 -26 -20.5 -70t-33.5 -163z" />
    <glyph glyph-name="parenright" unicode=")" horiz-adv-x="326" 
d="M62 113q21 119 21 215.5t-18.5 203t-37.5 164.5l-19 59h203q63 -111 89 -281q10 -72 10 -166.5t-25 -206.5t-49 -167l-25 -54h-203q8 26 20.5 70t33.5 163z" />
    <glyph glyph-name="asterisk" unicode="*" horiz-adv-x="415" 
d="M390 469l-101 7l38 -95l-125 -41l-26 98l-78 -65l-78 107l85 54l-86 54l78 108l77 -65l25 99l127 -41l-38 -94l102 8v-134z" />
    <glyph glyph-name="plus" unicode="+" 
d="M44 164v180h141v139h180v-139h141v-180h-141v-141h-180v141h-141z" />
    <glyph glyph-name="comma" unicode="," horiz-adv-x="289" 
d="M13 -103l22 296h242l-79 -296h-185z" />
    <glyph glyph-name="hyphen" unicode="-" horiz-adv-x="356" 
d="M29 161v181h298v-181h-298z" />
    <glyph glyph-name="period" unicode="." horiz-adv-x="282" 
d="M27 0v199h228v-199h-228z" />
    <glyph glyph-name="slash" unicode="/" 
d="M15 -30l303 750l217 -44l-303 -750z" />
    <glyph glyph-name="zero" unicode="0" 
d="M72 591.5q59 80.5 204 80.5t202 -79.5t57 -262t-57.5 -263t-203.5 -80.5t-203.5 80.5t-57.5 262t59 262zM274 484q-11 0 -17 -5t-10 -22q-7 -30 -7 -127.5t6.5 -126t27.5 -28.5t27.5 28.5t6.5 103.5t-1.5 104t-5.5 46t-10 22t-17 5z" />
    <glyph glyph-name="one" unicode="1" 
d="M467 659v-659h-227v416l-138 -55l-60 162l234 136h191z" />
    <glyph glyph-name="two" unicode="2" 
d="M501 0h-458v172l87 84q28 26 54 52l42 42q17 17 31 38t16.5 31.5t2.5 21.5q0 26 -15 33t-53 7q-72 0 -132 -11l-21 -4l-10 171q104 37 217.5 37t178 -51.5t64.5 -143t-30 -143.5t-112 -109l-67 -47h205v-180z" />
    <glyph glyph-name="three" unicode="3" 
d="M225 672q147 0 213.5 -42t66.5 -148q0 -55 -13.5 -84t-47.5 -53q38 -29 54 -57.5t16 -80.5q0 -125 -65 -172.5t-201 -47.5q-83 0 -180 19l-33 7l6 175q115 -10 164 -10t65 5.5t16 24t-11 25.5t-42 10h-141v177h132q54 0 54 30.5t-69 30.5q-47 0 -138 -7l-26 -2l-5 171
q115 29 185 29z" />
    <glyph glyph-name="four" unicode="4" 
d="M289 0v80h-271v162l90 417h262l-129 -391h49l20 113l206 7v-120h25v-188h-25v-80h-227z" />
    <glyph glyph-name="five" unicode="5" 
d="M506 659v-200h-283l-5 -44q43 15 89 15q116 0 170 -47t54 -166q0 -230 -250 -230q-47 0 -113 9.5t-108 19.5l-43 10l17 163q135 -20 225 -20q51 0 51 27.5t-48 27.5q-32 0 -68 -9l-12 -3l-148 18l14 429h458z" />
    <glyph glyph-name="six" unicode="6" 
d="M306 489q-39 0 -56 -17t-20 -51l10 4q35 14 73 14q114 0 168 -54.5t54 -170t-67 -171.5t-184 -56q-138 0 -203 84t-65 252q0 201 82 279q39 38 87 54t98 16q87 0 198 -26l37 -8l-16 -166q-112 17 -196 17zM286 262q-31 0 -57 -12q0 -46 11 -65.5t44 -19.5q47 0 47 48.5
t-45 48.5z" />
    <glyph glyph-name="seven" unicode="7" 
d="M49 449v210h452v-221l-176 -451l-224 46l166 391v25h-218z" />
    <glyph glyph-name="eight" unicode="8" 
d="M274 672q187 0 234 -90q18 -36 18 -94.5t-15.5 -92.5t-60.5 -60q52 -25 69 -57.5t17 -102.5q0 -188 -262 -188t-262 190q0 65 19 97.5t68 61.5q-43 26 -59 59.5t-16 98.5q0 178 250 178zM304.5 165.5q9.5 9.5 9.5 38.5t-26 55h-27q-27 -22 -27 -62.5t40 -40.5
q21 0 30.5 9.5zM248.5 494q-6.5 -11 -6.5 -36t19 -48h27q19 20 19 50q0 45 -34 45q-18 0 -24.5 -11z" />
    <glyph glyph-name="nine" unicode="9" 
d="M243 170q39 0 56 17t20 51l-10 -4q-35 -14 -73 -14q-114 0 -168 54.5t-54 170t67 171.5t184 56q138 0 203 -84t65 -252q0 -201 -81 -279q-40 -38 -88 -54t-98 -16q-87 0 -198 25l-37 9l16 166q112 -17 196 -17zM263 397q31 0 57 12q0 46 -11 65.5t-44 19.5
q-47 0 -47 -48.5t45 -48.5z" />
    <glyph glyph-name="colon" unicode=":" horiz-adv-x="288" 
d="M30 0v199h228v-199h-228zM30 265v199h228v-199h-228z" />
    <glyph glyph-name="semicolon" unicode=";" horiz-adv-x="294" 
d="M13 -103l22 296h242l-79 -296h-185zM38 265v199h228v-199h-228z" />
    <glyph glyph-name="less" unicode="&#x3c;" 
d="M462 293l-239 -32l239 -43v-231l-386 158v221l386 151v-224z" />
    <glyph glyph-name="equal" unicode="=" 
d="M59 282v170h432v-170h-432zM59 57v170h432v-170h-432z" />
    <glyph glyph-name="greater" unicode="&#x3e;" 
d="M326 261l-239 32v224l386 -151v-221l-386 -158v231z" />
    <glyph glyph-name="question" unicode="?" horiz-adv-x="473" 
d="M456 496q0 -74 -18.5 -108.5t-69.5 -70.5q-77 -55 -79 -81l-1 -19h-175q-23 31 -23 73t16.5 65.5t61 56.5t53.5 44t9 30.5t-14 28t-46 8.5q-62 0 -125 -11l-21 -3l-7 157q113 37 223.5 37t163 -47t52.5 -160zM88 0v180h228v-180h-228z" />
    <glyph glyph-name="at" unicode="@" horiz-adv-x="1027" 
d="M1008 315v-17q0 -172 -49 -235t-176.5 -63t-181.5 53q-70 -53 -153 -53q-111 0 -160 58.5t-49 186.5q0 260 184 260q31 0 60.5 -9.5t43.5 -19.5l14 -9v25h224v-192q0 -79 9 -105.5t31.5 -26.5t29 24t6.5 106v18q0 81 -15.5 131t-55 79.5t-96 40t-138.5 10.5t-133 -7
t-96 -27t-71 -55q-56 -75 -56 -227q0 -145 30 -211q18 -37 42 -59t64 -35q67 -23 201 -23l143 10l3 -153q-98 -9 -146 -9q-147 0 -242 26t-151 86.5t-78.5 147.5t-22.5 219.5t33.5 224.5t100.5 145t157 76t213 23q249 0 365 -95.5t116 -318.5zM472.5 193.5
q7.5 -15.5 26.5 -15.5t47 11q-5 34 -5 90v41q-15 4 -35.5 4t-30.5 -14.5t-10 -57.5t7.5 -58.5z" />
    <glyph glyph-name="A" unicode="A" horiz-adv-x="639" 
d="M-5 0l148 670h351l151 -670h-234l-19 77h-153l-16 -77h-228zM307 488l-38 -234h99l-36 234h-25z" />
    <glyph glyph-name="B" unicode="B" horiz-adv-x="607" 
d="M30 670h303q245 0 245 -166q0 -63 -13.5 -97t-55.5 -64q49 -21 67.5 -51.5t18.5 -101.5q0 -190 -258 -190h-307v670zM316 265h-54v-110h54q35 0 47 11.5t12 43t-13 43.5t-46 12zM313 517h-51v-107h52q30 0 42 13t12 41.5t-13 40.5t-42 12z" />
    <glyph glyph-name="C" unicode="C" horiz-adv-x="533" 
d="M519 13q-106 -26 -217 -26t-171 31.5t-86.5 105.5t-26.5 213q0 199 61.5 272.5t234.5 73.5q72 0 170 -20l35 -7l-6 -179q-82 10 -151.5 10t-89.5 -26.5t-20 -109.5t9.5 -115t30.5 -42.5t68 -10.5l156 6z" />
    <glyph glyph-name="D" unicode="D" horiz-adv-x="654" 
d="M323 0h-293v670h283q173 0 249 -78t76 -249.5t-73 -257t-242 -85.5zM385.5 451q-18.5 30 -82.5 30h-41v-292h41q52 0 77 26q24 26 24 116t-18.5 120z" />
    <glyph glyph-name="E" unicode="E" horiz-adv-x="549" 
d="M30 0v670h502v-185h-270v-57h210v-183h-210v-60h270v-185h-502z" />
    <glyph glyph-name="F" unicode="F" horiz-adv-x="521" 
d="M30 0v670h483v-189h-251v-108h191v-189h-191v-184h-232z" />
    <glyph glyph-name="G" unicode="G" horiz-adv-x="619" 
d="M592 394v-374q-181 -29 -268 -29t-148.5 19.5t-96.5 64.5t-48.5 106t-13.5 155q0 193 72 270t243 77q51 0 115 -8.5t102 -16.5l38 -9v-175q-144 13 -204.5 13t-79 -5.5t-29.5 -13t-16 -29.5q-7 -31 -7 -109t18 -113.5t73 -35.5l34 1v50h-30l-1 162h247z" />
    <glyph glyph-name="H" unicode="H" horiz-adv-x="655" 
d="M393 0v234h-131v-234h-232v670h232v-247h131v247h232v-670h-232z" />
    <glyph glyph-name="I" unicode="I" horiz-adv-x="292" 
d="M30 0v670h232v-670h-232z" />
    <glyph glyph-name="J" unicode="J" horiz-adv-x="321" 
d="M294 670v-493q0 -98 -48 -144q-37 -37 -134 -43q-37 -3 -97 -3v191q13 0 19 0.5t12.5 6t8.5 12.5t4 25q3 28 3 100v348h232z" />
    <glyph glyph-name="K" unicode="K" horiz-adv-x="609" 
d="M262 223v-223h-232v670h232v-237h40l75 237h230l-107 -324l117 -346h-233l-81 223h-41z" />
    <glyph glyph-name="L" unicode="L" horiz-adv-x="489" 
d="M480 0h-450v670h232v-481h218v-189z" />
    <glyph glyph-name="M" unicode="M" horiz-adv-x="855" 
d="M30 0v670h345l52 -256l43 256h355v-670h-232v345h-11l-58 -338h-194l-57 338h-11v-345h-232z" />
    <glyph glyph-name="N" unicode="N" horiz-adv-x="688" 
d="M30 0v670h228l154 -254h14v254h232v-670h-229l-152 273h-15v-273h-232z" />
    <glyph glyph-name="O" unicode="O" horiz-adv-x="670" 
d="M266.5 212.5q16.5 -37.5 69 -37.5t68.5 37t16 123.5t-15.5 123t-68.5 36.5t-69.5 -37.5t-16.5 -122.5t16.5 -122.5zM578 69.5q-76 -82.5 -242.5 -82.5t-243 83t-76.5 265.5t76 265t243 82.5t243 -82.5t76 -265.5t-76 -265.5z" />
    <glyph glyph-name="P" unicode="P" horiz-adv-x="612" 
d="M293 142h-31v-142h-232v670h263q159 0 231.5 -55t72.5 -206.5t-73 -209t-231 -57.5zM262 325h21q43 0 61.5 19t18.5 65t-17.5 62t-62.5 16h-21v-162z" />
    <glyph glyph-name="Q" unicode="Q" horiz-adv-x="667" 
d="M332 -13q-167 0 -241.5 81.5t-74.5 266.5t73.5 266.5t242.5 81.5t244 -81.5t75 -277.5t-96 -276l80 -119l-176 -87l-98 146q-9 -1 -29 -1zM262.5 213.5q18.5 -38.5 70 -38.5t68 38t16.5 122.5t-16.5 122t-68 37.5t-70 -38.5t-18.5 -121.5t18.5 -121.5z" />
    <glyph glyph-name="R" unicode="R" horiz-adv-x="617" 
d="M319 173h-57v-173h-232v670h282q155 0 222 -51.5t67 -191t-74 -199.5l66 -228h-236zM318 356q49 0 49 65.5t-55 65.5h-51v-131h57z" />
    <glyph glyph-name="S" unicode="S" horiz-adv-x="578" 
d="M540 477q-141 15 -205 15t-74.5 -3.5t-10.5 -14.5t12 -17t75.5 -20t104 -27.5t73 -38t43 -60t10.5 -95.5q0 -124 -66 -177t-199 -53q-64 0 -134.5 9t-108.5 18l-39 9l10 177q153 -22 251 -22q52 0 52 23q0 10 -12 14.5t-65 12.5q-140 22 -190.5 68.5t-50.5 152.5
q0 135 65 185t200 50q95 0 223 -19l42 -7z" />
    <glyph glyph-name="T" unicode="T" horiz-adv-x="519" 
d="M9 481v189h500v-189h-130v-481h-232v481h-138z" />
    <glyph glyph-name="U" unicode="U" horiz-adv-x="641" 
d="M258 670v-439q0 -29 14.5 -41t48.5 -12t48 12t14 41v439h232v-426q0 -142 -71 -199.5t-223.5 -57.5t-223.5 56t-71 197v430h232z" />
    <glyph glyph-name="V" unicode="V" horiz-adv-x="598" 
d="M602 670l-131 -670h-342l-136 670h246l52 -436h18l47 436h246z" />
    <glyph glyph-name="W" unicode="W" horiz-adv-x="915" 
d="M85 0l-79 670h231l32 -436h18l45 426h253l50 -426h18l20 436h233l-74 -670h-339l-33 412l-10 1l-34 -413h-331z" />
    <glyph glyph-name="X" unicode="X" horiz-adv-x="583" 
d="M228 670l61 -184l78 184h228l-145 -319l136 -351h-238l-59 178l-61 -178h-236l143 321l-143 349h236z" />
    <glyph glyph-name="Y" unicode="Y" horiz-adv-x="590" 
d="M410 0h-232v210l-191 460h246l63 -197l65 197h245l-196 -460v-210z" />
    <glyph glyph-name="Z" unicode="Z" horiz-adv-x="569" 
d="M19 481v189h530v-189l-217 -275v-17h217v-189h-530v180l222 284v17h-222z" />
    <glyph glyph-name="bracketleft" unicode="[" horiz-adv-x="341" 
d="M322 749v-181h-64v-510h64v-181h-289v872h289z" />
    <glyph glyph-name="backslash" unicode="\" 
d="M232 720l303 -750l-217 -44l-303 750z" />
    <glyph glyph-name="bracketright" unicode="]" horiz-adv-x="339" 
d="M17 568v181h289v-872h-289v181h64v510h-64z" />
    <glyph glyph-name="asciicircum" unicode="^" horiz-adv-x="633" 
d="M378 313l-59 217l-63 -217h-210l144 357h254l144 -357h-210z" />
    <glyph glyph-name="underscore" unicode="_" horiz-adv-x="600" 
d="M40 -185v127h520v-127h-520z" />
    <glyph glyph-name="grave" unicode="`" horiz-adv-x="423" 
d="M78 723h237l43 -166h-171z" />
    <glyph glyph-name="a" unicode="a" horiz-adv-x="557" 
d="M518 342v-190q9 -7 24 -11l-3 -142q-78 -12 -107 -12t-53 8.5t-32 17.5l-8 9q-62 -35 -150.5 -35t-133.5 40.5t-45 130.5t51 120.5t161 34.5l72 3v9q0 19 -42 19q-91 0 -182 -10l-33 -3l-5 152q132 35 241 35q114 0 177 -34q68 -36 68 -142zM256 141q19 0 38 15v37
l-34 -2q-26 -2 -26 -26t22 -24z" />
    <glyph glyph-name="b" unicode="b" horiz-adv-x="569" 
d="M355 518q198 0 198 -257q0 -154 -59 -214t-215 -60q-64 0 -207 17l-45 6v680h224v-188q66 16 104 16zM283 168q44 0 44 88q0 47 -10 64t-34 17l-32 -7v-159q13 -3 32 -3z" />
    <glyph glyph-name="c" unicode="c" horiz-adv-x="465" 
d="M266 518q69 0 153 -20l28 -6l-7 -177q-103 8 -138 8t-47.5 -15.5t-12.5 -55t12.5 -54.5t44.5 -15l143 7l7 -175q-96 -28 -183 -28q-144 0 -197 59.5t-53 208t57 206t193 57.5z" />
    <glyph glyph-name="d" unicode="d" horiz-adv-x="570" 
d="M542 690v-690h-221l-2 22q-55 -35 -105 -35q-110 0 -154 67.5t-44 197.5q0 266 221 266l81 -6v178h224zM286 337q-27 0 -35.5 -22t-8.5 -62.5t9 -62.5t36 -22l31 3v163q-22 3 -32 3z" />
    <glyph glyph-name="e" unicode="e" horiz-adv-x="552" 
d="M239 187q1 -35 45 -35q100 0 200 6l39 3l5 -145q-133 -29 -264.5 -29t-190 60.5t-58.5 196t63 205t196.5 69.5t198.5 -57t65 -175l-10 -99h-289zM314 309q0 29 -8.5 41t-29.5 12t-29 -12t-9 -41h76z" />
    <glyph glyph-name="f" unicode="f" horiz-adv-x="358" 
d="M269 324v-324h-224v324h-27v181h27v4q0 108 36 151t136 43q49 0 115 -10l19 -3v-162q-82 0 -82 -13v-10h80v-181h-80z" />
    <glyph glyph-name="g" unicode="g" horiz-adv-x="562" 
d="M92 -196q-80 26 -80 115q0 36 14 64t50 56q-36 25 -36 75q0 11 14.5 29.5t29.5 30.5l14 13q-81 38 -81 144t57.5 146.5t190.5 40.5q33 0 87 -8l16 -3l185 3v-131h-47q9 -25 9 -41q0 -108 -55 -144.5t-187 -36.5q-20 0 -38 3q-4 -6 -4 -12q0 -10 118 -10t159.5 -35
t41.5 -127.5t-68 -144t-194 -51.5t-196 24zM195 -53q0 -13 76 -13t76 16q0 10 -13 12.5t-53 2.5l-77 4q-9 -5 -9 -22zM266 303q21 0 30 8t9 28t-9 28t-30 8t-30 -8t-9 -28t9 -28t30 -8z" />
    <glyph glyph-name="h" unicode="h" horiz-adv-x="578" 
d="M252 0h-224v690h224v-189q70 17 107 17q109 0 152.5 -57t43.5 -200v-261h-224v238q0 87 -38 87l-41 -6v-319z" />
    <glyph glyph-name="i" unicode="i" horiz-adv-x="280" 
d="M28 0v505h224v-505h-224zM27 537v153h226v-153h-226z" />
    <glyph glyph-name="j" unicode="j" horiz-adv-x="280" 
d="M27 538v152h226v-152h-226zM28 66v439h224v-432q0 -105 -15.5 -143t-30 -56t-45.5 -36q-48 -26 -150 -58l-72 170q62 29 75.5 46t13.5 70z" />
    <glyph glyph-name="k" unicode="k" horiz-adv-x="553" 
d="M252 0h-224v690h224v-347h29l45 162h221l-72 -244l78 -261h-224l-47 148h-30v-148z" />
    <glyph glyph-name="l" unicode="l" horiz-adv-x="280" 
d="M28 0v690h224v-690h-224z" />
    <glyph glyph-name="m" unicode="m" horiz-adv-x="861" 
d="M252 0h-224v505h223v-26q66 39 129.5 39t104.5 -45q71 45 150 45q117 0 160 -62.5t43 -200.5v-255h-224v228q0 97 -33 97l-43 -6q7 -21 7 -87v-232h-224v228q0 97 -32 97l-37 -5v-320z" />
    <glyph glyph-name="n" unicode="n" horiz-adv-x="578" 
d="M252 0h-224v505h223v-26q63 39 110 39q108 0 151 -58.5t43 -206.5v-253h-224v238q0 87 -36 87l-43 -7v-318z" />
    <glyph glyph-name="o" unicode="o" horiz-adv-x="564" 
d="M282 518q134 0 200.5 -62.5t66.5 -203.5t-66.5 -203t-200.5 -62t-200.5 62t-66.5 203t66.5 203.5t200.5 62.5zM282 168q23 0 32 18t9 66.5t-9 66.5t-32 18t-32 -18t-9 -66.5t9 -66.5t32 -18z" />
    <glyph glyph-name="p" unicode="p" horiz-adv-x="570" 
d="M356 518q106 0 152 -68t46 -202.5t-50.5 -197.5t-169.5 -63q-24 0 -68 10l-14 3v-195h-224v700h221l2 -26q49 39 105 39zM284 168q44 0 44 88q0 47 -10 64t-34 17l-32 -7v-159q13 -3 32 -3z" />
    <glyph glyph-name="q" unicode="q" horiz-adv-x="570" 
d="M214 -13q-198 0 -198 258q0 150 64.5 212t209.5 62q61 0 207 -13l45 -4v-696h-224v198q-66 -17 -104 -17zM286 338q-44 0 -44 -88q0 -47 10 -64t34 -17l32 6v160q-13 3 -32 3z" />
    <glyph glyph-name="r" unicode="r" horiz-adv-x="368" 
d="M252 0h-224v505h224v-47q63 60 106 60v-208q-34 0 -88 -27l-18 -9v-274z" />
    <glyph glyph-name="s" unicode="s" horiz-adv-x="489" 
d="M457 335q-124 14 -169 14t-45 -8q0 -6 78.5 -14.5t114.5 -45t36 -124.5t-54.5 -129t-167.5 -41q-63 0 -120 6.5t-82 13.5l-26 7l5 151q124 -17 172.5 -17t48.5 9q0 5 -79 15.5t-114.5 47t-35.5 114.5q0 102 58.5 143t165.5 41q114 0 195 -20l27 -6z" />
    <glyph glyph-name="t" unicode="t" horiz-adv-x="371" 
d="M273 324v-104q0 -25 6.5 -33.5t26.5 -8.5l45 1l3 -174q-86 -18 -132 -18q-93 0 -133 38.5t-40 142.5v156h-39v181h39v100h224v-100h81v-181h-81z" />
    <glyph glyph-name="u" unicode="u" horiz-adv-x="577" 
d="M325 505h224v-505h-222v24q-64 -37 -114 -37q-106 0 -148 61.5t-42 195.5v261h224v-246q0 -45 8 -62t26 -17l44 6v319z" />
    <glyph glyph-name="v" unicode="v" horiz-adv-x="547" 
d="M1 505h238l36 -318h13l34 318h224l-85 -505h-375z" />
    <glyph glyph-name="w" unicode="w" horiz-adv-x="792" 
d="M10 505h247l10 -318h12l23 305h203l32 -305h12l11 318h221l-51 -505h-319l-17 218l-19 -218h-305z" />
    <glyph glyph-name="x" unicode="x" horiz-adv-x="538" 
d="M98 250l-99 255h240l40 -142l40 142h220l-89 -251l86 -254h-242l-40 127l-33 -127h-222z" />
    <glyph glyph-name="y" unicode="y" horiz-adv-x="546" 
d="M86 0l-85 505h238l36 -318h14l32 318h225l-119 -700h-246l63 195h-158z" />
    <glyph glyph-name="z" unicode="z" horiz-adv-x="500" 
d="M24 310v195h451v-173l-153 -137h156v-195h-454v183l148 127h-148z" />
    <glyph glyph-name="braceleft" unicode="{" horiz-adv-x="361" 
d="M273 518l3 -81q0 -51 -11.5 -74.5t-44.5 -41.5q32 -18 44 -41.5t12 -68.5l-3 -98q0 -38 13 -50.5t58 -16.5v-180q-117 0 -169.5 13t-76.5 31q-52 42 -52 128q0 21 6.5 81t6.5 71q0 31 -44 40v169q44 8 44 34l-13 153q0 82 38 118q42 38 104 48q65 9 156 9v-180
q-46 -4 -58.5 -15t-12.5 -48z" />
    <glyph glyph-name="bar" unicode="|" horiz-adv-x="286" 
d="M34 -220v923h218v-923h-218z" />
    <glyph glyph-name="braceright" unicode="}" horiz-adv-x="359" 
d="M86 105l-3 81q0 52 11.5 75t44.5 41q-32 18 -44 41.5t-12 68.5l3 98q0 38 -13 50.5t-58 16.5v180q117 0 169.5 -13t75.5 -32q53 -41 53 -127q0 -21 -6.5 -81t-6.5 -71q0 -31 44 -40v-169q-44 -8 -44 -34l13 -153q0 -82 -38 -117q-42 -39 -105 -48q-64 -10 -155 -10v180
q46 4 58.5 15t12.5 48z" />
    <glyph glyph-name="asciitilde" unicode="~" 
d="M372 136q-29 0 -102 22t-92 22t-46.5 -10t-43.5 -20l-17 -10l-10 172q21 21 58 37t66 16t98.5 -22t90.5 -22q39 0 88 29l17 10l8 -171q-17 -20 -51.5 -36.5t-63.5 -16.5z" />
    <glyph glyph-name="uni00A0" unicode="&#xa0;" horiz-adv-x="215" 
 />
    <glyph glyph-name="exclamdown" unicode="&#xa1;" horiz-adv-x="290" 
d="M259 505v-198h-228v198h228zM252 261l14 -426h-242l14 426h214z" />
    <glyph glyph-name="cent" unicode="&#xa2;" 
d="M248 -86v128q-115 3 -161 51.5t-46 162t49 160.5t158 50v125h60v-126q87 -2 168 -15l24 -4l-6 -150q-102 4 -183 4q-27 0 -37.5 -11t-10.5 -35.5t10.5 -35t37.5 -10.5l185 4l6 -148q-83 -17 -194 -21v-129h-60z" />
    <glyph glyph-name="sterling" unicode="&#xa3;" 
d="M95 183v143h-62v60h62v41q0 75 12 122.5t40.5 74t69 36.5t89.5 10q90 0 164 -16l27 -5l-6 -166q-71 4 -114.5 4t-62 -15.5t-18.5 -57.5v-28h137v-60h-137v-143h93l118 15l18 -182l-121 -16h-371v183h62z" />
    <glyph glyph-name="currency" unicode="&#xa4;" 
d="M138 438q58 45 134.5 45t136.5 -48l59 60l43 -43l-60 -59q45 -59 45 -134t-45 -134l60 -59l-43 -43l-59 59q-60 -47 -136.5 -47t-134.5 44l-56 -56l-43 43l56 55q-47 60 -47 137.5t47 137.5l-56 56l43 43zM271 168q39 0 65.5 26t26.5 65t-27 64q-26 27 -65 27t-64 -27
q-26 -25 -26 -64t25.5 -65t64.5 -26z" />
    <glyph glyph-name="yen" unicode="&#xa5;" horiz-adv-x="581" 
d="M48 299v60h80l-112 298h236l37 -207l41 207h236l-118 -298h80v-60h-104l-24 -62v-30h128v-60h-128v-147h-226v147h-126v60h126v30l-24 62h-102z" />
    <glyph glyph-name="brokenbar" unicode="&#xa6;" horiz-adv-x="284" 
d="M33 703h218v-395h-218v395zM33 170h218v-390h-218v390z" />
    <glyph glyph-name="section" unicode="&#xa7;" horiz-adv-x="595" 
d="M546 469q-170 20 -215.5 20t-60 -5.5t-14.5 -20t18 -22.5t84 -21q125 -25 170 -57t45 -115.5t-45 -126.5q20 -23 27.5 -44t7.5 -66q0 -206 -247 -206q-60 0 -130 12.5t-110 25.5l-39 13l17 160q8 -3 102.5 -17t129.5 -14q54 0 54 28q0 13 -22 20.5t-118.5 26.5t-137 53
t-40.5 104.5t43 122.5q-29 33 -32 70q-1 13 -1 39q0 124 65.5 172.5t183.5 48.5q48 0 116 -10t111 -20l44 -11zM253 280q-11 -18 -11 -33t7.5 -20t53.5 -19t50 -16q9 19 9 41t-61 34q-36 8 -48 13z" />
    <glyph glyph-name="dieresis" unicode="&#xa8;" horiz-adv-x="418" 
d="M234 559v154h164v-154h-164zM24 559v154h164v-154h-164z" />
    <glyph glyph-name="copyright" unicode="&#xa9;" horiz-adv-x="597" 
d="M101.5 232q-78.5 82 -78.5 203.5t78 202t199.5 80.5t197.5 -82t76 -203.5t-76 -202t-197 -80.5t-199.5 82zM85 434q0 -93 61 -158.5t152.5 -65.5t152.5 65t61 158t-61.5 159t-152.5 66t-152 -65.5t-61 -158.5zM208.5 305q-29.5 36 -29.5 130t30.5 128.5t101.5 34.5
q28 0 58 -8l22 -7l-7 -86l-22 3q-39 3 -45 3q-20 0 -27.5 -13.5t-7.5 -50.5q0 -75 35 -75q19 0 45 2l22 3l7 -82l-21 -9q-27 -9 -63 -9q-69 0 -98.5 36z" />
    <glyph glyph-name="ordfeminine" unicode="&#xaa;" horiz-adv-x="351" 
d="M274 379q-37 0 -67 19q-36 -19 -81 -19q-110 0 -110 92q0 49 31.5 65.5t93.5 18.5l47 2v5q0 10 -24 10l-133 -7l-2 82q71 19 145 19t109 -22t35 -73v-103q4 -3 16 -5l-2 -78q-44 -6 -58 -6zM147 474q0 -11 15.5 -11t25.5 8v20l-18 -1q-23 -1 -23 -16z" />
    <glyph glyph-name="guillemotleft" unicode="&#xab;" horiz-adv-x="624" 
d="M335 422l-114 -169l114 -169l-162 -74l-159 230v21l161 235zM605 422l-114 -169l114 -169l-162 -74l-159 230v21l161 235z" />
    <glyph glyph-name="logicalnot" unicode="&#xac;" 
d="M537 543v-312h-151v161h-385v151h536z" />
    <glyph glyph-name="registered" unicode="&#xae;" horiz-adv-x="597" 
d="M101.5 231.5q-78.5 81.5 -78.5 203.5t78 202.5t199 80.5t197.5 -82.5t76.5 -203.5t-76 -201.5t-197 -80.5t-199.5 81.5zM85 434q0 -92 62 -158t152.5 -66t151.5 65t61 158t-61.5 159t-151.5 66t-152 -66t-62 -158zM274 276h-96v315h136q52 0 83 -25.5t31 -72t-8 -68
t-30 -39.5l41 -110h-100l-28 93h-29v-93zM273 519v-79h28q34 0 34 39.5t-35 39.5h-27z" />
    <glyph glyph-name="macron" unicode="&#xaf;" horiz-adv-x="443" 
d="M60 563v144h327v-144h-327z" />
    <glyph glyph-name="degree" unicode="&#xb0;" 
d="M125 540q0 67 41.5 108.5t108.5 41.5t108.5 -41.5t41.5 -108.5t-41.5 -108t-108.5 -41t-108.5 41t-41.5 108zM249.5 567q-9.5 -10 -9.5 -26.5t9.5 -26.5t25.5 -10t26.5 10t10.5 26t-10 26.5t-26.5 10.5t-26 -10z" />
    <glyph glyph-name="plusminus" unicode="&#xb1;" 
d="M44 251v170h141v84h180v-84h141v-170h-141v-71h-180v71h-141zM44 170h462v-170h-462v170z" />
    <glyph glyph-name="twosuperior" unicode="&#xb2;" horiz-adv-x="350" 
d="M301 273h-258v112l55 50q12 12 29.5 28t25 23t15.5 17q14 17 14 34q0 23 -46 23l-85 -5l-6 103q66 16 131 16q132 0 132 -119q0 -27 -4 -37l-5 -17q-2 -6 -8.5 -15t-9.5 -13.5t-13 -14.5l-16 -16q-25 -25 -39 -37l-20 -15h108v-117z" />
    <glyph glyph-name="threesuperior" unicode="&#xb3;" horiz-adv-x="350" 
d="M148 422h-82v102h77q31 0 31 18t-40 18l-95 -5l-3 99q75 16 115 16q86 0 124.5 -24t38.5 -86q0 -31 -8 -48t-28 -31q22 -17 31.5 -33.5t9.5 -46.5q0 -72 -37.5 -100t-116.5 -28q-48 0 -111 12l-21 4l3 101q67 -6 92 -6t32 1q19 2 19 18.5t-31 18.5z" />
    <glyph glyph-name="acute" unicode="&#xb4;" horiz-adv-x="833" 
d="M219 723h237l-109 -166h-171z" />
    <glyph glyph-name="mu" unicode="&#xb5;" 
d="M315 505h224v-505h-222l-1 22q-29 -19 -71 -22v-248h-224v753h224v-246q0 -46 5.5 -62.5t20.5 -16.5l44 6v319z" />
    <glyph glyph-name="paragraph" unicode="&#xb6;" horiz-adv-x="578" 
d="M557 511h-70v-511h-228v210h-7q-99 0 -167.5 71t-68.5 173t69.5 174t168.5 72h303v-189z" />
    <glyph glyph-name="periodcentered" unicode="&#xb7;" horiz-adv-x="265" 
d="M30 149v200h205v-200h-205z" />
    <glyph glyph-name="cedilla" unicode="&#xb8;" horiz-adv-x="833" 
d="M584.5 -51.5q29.5 -17.5 29.5 -72.5t-31.5 -81t-95.5 -26q-65 0 -110 8l-17 3l4 78q31 -1 48 -1q38 0 38 22q0 12 -8 16t-30 4h-9v112h73v-44q79 -1 108.5 -18.5z" />
    <glyph glyph-name="onesuperior" unicode="&#xb9;" horiz-adv-x="350" 
d="M297 670v-397h-157v221l-83 -34l-36 128l141 82h135z" />
    <glyph glyph-name="ordmasculine" unicode="&#xba;" horiz-adv-x="353" 
d="M177 666q86 0 123.5 -33t37.5 -110.5t-37.5 -110.5t-123.5 -33t-124 33t-38 110.5t38 110.5t124 33zM177 479q16 0 23 10t7 34t-7 33.5t-23.5 9.5t-23.5 -9.5t-7 -33.5q0 -44 31 -44z" />
    <glyph glyph-name="guillemotright" unicode="&#xbb;" horiz-adv-x="624" 
d="M19 84l114 169l-114 169l162 74l159 -230v-21l-161 -235zM289 84l114 169l-114 169l162 74l159 -230v-21l-161 -235z" />
    <glyph glyph-name="onequarter" unicode="&#xbc;" horiz-adv-x="968" 
d="M297 670v-397h-157v221l-83 -34l-36 128l141 82h135zM258 5l303 750l147 -64l-303 -750zM760 0v48h-163v98l54 251h158l-78 -236h29v55l147 18v-73h15v-113h-15v-48h-147z" />
    <glyph glyph-name="onehalf" unicode="&#xbd;" horiz-adv-x="959" 
d="M258 5l303 750l147 -64l-303 -750zM297 670v-397h-157v221l-83 -34l-36 128l141 82h135zM903 0h-258v112l55 50q12 12 29.5 28t25 23t15.5 17q14 18 14 34q0 23 -46 23l-85 -5l-6 103q66 16 131 16q132 0 132 -119q0 -27 -4 -38l-5 -16q-2 -6 -8.5 -15t-9.5 -13.5
t-13 -15.5l-16 -14q-25 -26 -39 -38l-20 -15h108v-117z" />
    <glyph glyph-name="threequarters" unicode="&#xbe;" horiz-adv-x="1650" 
d="M760 0v48h-163v98l54 251h158l-78 -236h29v55l147 18v-73h15v-113h-15v-48h-147zM258 5l303 750l147 -64l-303 -750zM158 422h-82v102h77q31 0 31 18t-40 18l-95 -5l-3 99q75 16 115 16q86 0 124.5 -24t38.5 -86q0 -31 -8 -48t-28 -31q22 -17 31.5 -33.5t9.5 -46.5
q0 -72 -37.5 -100t-116.5 -28q-48 0 -111 12l-21 4l3 101q67 -6 92 -6t32 1q19 2 19 18.5t-31 18.5z" />
    <glyph glyph-name="questiondown" unicode="&#xbf;" horiz-adv-x="471" 
d="M16 9q0 74 18.5 108.5t69.5 70.5q77 55 79 81l1 19h175q23 -31 23 -73t-16.5 -65.5t-61 -56.5t-53.5 -44t-9 -30.5t14 -28t46 -8.5q62 0 125 10l21 4l7 -157q-113 -37 -223.5 -37t-163 47t-52.5 160zM384 505v-180h-228v180h228z" />
    <glyph glyph-name="Agrave" unicode="&#xc0;" horiz-adv-x="639" 
d="M147 849h242l34 -136h-172zM-5 0l148 670h351l151 -670h-234l-19 77h-153l-16 -77h-228zM307 488l-38 -234h99l-36 234h-25z" />
    <glyph glyph-name="Aacute" unicode="&#xc1;" horiz-adv-x="639" 
d="M-5 0l148 670h351l151 -670h-234l-19 77h-153l-16 -77h-228zM307 488l-38 -234h99l-36 234h-25zM227 849h242l-109 -136h-176z" />
    <glyph glyph-name="Acircumflex" unicode="&#xc2;" horiz-adv-x="639" 
d="M-5 0l148 670h351l151 -670h-234l-19 77h-153l-16 -77h-228zM307 488l-38 -234h99l-36 234h-25zM138 713l101 136h152l112 -136h-169l-15 62l-12 -62h-169z" />
    <glyph glyph-name="Atilde" unicode="&#xc3;" horiz-adv-x="639" 
d="M-5 0l148 670h351l151 -670h-234l-19 77h-153l-16 -77h-228zM307 488l-38 -234h99l-36 234h-25zM447 728q-28 -16 -54 -16t-79.5 17t-66.5 17q-27 0 -67 -18l-14 -7l-29 106q17 20 50 39.5t62.5 19.5t80.5 -16t62 -16q20 0 66 18l15 5l29 -107q-6 -6 -16.5 -16t-38.5 -26
z" />
    <glyph glyph-name="Adieresis" unicode="&#xc4;" horiz-adv-x="639" 
d="M-5 0l148 670h351l151 -670h-234l-19 77h-153l-16 -77h-228zM307 488l-38 -234h99l-36 234h-25zM343 713v144h161v-144h-161zM136 713v144h161v-144h-161z" />
    <glyph glyph-name="Aring" unicode="&#xc5;" horiz-adv-x="639" 
d="M183 722q0 96 137 96q62 0 99.5 -23.5t37.5 -72.5q0 -30 -16 -52h53l151 -670h-234l-19 77h-153l-16 -77h-228l148 670h55q-15 19 -15 52zM307 488l-38 -234h99l-36 234h-25zM290 721.5q0 -21.5 30.5 -21.5t30.5 21.5t-30.5 21.5t-30.5 -21.5z" />
    <glyph glyph-name="AE" unicode="&#xc6;" horiz-adv-x="882" 
d="M366 0v77h-127l-16 -77h-228l148 670h722v-185h-273v-60h213v-177h-213v-63h273v-185h-499zM366 256v229h-59l-37 -229h96z" />
    <glyph glyph-name="Ccedilla" unicode="&#xc7;" horiz-adv-x="533" 
d="M438.5 -40.5q29.5 -17.5 29.5 -72.5t-31.5 -81t-95.5 -26q-52 0 -110 8l-17 3l4 78q31 -1 48 -1q38 0 38 22q0 12 -8 16t-30 4h-9v79q-137 8 -188 83t-51 269.5t61.5 268t234.5 73.5q72 0 170 -20l35 -7l-6 -179q-82 10 -151.5 10t-89.5 -26.5t-20 -109.5t9.5 -115
t30.5 -42.5t68 -10.5l156 6l3 -176q-90 -22 -189 -25v-10q79 -1 108.5 -18.5z" />
    <glyph glyph-name="Egrave" unicode="&#xc8;" horiz-adv-x="549" 
d="M30 0v670h502v-185h-270v-57h210v-183h-210v-60h270v-185h-502zM113 849h242l34 -136h-172z" />
    <glyph glyph-name="Eacute" unicode="&#xc9;" horiz-adv-x="549" 
d="M30 0v670h502v-185h-270v-57h210v-183h-210v-60h270v-185h-502zM188 849h242l-109 -136h-176z" />
    <glyph glyph-name="Ecircumflex" unicode="&#xca;" horiz-adv-x="549" 
d="M30 0v670h502v-185h-270v-57h210v-183h-210v-60h270v-185h-502zM94 713l101 136h152l112 -136h-169l-15 62l-12 -62h-169z" />
    <glyph glyph-name="Edieresis" unicode="&#xcb;" horiz-adv-x="549" 
d="M30 0v670h502v-185h-270v-57h210v-183h-210v-60h270v-185h-502zM304 713v144h161v-144h-161zM97 713v144h161v-144h-161z" />
    <glyph glyph-name="Igrave" unicode="&#xcc;" horiz-adv-x="286" 
d="M30 0v670h226v-670h-226zM-30 849h242l34 -136h-172z" />
    <glyph glyph-name="Iacute" unicode="&#xcd;" horiz-adv-x="292" 
d="M30 0v670h232v-670h-232zM83 849h242l-109 -136h-176z" />
    <glyph glyph-name="Icircumflex" unicode="&#xce;" horiz-adv-x="286" 
d="M30 0v670h226v-670h-226zM-39 713l101 136h152l112 -136h-169l-15 62l-12 -62h-169z" />
    <glyph glyph-name="Idieresis" unicode="&#xcf;" horiz-adv-x="292" 
d="M30 0v670h232v-670h-232zM169 713v144h161v-144h-161zM-38 713v144h161v-144h-161z" />
    <glyph glyph-name="Eth" unicode="&#xd0;" horiz-adv-x="661" 
d="M-1 270v137h38v263h283q173 0 249 -78t76 -249.5t-73 -257t-242 -85.5h-293v270h-38zM392.5 451q-18.5 30 -82.5 30h-41v-74h55v-137h-55v-81h41q52 0 76 26q25 26 25 116t-18.5 120z" />
    <glyph glyph-name="Ntilde" unicode="&#xd1;" horiz-adv-x="688" 
d="M30 0v670h228l154 -254h14v254h232v-670h-229l-152 273h-15v-273h-232zM471 728q-28 -16 -54 -16t-79.5 17t-66.5 17q-27 0 -67 -18l-14 -7l-29 106q17 20 50 39.5t62.5 19.5t80.5 -16t62 -16q20 0 66 18l15 5l29 -107q-6 -6 -16.5 -16t-38.5 -26z" />
    <glyph glyph-name="Ograve" unicode="&#xd2;" horiz-adv-x="670" 
d="M266.5 212.5q16.5 -37.5 69 -37.5t68.5 37t16 123.5t-15.5 123t-68.5 36.5t-69.5 -37.5t-16.5 -122.5t16.5 -122.5zM578 69.5q-76 -82.5 -242.5 -82.5t-243 83t-76.5 265.5t76 265t243 82.5t243 -82.5t76 -265.5t-76 -265.5zM157 849h242l34 -136h-172z" />
    <glyph glyph-name="Oacute" unicode="&#xd3;" horiz-adv-x="670" 
d="M266.5 212.5q16.5 -37.5 69 -37.5t68.5 37t16 123.5t-15.5 123t-68.5 36.5t-69.5 -37.5t-16.5 -122.5t16.5 -122.5zM578 69.5q-76 -82.5 -242.5 -82.5t-243 83t-76.5 265.5t76 265t243 82.5t243 -82.5t76 -265.5t-76 -265.5zM246 849h242l-109 -136h-176z" />
    <glyph glyph-name="Ocircumflex" unicode="&#xd4;" horiz-adv-x="670" 
d="M266.5 212.5q16.5 -37.5 69 -37.5t68.5 37t16 123.5t-15.5 123t-68.5 36.5t-69.5 -37.5t-16.5 -122.5t16.5 -122.5zM578 69.5q-76 -82.5 -242.5 -82.5t-243 83t-76.5 265.5t76 265t243 82.5t243 -82.5t76 -265.5t-76 -265.5zM153 713l101 136h152l112 -136h-169l-15 62
l-12 -62h-169z" />
    <glyph glyph-name="Otilde" unicode="&#xd5;" horiz-adv-x="670" 
d="M266.5 212.5q16.5 -37.5 69 -37.5t68.5 37t16 123.5t-15.5 123t-68.5 36.5t-69.5 -37.5t-16.5 -122.5t16.5 -122.5zM578 69.5q-76 -82.5 -242.5 -82.5t-243 83t-76.5 265.5t76 265t243 82.5t243 -82.5t76 -265.5t-76 -265.5zM463 728q-28 -16 -54 -16t-79.5 17t-66.5 17
q-27 0 -67 -18l-14 -7l-29 106q17 20 50 39.5t62.5 19.5t80.5 -16t62 -16q20 0 66 18l15 5l29 -107q-6 -6 -16.5 -16t-38.5 -26z" />
    <glyph glyph-name="Odieresis" unicode="&#xd6;" horiz-adv-x="670" 
d="M266.5 212.5q16.5 -37.5 69 -37.5t68.5 37t16 123.5t-15.5 123t-68.5 36.5t-69.5 -37.5t-16.5 -122.5t16.5 -122.5zM578 69.5q-76 -82.5 -242.5 -82.5t-243 83t-76.5 265.5t76 265t243 82.5t243 -82.5t76 -265.5t-76 -265.5zM358 713v144h161v-144h-161zM151 713v144h161
v-144h-161z" />
    <glyph glyph-name="multiply" unicode="&#xd7;" 
d="M148 503l126 -127l127 127l124 -123l-127 -127l127 -127l-123 -123l-128 126l-126 -126l-123 122l126 128l-126 128z" />
    <glyph glyph-name="Oslash" unicode="&#xd8;" horiz-adv-x="670" 
d="M83 -10q3 9 26 63q-93 83 -93 274t76 273.5t243 82.5l28 -1l18 42l217 -44l-29 -71q85 -82 85 -269.5t-76 -270t-243 -82.5h-19l-16 -41zM266.5 212.5q16.5 -37.5 69 -37.5t68.5 37t16 123.5t-15.5 123t-68.5 36.5t-69.5 -37.5t-16.5 -122.5t16.5 -122.5z" />
    <glyph glyph-name="Ugrave" unicode="&#xd9;" horiz-adv-x="634" 
d="M252 670v-439q0 -29 14.5 -41t50.5 -12t50.5 12t14.5 41v439h226v-426q0 -141 -70 -199t-221 -58t-221 56t-70 197v430h226zM170 849h242l34 -136h-172z" />
    <glyph glyph-name="Uacute" unicode="&#xda;" horiz-adv-x="641" 
d="M258 670v-439q0 -29 14.5 -41t48.5 -12t48 12t14 41v439h232v-426q0 -142 -71 -199.5t-223.5 -57.5t-223.5 56t-71 197v430h232zM229 849h242l-109 -136h-176z" />
    <glyph glyph-name="Ucircumflex" unicode="&#xdb;" horiz-adv-x="634" 
d="M252 670v-439q0 -29 14.5 -41t50.5 -12t50.5 12t14.5 41v439h226v-426q0 -141 -70 -199t-221 -58t-221 56t-70 197v430h226zM135 713l101 136h152l112 -136h-169l-15 62l-12 -62h-169z" />
    <glyph glyph-name="Udieresis" unicode="&#xdc;" horiz-adv-x="641" 
d="M258 670v-439q0 -29 14.5 -41t48.5 -12t48 12t14 41v439h232v-426q0 -142 -71 -199.5t-223.5 -57.5t-223.5 56t-71 197v430h232zM343 713v144h161v-144h-161zM136 713v144h161v-144h-161z" />
    <glyph glyph-name="Yacute" unicode="&#xdd;" horiz-adv-x="590" 
d="M410 0h-232v210l-191 460h246l63 -197l65 197h245l-196 -460v-210zM236 849h242l-109 -136h-176z" />
    <glyph glyph-name="Thorn" unicode="&#xde;" horiz-adv-x="611" 
d="M290 72h-34v-72h-226v670h226v-70h34q78 0 131 -11.5t93 -40.5q77 -54 77 -207t-72.5 -211t-228.5 -58zM256 255h24q45 0 64 18.5t19 65t-18 62.5t-65 16h-24v-162z" />
    <glyph glyph-name="germandbls" unicode="&#xdf;" horiz-adv-x="697" 
d="M252 0h-224v453q0 144 68.5 197t230.5 53t225 -39.5t63 -125.5q0 -49 -11 -68t-50 -40t-49.5 -29.5t-10.5 -21t14.5 -21t75.5 -30.5t84.5 -53t23.5 -100q0 -101 -42.5 -144.5t-149.5 -43.5q-104 0 -182 18l-26 6l7 147q78 -10 139 -10q38 0 38 19q0 7 -17 15.5
t-74.5 30.5t-77 47t-19.5 62.5t12.5 59.5t50.5 52.5t38 49.5q0 31 -47 31t-68.5 -12.5t-21.5 -42.5v-460z" />
    <glyph glyph-name="agrave" unicode="&#xe0;" horiz-adv-x="557" 
d="M518 342v-190q9 -7 24 -11l-3 -142q-78 -12 -107 -12t-53 8.5t-32 17.5l-8 9q-62 -35 -150.5 -35t-133.5 40.5t-45 130.5t51 120.5t161 34.5l72 3v9q0 19 -42 19q-91 0 -182 -10l-33 -3l-5 152q132 35 241 35q114 0 177 -34q68 -36 68 -142zM256 141q19 0 38 15v37
l-34 -2q-26 -2 -26 -26t22 -24zM94 723h237l43 -166h-171z" />
    <glyph glyph-name="aacute" unicode="&#xe1;" horiz-adv-x="557" 
d="M518 342v-190q9 -7 24 -11l-3 -142q-78 -12 -107 -12t-53 8.5t-32 17.5l-8 9q-62 -35 -150.5 -35t-133.5 40.5t-45 130.5t51 120.5t161 34.5l72 3v9q0 19 -42 19q-91 0 -182 -10l-33 -3l-5 152q132 35 241 35q114 0 177 -34q68 -36 68 -142zM256 141q19 0 38 15v37
l-34 -2q-26 -2 -26 -26t22 -24zM221 723h237l-109 -166h-171z" />
    <glyph glyph-name="acircumflex" unicode="&#xe2;" horiz-adv-x="557" 
d="M518 342v-190q9 -7 24 -11l-3 -142q-78 -12 -107 -12t-53 8.5t-32 17.5l-8 9q-62 -35 -150.5 -35t-133.5 40.5t-45 130.5t51 120.5t161 34.5l72 3v9q0 19 -42 19q-91 0 -182 -10l-33 -3l-5 152q132 35 241 35q114 0 177 -34q68 -36 68 -142zM256 141q19 0 38 15v37
l-34 -2q-26 -2 -26 -26t22 -24zM101 557l91 166h158l102 -166h-162l-15 72l-12 -72h-162z" />
    <glyph glyph-name="atilde" unicode="&#xe3;" horiz-adv-x="557" 
d="M518 342v-190q9 -7 24 -11l-3 -142q-78 -12 -107 -12t-53 8.5t-32 17.5l-8 9q-62 -35 -150.5 -35t-133.5 40.5t-45 130.5t51 120.5t161 34.5l72 3v9q0 19 -42 19q-91 0 -182 -10l-33 -3l-5 152q132 35 241 35q114 0 177 -34q68 -36 68 -142zM256 141q19 0 38 15v37
l-34 -2q-26 -2 -26 -26t22 -24zM350 547q-26 0 -79.5 22t-66.5 22q-25 0 -67 -30l-14 -10l-29 116q20 24 51.5 44t61 20t80.5 -21.5t62 -21.5q21 0 67 30l14 9l29 -117q-21 -24 -52 -43.5t-57 -19.5z" />
    <glyph glyph-name="adieresis" unicode="&#xe4;" horiz-adv-x="557" 
d="M518 342v-190q9 -7 24 -11l-3 -142q-78 -12 -107 -12t-53 8.5t-32 17.5l-8 9q-62 -35 -150.5 -35t-133.5 40.5t-45 130.5t51 120.5t161 34.5l72 3v9q0 19 -42 19q-91 0 -182 -10l-33 -3l-5 152q132 35 241 35q114 0 177 -34q68 -36 68 -142zM256 141q19 0 38 15v37
l-34 -2q-26 -2 -26 -26t22 -24zM299 559v154h164v-154h-164zM89 559v154h164v-154h-164z" />
    <glyph glyph-name="aring" unicode="&#xe5;" horiz-adv-x="557" 
d="M518 342v-190q9 -7 24 -11l-3 -142q-78 -12 -107 -12t-53 8.5t-32 17.5l-8 9q-62 -35 -150.5 -35t-133.5 40.5t-45 130.5t51 120.5t161 34.5l72 3v9q0 19 -42 19q-91 0 -182 -10l-33 -3l-5 152q132 35 241 35q114 0 177 -34q68 -36 68 -142zM256 141q19 0 38 15v37
l-34 -2q-26 -2 -26 -26t22 -24zM142 642q0 50 36 74.5t97.5 24.5t98 -24.5t36.5 -73.5t-35.5 -74.5t-98 -25.5t-98.5 24.5t-36 74.5zM246 641.5q0 -21.5 30.5 -21.5t30.5 21.5t-30.5 21.5t-30.5 -21.5z" />
    <glyph glyph-name="ae" unicode="&#xe6;" horiz-adv-x="807" 
d="M494 187q1 -35 46 -35q99 0 200 6l38 3l5 -145q-133 -29 -243.5 -29t-156.5 34q-102 -34 -191 -34q-182 0 -182 170q0 75 33 111q35 39 177 45l68 3v9q0 19 -42 19q-90 0 -177 -10l-32 -3l-5 152q126 35 231 35t145 -26q47 26 124 26q131 0 196 -57t65 -175l-10 -99h-289
zM571 309q0 29 -9 41t-30.5 12t-29.5 -12t-9 -41h78zM250 141q19 0 38 15v37l-34 -2q-26 -2 -26 -26t22 -24z" />
    <glyph glyph-name="ccedilla" unicode="&#xe7;" horiz-adv-x="466" 
d="M389.5 -51.5q29.5 -17.5 29.5 -72.5t-31.5 -81t-95.5 -26q-65 0 -110 8l-17 3l4 78q31 -1 48 -1q38 0 38 22q0 12 -8 16t-30 4h-9v91q-108 11 -149.5 71.5t-41.5 201t57 198t193 57.5q69 0 153 -20l28 -6l-7 -177q-103 8 -138 8t-47.5 -15.5t-12.5 -55t12.5 -54.5
t44.5 -15l143 7l7 -175q-86 -25 -169 -28v-20q79 -1 108.5 -18.5z" />
    <glyph glyph-name="egrave" unicode="&#xe8;" horiz-adv-x="552" 
d="M239 187q1 -35 45 -35q100 0 200 6l39 3l5 -145q-133 -29 -264.5 -29t-190 60.5t-58.5 196t63 205t196.5 69.5t198.5 -57t65 -175l-10 -99h-289zM314 309q0 29 -8.5 41t-29.5 12t-29 -12t-9 -41h76zM105 723h237l43 -166h-171z" />
    <glyph glyph-name="eacute" unicode="&#xe9;" horiz-adv-x="552" 
d="M239 187q1 -35 45 -35q100 0 200 6l39 3l5 -145q-133 -29 -264.5 -29t-190 60.5t-58.5 196t63 205t196.5 69.5t198.5 -57t65 -175l-10 -99h-289zM314 309q0 29 -8.5 41t-29.5 12t-29 -12t-9 -41h76zM210 723h237l-109 -166h-171z" />
    <glyph glyph-name="ecircumflex" unicode="&#xea;" horiz-adv-x="552" 
d="M239 187q1 -35 45 -35q100 0 200 6l39 3l5 -145q-133 -29 -264.5 -29t-190 60.5t-58.5 196t63 205t196.5 69.5t198.5 -57t65 -175l-10 -99h-289zM314 309q0 29 -8.5 41t-29.5 12t-29 -12t-9 -41h76zM101 557l91 166h158l102 -166h-162l-15 72l-12 -72h-162z" />
    <glyph glyph-name="edieresis" unicode="&#xeb;" horiz-adv-x="552" 
d="M239 187q1 -35 45 -35q100 0 200 6l39 3l5 -145q-133 -29 -264.5 -29t-190 60.5t-58.5 196t63 205t196.5 69.5t198.5 -57t65 -175l-10 -99h-289zM314 309q0 29 -8.5 41t-29.5 12t-29 -12t-9 -41h76zM299 559v154h164v-154h-164zM89 559v154h164v-154h-164z" />
    <glyph glyph-name="igrave" unicode="&#xec;" horiz-adv-x="280" 
d="M28 0v505h224v-505h-224zM-38 723h237l43 -166h-171z" />
    <glyph glyph-name="iacute" unicode="&#xed;" horiz-adv-x="280" 
d="M28 0v505h224v-505h-224zM81 723h237l-109 -166h-171z" />
    <glyph glyph-name="icircumflex" unicode="&#xee;" horiz-adv-x="280" 
d="M28 0v505h224v-505h-224zM-35 557l91 166h158l102 -166h-162l-15 72l-12 -72h-162z" />
    <glyph glyph-name="idieresis" unicode="&#xef;" horiz-adv-x="280" 
d="M28 0v505h224v-505h-224zM162 559v154h164v-154h-164zM-48 559v154h164v-154h-164z" />
    <glyph glyph-name="eth" unicode="&#xf0;" horiz-adv-x="529" 
d="M384 735l62 -89l-43 -29q109 -84 109 -267t-63.5 -271t-202.5 -88q-120 0 -180 55t-60 165.5t55 170t157 59.5t125 -18q-11 76 -68 110l-133 -89l-63 89l67 44q-45 9 -100 18l19 110q140 -5 226 -32zM237 302q-31 0 -46 -25.5t-15 -63t15.5 -59t54.5 -21.5q96 0 96 153
q-45 16 -105 16z" />
    <glyph glyph-name="ntilde" unicode="&#xf1;" horiz-adv-x="578" 
d="M252 0h-224v505h223v-26q63 39 110 39q108 0 151 -58.5t43 -206.5v-253h-224v238q0 87 -36 87l-43 -7v-318zM370 547q-26 0 -79.5 22t-66.5 22q-25 0 -67 -30l-14 -10l-29 116q20 24 51.5 44t61 20t80.5 -21.5t62 -21.5q21 0 67 30l14 9l29 -117q-21 -24 -52 -43.5
t-57 -19.5z" />
    <glyph glyph-name="ograve" unicode="&#xf2;" horiz-adv-x="564" 
d="M282 518q134 0 200.5 -62.5t66.5 -203.5t-66.5 -203t-200.5 -62t-200.5 62t-66.5 203t66.5 203.5t200.5 62.5zM282 168q23 0 32 18t9 66.5t-9 66.5t-32 18t-32 -18t-9 -66.5t9 -66.5t32 -18zM100 723h237l43 -166h-171z" />
    <glyph glyph-name="oacute" unicode="&#xf3;" horiz-adv-x="564" 
d="M282 518q134 0 200.5 -62.5t66.5 -203.5t-66.5 -203t-200.5 -62t-200.5 62t-66.5 203t66.5 203.5t200.5 62.5zM282 168q23 0 32 18t9 66.5t-9 66.5t-32 18t-32 -18t-9 -66.5t9 -66.5t32 -18zM227 723h237l-109 -166h-171z" />
    <glyph glyph-name="ocircumflex" unicode="&#xf4;" horiz-adv-x="564" 
d="M282 518q134 0 200.5 -62.5t66.5 -203.5t-66.5 -203t-200.5 -62t-200.5 62t-66.5 203t66.5 203.5t200.5 62.5zM282 168q23 0 32 18t9 66.5t-9 66.5t-32 18t-32 -18t-9 -66.5t9 -66.5t32 -18zM107 557l91 166h158l102 -166h-162l-15 72l-12 -72h-162z" />
    <glyph glyph-name="otilde" unicode="&#xf5;" horiz-adv-x="564" 
d="M282 518q134 0 200.5 -62.5t66.5 -203.5t-66.5 -203t-200.5 -62t-200.5 62t-66.5 203t66.5 203.5t200.5 62.5zM282 168q23 0 32 18t9 66.5t-9 66.5t-32 18t-32 -18t-9 -66.5t9 -66.5t32 -18zM356 547q-26 0 -79.5 22t-66.5 22q-25 0 -67 -30l-14 -10l-29 116
q20 24 51.5 44t61 20t80.5 -21.5t62 -21.5q21 0 67 30l14 9l29 -117q-21 -24 -52 -43.5t-57 -19.5z" />
    <glyph glyph-name="odieresis" unicode="&#xf6;" horiz-adv-x="564" 
d="M282 518q134 0 200.5 -62.5t66.5 -203.5t-66.5 -203t-200.5 -62t-200.5 62t-66.5 203t66.5 203.5t200.5 62.5zM282 168q23 0 32 18t9 66.5t-9 66.5t-32 18t-32 -18t-9 -66.5t9 -66.5t32 -18zM305 559v154h164v-154h-164zM95 559v154h164v-154h-164z" />
    <glyph glyph-name="divide" unicode="&#xf7;" 
d="M43 340h464v-170h-464v170zM175 360v140h200v-140h-200zM175 10v140h200v-140h-200z" />
    <glyph glyph-name="oslash" unicode="&#xf8;" horiz-adv-x="564" 
d="M282 -13l-35 1l-35 -62l-217 44l62 108q-42 63 -42 175q0 140 66.5 202.5t200.5 62.5q17 0 26 -1l41 72l55 -11q54 -10 108 -21l54 -11l-64 -113q47 -64 47 -180q0 -142 -66.5 -204t-200.5 -62zM282 168q23 0 32 18t9 66.5t-9 66.5t-32 18t-32 -18t-9 -66.5t9 -66.5
t32 -18z" />
    <glyph glyph-name="ugrave" unicode="&#xf9;" horiz-adv-x="577" 
d="M325 505h224v-505h-222v24q-64 -37 -114 -37q-106 0 -148 61.5t-42 195.5v261h224v-246q0 -45 8 -62t26 -17l44 6v319zM117 723h237l43 -166h-171z" />
    <glyph glyph-name="uacute" unicode="&#xfa;" horiz-adv-x="577" 
d="M325 505h224v-505h-222v24q-64 -37 -114 -37q-106 0 -148 61.5t-42 195.5v261h224v-246q0 -45 8 -62t26 -17l44 6v319zM229 723h237l-109 -166h-171z" />
    <glyph glyph-name="ucircumflex" unicode="&#xfb;" horiz-adv-x="577" 
d="M325 505h224v-505h-222v24q-64 -37 -114 -37q-106 0 -148 61.5t-42 195.5v261h224v-246q0 -45 8 -62t26 -17l44 6v319zM116 557l91 166h158l102 -166h-162l-15 72l-12 -72h-162z" />
    <glyph glyph-name="udieresis" unicode="&#xfc;" horiz-adv-x="577" 
d="M325 505h224v-505h-222v24q-64 -37 -114 -37q-106 0 -148 61.5t-42 195.5v261h224v-246q0 -45 8 -62t26 -17l44 6v319zM314 559v154h164v-154h-164zM104 559v154h164v-154h-164z" />
    <glyph glyph-name="yacute" unicode="&#xfd;" horiz-adv-x="546" 
d="M86 0l-85 505h238l36 -318h14l32 318h225l-119 -700h-246l63 195h-158zM223 723h237l-109 -166h-171z" />
    <glyph glyph-name="thorn" unicode="&#xfe;" horiz-adv-x="569" 
d="M251 703v-201q67 16 104 16q106 0 152 -68t46 -202.5t-50.5 -197.5t-169.5 -63q-23 0 -69 10l-13 3v-195h-224v898h224zM283 168q44 0 44 88q0 47 -10 64t-34 17l-32 -7v-159q13 -3 32 -3z" />
    <glyph glyph-name="ydieresis" unicode="&#xff;" horiz-adv-x="546" 
d="M86 0l-85 505h238l36 -318h14l32 318h225l-119 -700h-246l63 195h-158zM296 559v154h164v-154h-164zM86 559v154h164v-154h-164z" />
    <glyph glyph-name="Amacron" unicode="&#x100;" horiz-adv-x="639" 
d="M-5 0l148 670h351l151 -670h-234l-19 77h-153l-16 -77h-228zM307 488l-38 -234h99l-36 234h-25zM159 713v136h321v-136h-321z" />
    <glyph glyph-name="amacron" unicode="&#x101;" horiz-adv-x="557" 
d="M518 342v-190q9 -7 24 -11l-3 -142q-78 -12 -107 -12t-53 8.5t-32 17.5l-8 9q-62 -35 -150.5 -35t-133.5 40.5t-45 130.5t51 120.5t161 34.5l72 3v9q0 19 -42 19q-91 0 -182 -10l-33 -3l-5 152q132 35 241 35q114 0 177 -34q68 -36 68 -142zM256 141q19 0 38 15v37
l-34 -2q-26 -2 -26 -26t22 -24zM113 563v144h327v-144h-327z" />
    <glyph glyph-name="Abreve" unicode="&#x102;" horiz-adv-x="639" 
d="M-5 0l148 670h351l151 -670h-234l-19 77h-153l-16 -77h-228zM307 488l-38 -234h99l-36 234h-25zM320 712q-86 0 -123 42.5t-37 107.5l116 10q5 -45 44 -45t44 45l116 -10q0 -65 -37 -107.5t-123 -42.5z" />
    <glyph glyph-name="abreve" unicode="&#x103;" horiz-adv-x="557" 
d="M518 342v-190q9 -7 24 -11l-3 -142q-78 -12 -107 -12t-53 8.5t-32 17.5l-8 9q-62 -35 -150.5 -35t-133.5 40.5t-45 130.5t51 120.5t161 34.5l72 3v9q0 19 -42 19q-91 0 -182 -10l-33 -3l-5 152q132 35 241 35q114 0 177 -34q68 -36 68 -142zM256 141q19 0 38 15v37
l-34 -2q-26 -2 -26 -26t22 -24zM272 548q-160 0 -160 160l116 10q5 -45 44 -45t44 45l116 -10q0 -160 -160 -160z" />
    <glyph glyph-name="Aogonek" unicode="&#x104;" horiz-adv-x="639" 
d="M508 -219q-155 0 -155 116q0 64 58 103l-19 77h-153l-16 -77h-228l148 670h351l151 -669v-1h-2q-29 -14 -54.5 -40.5t-25.5 -41.5q0 -22 22 -22l46 4l13 -104q-49 -15 -136 -15zM307 488l-38 -234h99l-36 234h-25z" />
    <glyph glyph-name="aogonek" unicode="&#x105;" horiz-adv-x="557" 
d="M406 -220q-155 0 -155 116q0 78 90 123l-2 3q-62 -35 -150.5 -35t-133.5 40.5t-45 130.5t51 120.5t161 34.5l72 3v9q0 19 -42 19q-91 0 -182 -10l-33 -3l-5 152q132 35 241 35q114 0 177 -34q68 -36 68 -142v-190q9 -7 24 -11l-3 -142q-12 -2 -27 -4q-51 -49 -51 -74.5
t22 -25.5l46 4l13 -104q-49 -15 -136 -15zM256 141q19 0 38 15v37l-34 -2q-26 -2 -26 -26t22 -24z" />
    <glyph glyph-name="Cacute" unicode="&#x106;" horiz-adv-x="533" 
d="M519 13q-106 -26 -217 -26t-171 31.5t-86.5 105.5t-26.5 213q0 199 61.5 272.5t234.5 73.5q72 0 170 -20l35 -7l-6 -179q-82 10 -151.5 10t-89.5 -26.5t-20 -109.5t9.5 -115t30.5 -42.5t68 -10.5l156 6zM221 849h242l-109 -136h-176z" />
    <glyph glyph-name="cacute" unicode="&#x107;" horiz-adv-x="465" 
d="M266 518q69 0 153 -20l28 -6l-7 -177q-103 8 -138 8t-47.5 -15.5t-12.5 -55t12.5 -54.5t44.5 -15l143 7l7 -175q-96 -28 -183 -28q-144 0 -197 59.5t-53 208t57 206t193 57.5zM161 723h237l-109 -166h-171z" />
    <glyph glyph-name="Ccircumflex" unicode="&#x108;" horiz-adv-x="533" 
d="M519 13q-106 -26 -217 -26t-171 31.5t-86.5 105.5t-26.5 213q0 199 61.5 272.5t234.5 73.5q72 0 170 -20l35 -7l-6 -179q-82 10 -151.5 10t-89.5 -26.5t-20 -109.5t9.5 -115t30.5 -42.5t68 -10.5l156 6zM106 713l101 136h152l112 -136h-169l-15 62l-12 -62h-169z" />
    <glyph glyph-name="ccircumflex" unicode="&#x109;" horiz-adv-x="465" 
d="M266 518q69 0 153 -20l28 -6l-7 -177q-103 8 -138 8t-47.5 -15.5t-12.5 -55t12.5 -54.5t44.5 -15l143 7l7 -175q-96 -28 -183 -28q-144 0 -197 59.5t-53 208t57 206t193 57.5zM57 557l91 166h158l102 -166h-162l-15 72l-12 -72h-162z" />
    <glyph glyph-name="Cdotaccent" unicode="&#x10a;" horiz-adv-x="533" 
d="M519 13q-106 -26 -217 -26t-171 31.5t-86.5 105.5t-26.5 213q0 199 61.5 272.5t234.5 73.5q72 0 170 -20l35 -7l-6 -179q-82 10 -151.5 10t-89.5 -26.5t-20 -109.5t9.5 -115t30.5 -42.5t68 -10.5l156 6zM188 713v143h180v-143h-180z" />
    <glyph glyph-name="cdotaccent" unicode="&#x10b;" horiz-adv-x="465" 
d="M266 518q69 0 153 -20l28 -6l-7 -177q-103 8 -138 8t-47.5 -15.5t-12.5 -55t12.5 -54.5t44.5 -15l143 7l7 -175q-96 -28 -183 -28q-144 0 -197 59.5t-53 208t57 206t193 57.5zM149 563v153h186v-153h-186z" />
    <glyph glyph-name="Ccaron" unicode="&#x10c;" horiz-adv-x="533" 
d="M519 13q-106 -26 -217 -26t-171 31.5t-86.5 105.5t-26.5 213q0 199 61.5 272.5t234.5 73.5q72 0 170 -20l35 -7l-6 -179q-82 10 -151.5 10t-89.5 -26.5t-20 -109.5t9.5 -115t30.5 -42.5t68 -10.5l156 6zM197 712l-101 136h169l14 -62l13 62h169l-112 -136h-152z" />
    <glyph glyph-name="ccaron" unicode="&#x10d;" horiz-adv-x="465" 
d="M266 518q69 0 153 -20l28 -6l-7 -177q-103 8 -138 8t-47.5 -15.5t-12.5 -55t12.5 -54.5t44.5 -15l143 7l7 -175q-96 -28 -183 -28q-144 0 -197 59.5t-53 208t57 206t193 57.5zM148 557l-91 166h162l14 -72l13 72h162l-102 -166h-158z" />
    <glyph glyph-name="Dcaron" unicode="&#x10e;" horiz-adv-x="654" 
d="M323 0h-293v670h283q173 0 249 -78t76 -249.5t-73 -257t-242 -85.5zM385.5 451q-18.5 30 -82.5 30h-41v-292h41q52 0 77 26q24 26 24 116t-18.5 120zM222 712l-101 136h169l14 -62l13 62h169l-112 -136h-152z" />
    <glyph glyph-name="dcaron" unicode="&#x10f;" horiz-adv-x="748" 
d="M581 454l20 215h204l-62 -215h-162zM542 690v-690h-221l-2 22q-55 -35 -105 -35q-110 0 -154 67.5t-44 197.5q0 266 221 266l81 -6v178h224zM286 337q-27 0 -35.5 -22t-8.5 -62.5t9 -62.5t36 -22l31 3v163q-22 3 -32 3z" />
    <glyph glyph-name="Dcroat" unicode="&#x110;" horiz-adv-x="661" 
d="M-1 270v137h38v263h283q173 0 249 -78t76 -249.5t-73 -257t-242 -85.5h-293v270h-38zM392.5 451q-18.5 30 -82.5 30h-41v-74h55v-137h-55v-81h41q52 0 76 26q25 26 25 116t-18.5 120z" />
    <glyph glyph-name="dcroat" unicode="&#x111;" horiz-adv-x="570" 
d="M542 690v-38h40v-107h-40v-545h-221l-2 22q-55 -35 -105 -35q-110 0 -154 67.5t-44 197.5q0 266 221 266l81 -6v33h-61v107h61v38h224zM286 337q-27 0 -35.5 -22t-8.5 -62.5t9 -62.5t36 -22l31 3v163q-22 3 -32 3z" />
    <glyph glyph-name="Emacron" unicode="&#x112;" horiz-adv-x="549" 
d="M30 0v670h502v-185h-270v-57h210v-183h-210v-60h270v-185h-502zM121 713v136h321v-136h-321z" />
    <glyph glyph-name="emacron" unicode="&#x113;" horiz-adv-x="552" 
d="M239 187q1 -35 45 -35q100 0 200 6l39 3l5 -145q-133 -29 -264.5 -29t-190 60.5t-58.5 196t63 205t196.5 69.5t198.5 -57t65 -175l-10 -99h-289zM314 309q0 29 -8.5 41t-29.5 12t-29 -12t-9 -41h76zM113 563v144h327v-144h-327z" />
    <glyph glyph-name="Ebreve" unicode="&#x114;" horiz-adv-x="549" 
d="M30 0v670h502v-185h-270v-57h210v-183h-210v-60h270v-185h-502zM271 712q-86 0 -123 42.5t-37 107.5l116 10q5 -45 44 -45t44 45l116 -10q0 -65 -37 -107.5t-123 -42.5z" />
    <glyph glyph-name="ebreve" unicode="&#x115;" horiz-adv-x="552" 
d="M239 187q1 -35 45 -35q100 0 200 6l39 3l5 -145q-133 -29 -264.5 -29t-190 60.5t-58.5 196t63 205t196.5 69.5t198.5 -57t65 -175l-10 -99h-289zM314 309q0 29 -8.5 41t-29.5 12t-29 -12t-9 -41h76zM277 548q-160 0 -160 160l116 10q5 -45 44 -45t44 45l116 -10
q0 -160 -160 -160z" />
    <glyph glyph-name="Edotaccent" unicode="&#x116;" horiz-adv-x="549" 
d="M30 0v670h502v-185h-270v-57h210v-183h-210v-60h270v-185h-502zM191 713v143h180v-143h-180z" />
    <glyph glyph-name="edotaccent" unicode="&#x117;" horiz-adv-x="552" 
d="M239 187q1 -35 45 -35q100 0 200 6l39 3l5 -145q-133 -29 -264.5 -29t-190 60.5t-58.5 196t63 205t196.5 69.5t198.5 -57t65 -175l-10 -99h-289zM314 309q0 29 -8.5 41t-29.5 12t-29 -12t-9 -41h76zM188 563v153h186v-153h-186z" />
    <glyph glyph-name="Eogonek" unicode="&#x118;" horiz-adv-x="549" 
d="M30 0v670h502v-185h-270v-57h210v-183h-210v-60h270v-185h-24q-56 -56 -56 -80.5t22 -24.5l46 4l13 -104q-49 -15 -136 -15q-155 0 -155 116q0 62 58 104h-270z" />
    <glyph glyph-name="eogonek" unicode="&#x119;" horiz-adv-x="552" 
d="M399 -220q-155 0 -155 116q0 53 42 91h-14q-140 0 -198.5 60.5t-58.5 196t63 205t196.5 69.5t198.5 -57t65 -175l-10 -99h-289q1 -35 45 -35q100 0 200 6l39 3l5 -145q-74 -64 -74 -99q0 -22 22 -22l46 4l13 -104q-49 -15 -136 -15zM314 309q0 29 -8.5 41t-29.5 12
t-29 -12t-9 -41h76z" />
    <glyph glyph-name="Ecaron" unicode="&#x11a;" horiz-adv-x="549" 
d="M30 0v670h502v-185h-270v-57h210v-183h-210v-60h270v-185h-502zM190 712l-101 136h169l14 -62l13 62h169l-112 -136h-152z" />
    <glyph glyph-name="ecaron" unicode="&#x11b;" horiz-adv-x="552" 
d="M239 187q1 -35 45 -35q100 0 200 6l39 3l5 -145q-133 -29 -264.5 -29t-190 60.5t-58.5 196t63 205t196.5 69.5t198.5 -57t65 -175l-10 -99h-289zM314 309q0 29 -8.5 41t-29.5 12t-29 -12t-9 -41h76zM192 557l-91 166h162l14 -72l13 72h162l-102 -166h-158z" />
    <glyph glyph-name="Gcircumflex" unicode="&#x11c;" horiz-adv-x="619" 
d="M592 394v-374q-181 -29 -268 -29t-148.5 19.5t-96.5 64.5t-48.5 106t-13.5 155q0 193 72 270t243 77q51 0 115 -8.5t102 -16.5l38 -9v-175q-144 13 -204.5 13t-79 -5.5t-29.5 -13t-16 -29.5q-7 -31 -7 -109t18 -113.5t73 -35.5l34 1v50h-30l-1 162h247zM142 713l101 136
h152l112 -136h-169l-15 62l-12 -62h-169z" />
    <glyph glyph-name="gcircumflex" unicode="&#x11d;" horiz-adv-x="562" 
d="M92 -196q-80 26 -80 115q0 36 14 64t50 56q-36 25 -36 75q0 11 14.5 29.5t29.5 30.5l14 13q-81 38 -81 144t57.5 146.5t190.5 40.5q33 0 87 -8l16 -3l185 3v-131h-47q9 -25 9 -41q0 -108 -55 -144.5t-187 -36.5q-20 0 -38 3q-4 -6 -4 -12q0 -10 118 -10t159.5 -35
t41.5 -127.5t-68 -144t-194 -51.5t-196 24zM195 -53q0 -13 76 -13t76 16q0 10 -13 12.5t-53 2.5l-77 4q-9 -5 -9 -22zM266 303q21 0 30 8t9 28t-9 28t-30 8t-30 -8t-9 -28t9 -28t30 -8zM107 557l91 166h158l102 -166h-162l-15 72l-12 -72h-162z" />
    <glyph glyph-name="Gbreve" unicode="&#x11e;" horiz-adv-x="619" 
d="M592 394v-374q-181 -29 -268 -29t-148.5 19.5t-96.5 64.5t-48.5 106t-13.5 155q0 193 72 270t243 77q51 0 115 -8.5t102 -16.5l38 -9v-175q-144 13 -204.5 13t-79 -5.5t-29.5 -13t-16 -29.5q-7 -31 -7 -109t18 -113.5t73 -35.5l34 1v50h-30l-1 162h247zM324 712
q-86 0 -123 42.5t-37 107.5l116 10q5 -45 44 -45t44 45l116 -10q0 -65 -37 -107.5t-123 -42.5z" />
    <glyph glyph-name="gbreve" unicode="&#x11f;" horiz-adv-x="562" 
d="M92 -196q-80 26 -80 115q0 36 14 64t50 56q-36 25 -36 75q0 11 14.5 29.5t29.5 30.5l14 13q-81 38 -81 144t57.5 146.5t190.5 40.5q33 0 87 -8l16 -3l185 3v-131h-47q9 -25 9 -41q0 -108 -55 -144.5t-187 -36.5q-20 0 -38 3q-4 -6 -4 -12q0 -10 118 -10t159.5 -35
t41.5 -127.5t-68 -144t-194 -51.5t-196 24zM195 -53q0 -13 76 -13t76 16q0 10 -13 12.5t-53 2.5l-77 4q-9 -5 -9 -22zM266 303q21 0 30 8t9 28t-9 28t-30 8t-30 -8t-9 -28t9 -28t30 -8zM283 548q-160 0 -160 160l116 10q5 -45 44 -45t44 45l116 -10q0 -160 -160 -160z" />
    <glyph glyph-name="Gdotaccent" unicode="&#x120;" horiz-adv-x="619" 
d="M592 394v-374q-181 -29 -268 -29t-148.5 19.5t-96.5 64.5t-48.5 106t-13.5 155q0 193 72 270t243 77q51 0 115 -8.5t102 -16.5l38 -9v-175q-144 13 -204.5 13t-79 -5.5t-29.5 -13t-16 -29.5q-7 -31 -7 -109t18 -113.5t73 -35.5l34 1v50h-30l-1 162h247zM211 706v153h186
v-153h-186z" />
    <glyph glyph-name="gdotaccent" unicode="&#x121;" horiz-adv-x="562" 
d="M92 -196q-80 26 -80 115q0 36 14 64t50 56q-36 25 -36 75q0 11 14.5 29.5t29.5 30.5l14 13q-81 38 -81 144t57.5 146.5t190.5 40.5q33 0 87 -8l16 -3l185 3v-131h-47q9 -25 9 -41q0 -108 -55 -144.5t-187 -36.5q-20 0 -38 3q-4 -6 -4 -12q0 -10 118 -10t159.5 -35
t41.5 -127.5t-68 -144t-194 -51.5t-196 24zM195 -53q0 -13 76 -13t76 16q0 10 -13 12.5t-53 2.5l-77 4q-9 -5 -9 -22zM266 303q21 0 30 8t9 28t-9 28t-30 8t-30 -8t-9 -28t9 -28t30 -8zM189 563v153h186v-153h-186z" />
    <glyph glyph-name="Gcommaaccent" unicode="&#x122;" horiz-adv-x="619" 
d="M202 -260l20 215h204l-62 -215h-162zM592 394v-374q-181 -29 -268 -29t-148.5 19.5t-96.5 64.5t-48.5 106t-13.5 155q0 193 72 270t243 77q51 0 115 -8.5t102 -16.5l38 -9v-175q-144 13 -204.5 13t-79 -5.5t-29.5 -13t-16 -29.5q-7 -31 -7 -109t18 -113.5t73 -35.5l34 1
v50h-30l-1 162h247z" />
    <glyph glyph-name="gcommaaccent" unicode="&#x123;" horiz-adv-x="562" 
d="M390 778l-20 -215h-204l62 215h162zM92 -196q-80 26 -80 115q0 36 14 64t50 56q-36 25 -36 75q0 11 14.5 29.5t29.5 30.5l14 13q-81 38 -81 144t57.5 146.5t190.5 40.5q33 0 87 -8l16 -3l185 3v-131h-47q9 -25 9 -41q0 -108 -55 -144.5t-187 -36.5q-20 0 -38 3
q-4 -6 -4 -12q0 -10 118 -10t159.5 -35t41.5 -127.5t-68 -144t-194 -51.5t-196 24zM195 -53q0 -13 76 -13t76 16q0 10 -13 12.5t-53 2.5l-77 4q-9 -5 -9 -22zM266 303q21 0 30 8t9 28t-9 28t-30 8t-30 -8t-9 -28t9 -28t30 -8z" />
    <glyph glyph-name="Hcircumflex" unicode="&#x124;" horiz-adv-x="655" 
d="M393 0v234h-131v-234h-232v670h232v-247h131v247h232v-670h-232zM145 713l101 136h152l112 -136h-169l-15 62l-12 -62h-169z" />
    <glyph glyph-name="hcircumflex" unicode="&#x125;" horiz-adv-x="578" 
d="M252 0h-224v690h224v-189q70 17 107 17q109 0 152.5 -57t43.5 -200v-261h-224v238q0 87 -38 87l-41 -6v-319zM114 741l91 166h158l102 -166h-162l-15 72l-12 -72h-162z" />
    <glyph glyph-name="Hbar" unicode="&#x126;" horiz-adv-x="659" 
d="M4 473v132h28v65h232v-65h131v65h232v-65h28v-132h-28v-473h-232v234h-131v-234h-232v473h-28zM264 423h131v50h-131v-50z" />
    <glyph glyph-name="hbar" unicode="&#x127;" horiz-adv-x="578" 
d="M252 0h-224v545h-40v107h40v38h224v-38h61v-107h-61v-44q70 17 107 17q109 0 152.5 -57t43.5 -200v-261h-224v238q0 87 -38 87l-41 -6v-319z" />
    <glyph glyph-name="Itilde" unicode="&#x128;" horiz-adv-x="292" 
d="M30 0v670h232v-670h-232zM274 728q-28 -16 -54 -16t-79.5 17t-66.5 17q-27 0 -67 -18l-14 -7l-29 106q17 20 50 39.5t62.5 19.5t80.5 -16t62 -16q20 0 67 18l14 5l29 -107q-6 -6 -16.5 -16t-38.5 -26z" />
    <glyph glyph-name="itilde" unicode="&#x129;" horiz-adv-x="280" 
d="M28 0v505h224v-505h-224zM214 547q-26 0 -79.5 22t-66.5 22q-25 0 -67 -30l-14 -10l-29 116q20 24 51.5 44t61 20t80.5 -21.5t62 -21.5q21 0 67 30l14 9l29 -117q-21 -24 -52 -43.5t-57 -19.5z" />
    <glyph glyph-name="Imacron" unicode="&#x12a;" horiz-adv-x="292" 
d="M30 0v670h232v-670h-232zM-14 713v136h321v-136h-321z" />
    <glyph glyph-name="imacron" unicode="&#x12b;" horiz-adv-x="280" 
d="M28 0v505h224v-505h-224zM-27 563v144h327v-144h-327z" />
    <glyph glyph-name="Ibreve" unicode="&#x12c;" horiz-adv-x="292" 
d="M30 0v670h232v-670h-232zM146 712q-86 0 -123 42.5t-37 107.5l116 10q5 -45 44 -45t44 45l116 -10q0 -65 -37 -107.5t-123 -42.5z" />
    <glyph glyph-name="ibreve" unicode="&#x12d;" horiz-adv-x="280" 
d="M28 0v505h224v-505h-224zM137 548q-160 0 -160 160l116 10q5 -45 44 -45t44 45l116 -10q0 -160 -160 -160z" />
    <glyph glyph-name="Iogonek" unicode="&#x12e;" horiz-adv-x="292" 
d="M30 0v670h232v-670h-24q-57 -54 -57 -80t22 -26l46 4l13 -104q-49 -15 -136 -15q-155 0 -155 116q0 63 60 105h-1z" />
    <glyph glyph-name="iogonek" unicode="&#x12f;" horiz-adv-x="280" 
d="M115 -220q-155 0 -155 116q0 68 68 110v499h224v-505q-29 -16 -55.5 -41.5t-26.5 -41.5q0 -22 22 -22l46 4l13 -104q-49 -15 -136 -15zM27 537v153h226v-153h-226z" />
    <glyph glyph-name="Idotaccent" unicode="&#x130;" horiz-adv-x="292" 
d="M30 0v670h232v-670h-232zM53 706v153h186v-153h-186z" />
    <glyph glyph-name="dotlessi" unicode="&#x131;" horiz-adv-x="280" 
d="M28 0v505h224v-505h-224z" />
    <glyph glyph-name="Jcircumflex" unicode="&#x134;" horiz-adv-x="321" 
d="M294 670v-493q0 -98 -48 -144q-37 -37 -134 -43q-37 -3 -97 -3v191q13 0 19 0.5t12.5 6t8.5 12.5t4 25q3 28 3 100v348h232zM2 713l101 136h152l112 -136h-169l-15 62l-12 -62h-169z" />
    <glyph glyph-name="jcircumflex" unicode="&#x135;" horiz-adv-x="280" 
d="M28 66v439h224v-432q0 -105 -15.5 -143t-30 -56t-45.5 -36q-48 -26 -150 -58l-72 170q62 29 75.5 46t13.5 70zM-35 557l91 166h158l102 -166h-162l-15 72l-12 -72h-162z" />
    <glyph glyph-name="Kcommaaccent" unicode="&#x136;" horiz-adv-x="609" 
d="M174 -260l20 215h204l-62 -215h-162zM262 223v-223h-232v670h232v-237h40l75 237h230l-107 -324l117 -346h-233l-81 223h-41z" />
    <glyph glyph-name="kcommaaccent" unicode="&#x137;" horiz-adv-x="553" 
d="M178 -260l20 215h204l-62 -215h-162zM252 0h-224v690h224v-347h29l45 162h221l-72 -244l78 -261h-224l-47 148h-30v-148z" />
    <glyph glyph-name="Lacute" unicode="&#x139;" horiz-adv-x="489" 
d="M480 0h-450v670h232v-481h218v-189zM83 849h242l-109 -136h-176z" />
    <glyph glyph-name="lacute" unicode="&#x13a;" horiz-adv-x="280" 
d="M28 0v690h224v-690h-224zM71 907h237l-109 -166h-171z" />
    <glyph glyph-name="Lcommaaccent" unicode="&#x13b;" horiz-adv-x="489" 
d="M135 -260l20 215h204l-62 -215h-162zM480 0h-450v670h232v-481h218v-189z" />
    <glyph glyph-name="lcommaaccent" unicode="&#x13c;" horiz-adv-x="280" 
d="M28 -260l20 215h204l-62 -215h-162zM28 0v690h224v-690h-224z" />
    <glyph glyph-name="Lcaron" unicode="&#x13d;" horiz-adv-x="512" 
d="M318 488l20 215h204l-62 -215h-162zM480 0h-450v670h232v-481h218v-189z" />
    <glyph glyph-name="lcaron" unicode="&#x13e;" horiz-adv-x="459" 
d="M292 454l20 215h204l-62 -215h-162zM28 0v690h224v-690h-224z" />
    <glyph glyph-name="Lslash" unicode="&#x141;" horiz-adv-x="493" 
d="M34 670h232v-201l74 37v-187l-74 -37v-93h218v-189h-450v166l-31 -15v187l31 15v317z" />
    <glyph glyph-name="lslash" unicode="&#x142;" horiz-adv-x="308" 
d="M41 690h224v-242l39 20v-187l-39 -20v-261h-224v149l-37 -18v187l37 18v354z" />
    <glyph glyph-name="Nacute" unicode="&#x143;" horiz-adv-x="688" 
d="M30 0v670h228l154 -254h14v254h232v-670h-229l-152 273h-15v-273h-232zM255 849h242l-109 -136h-176z" />
    <glyph glyph-name="nacute" unicode="&#x144;" horiz-adv-x="578" 
d="M252 0h-224v505h223v-26q63 39 110 39q108 0 151 -58.5t43 -206.5v-253h-224v238q0 87 -36 87l-43 -7v-318zM213 723h237l-109 -166h-171z" />
    <glyph glyph-name="Ncommaaccent" unicode="&#x145;" horiz-adv-x="688" 
d="M242 -260l20 215h204l-62 -215h-162zM30 0v670h228l154 -254h14v254h232v-670h-229l-152 273h-15v-273h-232z" />
    <glyph glyph-name="ncommaaccent" unicode="&#x146;" horiz-adv-x="578" 
d="M179 -260l20 215h204l-62 -215h-162zM252 0h-224v505h223v-26q63 39 110 39q108 0 151 -58.5t43 -206.5v-253h-224v238q0 87 -36 87l-43 -7v-318z" />
    <glyph glyph-name="Ncaron" unicode="&#x147;" horiz-adv-x="688" 
d="M30 0v670h228l154 -254h14v254h232v-670h-229l-152 273h-15v-273h-232zM263 712l-101 136h169l14 -62l13 62h169l-112 -136h-152z" />
    <glyph glyph-name="ncaron" unicode="&#x148;" horiz-adv-x="578" 
d="M252 0h-224v505h223v-26q63 39 110 39q108 0 151 -58.5t43 -206.5v-253h-224v238q0 87 -36 87l-43 -7v-318zM197 557l-91 166h162l14 -72l13 72h162l-102 -166h-158z" />
    <glyph glyph-name="Eng" unicode="&#x14a;" horiz-adv-x="688" 
d="M30 0v670h228l154 -254h14v254h232v-670q0 -103 -21 -148q-13 -28 -27.5 -45.5t-46.5 -34.5q-45 -24 -151 -58l-72 170q62 29 75.5 46t13.5 70l-152 273h-15v-273h-232z" />
    <glyph glyph-name="eng" unicode="&#x14b;" horiz-adv-x="578" 
d="M331 66v172q0 87 -36 87l-43 -7v-318h-224v505h223v-26q63 39 110 39q108 0 151 -58.5t43 -206.5v-180q0 -105 -15.5 -143t-30 -56t-45.5 -36q-48 -26 -150 -58l-72 170q62 29 75.5 46t13.5 70z" />
    <glyph glyph-name="Omacron" unicode="&#x14c;" horiz-adv-x="670" 
d="M266.5 212.5q16.5 -37.5 69 -37.5t68.5 37t16 123.5t-15.5 123t-68.5 36.5t-69.5 -37.5t-16.5 -122.5t16.5 -122.5zM578 69.5q-76 -82.5 -242.5 -82.5t-243 83t-76.5 265.5t76 265t243 82.5t243 -82.5t76 -265.5t-76 -265.5zM175 713v136h321v-136h-321z" />
    <glyph glyph-name="omacron" unicode="&#x14d;" horiz-adv-x="564" 
d="M282 518q134 0 200.5 -62.5t66.5 -203.5t-66.5 -203t-200.5 -62t-200.5 62t-66.5 203t66.5 203.5t200.5 62.5zM282 168q23 0 32 18t9 66.5t-9 66.5t-32 18t-32 -18t-9 -66.5t9 -66.5t32 -18zM119 563v144h327v-144h-327z" />
    <glyph glyph-name="Obreve" unicode="&#x14e;" horiz-adv-x="670" 
d="M266.5 212.5q16.5 -37.5 69 -37.5t68.5 37t16 123.5t-15.5 123t-68.5 36.5t-69.5 -37.5t-16.5 -122.5t16.5 -122.5zM578 69.5q-76 -82.5 -242.5 -82.5t-243 83t-76.5 265.5t76 265t243 82.5t243 -82.5t76 -265.5t-76 -265.5zM335 712q-86 0 -123 42.5t-37 107.5l116 10
q5 -45 44 -45t44 45l116 -10q0 -65 -37 -107.5t-123 -42.5z" />
    <glyph glyph-name="obreve" unicode="&#x14f;" horiz-adv-x="564" 
d="M282 518q134 0 200.5 -62.5t66.5 -203.5t-66.5 -203t-200.5 -62t-200.5 62t-66.5 203t66.5 203.5t200.5 62.5zM282 168q23 0 32 18t9 66.5t-9 66.5t-32 18t-32 -18t-9 -66.5t9 -66.5t32 -18zM284 548q-160 0 -160 160l116 10q5 -45 44 -45t44 45l116 -10
q0 -160 -160 -160z" />
    <glyph glyph-name="Ohungarumlaut" unicode="&#x150;" horiz-adv-x="670" 
d="M266.5 212.5q16.5 -37.5 69 -37.5t68.5 37t16 123.5t-15.5 123t-68.5 36.5t-69.5 -37.5t-16.5 -122.5t16.5 -122.5zM578 69.5q-76 -82.5 -242.5 -82.5t-243 83t-76.5 265.5t76 265t243 82.5t243 -82.5t76 -265.5t-76 -265.5zM181 849h187l-89 -136h-131zM396 849h187
l-89 -136h-131z" />
    <glyph glyph-name="ohungarumlaut" unicode="&#x151;" horiz-adv-x="564" 
d="M282 518q134 0 200.5 -62.5t66.5 -203.5t-66.5 -203t-200.5 -62t-200.5 62t-66.5 203t66.5 203.5t200.5 62.5zM282 168q23 0 32 18t9 66.5t-9 66.5t-32 18t-32 -18t-9 -66.5t9 -66.5t32 -18zM120 725h192l-89 -166h-136zM340 725h192l-89 -166h-136z" />
    <glyph glyph-name="OE" unicode="&#x152;" horiz-adv-x="886" 
d="M869 670v-185h-239v-58h179v-181h-179v-61h239v-185h-385q-114 -13 -193 -13q-156 0 -214.5 81t-58.5 272t61 267t222 76l183 -13h385zM357 175h41v318q-28 2 -41 2q-71 0 -91 -30.5t-20 -124.5q0 -74 6.5 -102.5t18.5 -38.5q29 -24 86 -24z" />
    <glyph glyph-name="oe" unicode="&#x153;" horiz-adv-x="860" 
d="M547 187q1 -35 45 -35q100 0 200 6l39 3l5 -145q-133 -29 -247 -29t-155 44q-47 -44 -152 -44q-134 0 -200.5 62t-66.5 203t66.5 203.5t190.5 62.5t170 -48q43 48 143 48q131 0 196 -57t65 -175l-10 -99h-289zM282 168q23 0 32 18t9 66.5t-9 66.5t-32 18t-32 -18
t-9 -66.5t9 -66.5t32 -18zM624 309q0 29 -9 41t-30.5 12t-29.5 -12t-9 -41h78z" />
    <glyph glyph-name="Racute" unicode="&#x154;" horiz-adv-x="617" 
d="M319 173h-57v-173h-232v670h282q155 0 222 -51.5t67 -191t-74 -199.5l66 -228h-236zM226 849h242l-109 -136h-176zM318 356q49 0 49 65.5t-55 65.5h-51v-131h57z" />
    <glyph glyph-name="racute" unicode="&#x155;" horiz-adv-x="368" 
d="M252 0h-224v505h224v-47q63 60 106 60v-208q-34 0 -88 -27l-18 -9v-274zM100 723h237l-109 -166h-171z" />
    <glyph glyph-name="Rcommaaccent" unicode="&#x156;" horiz-adv-x="617" 
d="M319 173h-57v-173h-232v670h282q155 0 222 -51.5t67 -191t-74 -199.5l66 -228h-236zM193 -260l20 215h204l-62 -215h-162zM318 356q49 0 49 65.5t-55 65.5h-51v-131h57z" />
    <glyph glyph-name="rcommaaccent" unicode="&#x157;" horiz-adv-x="368" 
d="M28 -260l20 215h204l-62 -215h-162zM252 0h-224v505h224v-47q63 60 106 60v-208q-34 0 -88 -27l-18 -9v-274z" />
    <glyph glyph-name="Rcaron" unicode="&#x158;" horiz-adv-x="617" 
d="M319 173h-57v-173h-232v670h282q155 0 222 -51.5t67 -191t-74 -199.5l66 -228h-236zM234 712l-101 136h169l14 -62l13 62h169l-112 -136h-152zM318 356q49 0 49 65.5t-55 65.5h-51v-131h57z" />
    <glyph glyph-name="rcaron" unicode="&#x159;" horiz-adv-x="368" 
d="M252 0h-224v505h224v-47q63 60 106 60v-208q-34 0 -88 -27l-18 -9v-274zM96 557l-91 166h162l14 -72l13 72h162l-102 -166h-158z" />
    <glyph glyph-name="Sacute" unicode="&#x15a;" horiz-adv-x="578" 
d="M540 477q-141 15 -205 15t-74.5 -3.5t-10.5 -14.5t12 -17t75.5 -20t104 -27.5t73 -38t43 -60t10.5 -95.5q0 -124 -66 -177t-199 -53q-64 0 -134.5 9t-108.5 18l-39 9l10 177q153 -22 251 -22q52 0 52 23q0 10 -12 14.5t-65 12.5q-140 22 -190.5 68.5t-50.5 152.5
q0 135 65 185t200 50q95 0 223 -19l42 -7zM204 849h242l-109 -136h-176z" />
    <glyph glyph-name="sacute" unicode="&#x15b;" horiz-adv-x="489" 
d="M457 335q-124 14 -169 14t-45 -8q0 -6 78.5 -14.5t114.5 -45t36 -124.5t-54.5 -129t-167.5 -41q-63 0 -120 6.5t-82 13.5l-26 7l5 151q124 -17 172.5 -17t48.5 9q0 5 -79 15.5t-114.5 47t-35.5 114.5q0 102 58.5 143t165.5 41q114 0 195 -20l27 -6zM193 723h237
l-109 -166h-171z" />
    <glyph glyph-name="Scircumflex" unicode="&#x15c;" horiz-adv-x="578" 
d="M540 477q-141 15 -205 15t-74.5 -3.5t-10.5 -14.5t12 -17t75.5 -20t104 -27.5t73 -38t43 -60t10.5 -95.5q0 -124 -66 -177t-199 -53q-64 0 -134.5 9t-108.5 18l-39 9l10 177q153 -22 251 -22q52 0 52 23q0 10 -12 14.5t-65 12.5q-140 22 -190.5 68.5t-50.5 152.5
q0 135 65 185t200 50q95 0 223 -19l42 -7zM112 713l101 136h152l112 -136h-169l-15 62l-12 -62h-169z" />
    <glyph glyph-name="scircumflex" unicode="&#x15d;" horiz-adv-x="489" 
d="M457 335q-124 14 -169 14t-45 -8q0 -6 78.5 -14.5t114.5 -45t36 -124.5t-54.5 -129t-167.5 -41q-63 0 -120 6.5t-82 13.5l-26 7l5 151q124 -17 172.5 -17t48.5 9q0 5 -79 15.5t-114.5 47t-35.5 114.5q0 102 58.5 143t165.5 41q114 0 195 -20l27 -6zM70 557l91 166h158
l102 -166h-162l-15 72l-12 -72h-162z" />
    <glyph glyph-name="Scedilla" unicode="&#x15e;" horiz-adv-x="578" 
d="M402.5 -51.5q29.5 -17.5 29.5 -72.5t-31.5 -81t-95.5 -26q-65 0 -110 8l-17 3l4 78q31 -1 48 -1q38 0 38 22q0 12 -8 16t-30 4h-9v91q-98 8 -175 26l-25 6l10 177q153 -22 251 -22q52 0 52 23q0 10 -12 14.5t-65 12.5q-140 22 -190.5 68.5t-50.5 152.5q0 135 65 185
t200 50q95 0 223 -19l42 -7l-6 -180q-141 15 -205 15t-74.5 -3.5t-10.5 -14.5t12 -17t75.5 -20t104 -27.5t73 -38t43 -60t10.5 -95.5q0 -124 -66 -177t-199 -53h-9v-19q79 -1 108.5 -18.5z" />
    <glyph glyph-name="scedilla" unicode="&#x15f;" horiz-adv-x="489" 
d="M361.5 -51.5q29.5 -17.5 29.5 -72.5t-31.5 -81t-95.5 -26q-65 0 -110 8l-17 3l4 78q31 -1 48 -1q38 0 38 22q0 12 -8 16t-30 4h-9v90q-83 6 -140 21l-18 4l5 151q124 -17 172.5 -17t48.5 9q0 5 -79 15.5t-114.5 47t-35.5 114.5q0 102 58.5 143t165.5 41q114 0 195 -20
l27 -6l-8 -157q-124 14 -169 14t-45 -8q0 -6 78.5 -14.5t114.5 -45t36 -124t-54 -128.5t-165 -42v-20q79 -1 108.5 -18.5z" />
    <glyph glyph-name="Scaron" unicode="&#x160;" horiz-adv-x="578" 
d="M540 477q-141 15 -205 15t-74.5 -3.5t-10.5 -14.5t12 -17t75.5 -20t104 -27.5t73 -38t43 -60t10.5 -95.5q0 -124 -66 -177t-199 -53q-64 0 -134.5 9t-108.5 18l-39 9l10 177q153 -22 251 -22q52 0 52 23q0 10 -12 14.5t-65 12.5q-140 22 -190.5 68.5t-50.5 152.5
q0 135 65 185t200 50q95 0 223 -19l42 -7zM211 712l-101 136h169l14 -62l13 62h169l-112 -136h-152z" />
    <glyph glyph-name="scaron" unicode="&#x161;" horiz-adv-x="489" 
d="M457 335q-124 14 -169 14t-45 -8q0 -6 78.5 -14.5t114.5 -45t36 -124.5t-54.5 -129t-167.5 -41q-63 0 -120 6.5t-82 13.5l-26 7l5 151q124 -17 172.5 -17t48.5 9q0 5 -79 15.5t-114.5 47t-35.5 114.5q0 102 58.5 143t165.5 41q114 0 195 -20l27 -6zM161 557l-91 166h162
l14 -72l13 72h162l-102 -166h-158z" />
    <glyph glyph-name="Tcedilla" unicode="&#x162;" horiz-adv-x="519" 
d="M407.5 -51.5q29.5 -17.5 29.5 -72.5t-31.5 -81t-95.5 -26q-65 0 -110 8l-17 3l4 78q31 -1 48 -1q38 0 38 22q0 12 -8 16t-30 4h-9v101h-79v481h-138v189h500v-189h-130v-481h-80v-33q79 -1 108.5 -18.5z" />
    <glyph glyph-name="tcedilla" unicode="&#x163;" horiz-adv-x="371" 
d="M333.5 -51.5q29.5 -17.5 29.5 -72.5t-31.5 -81t-95.5 -26q-65 0 -110 8l-17 3l4 78q31 -1 48 -1q38 0 38 22q0 12 -8 16t-30 4h-9v95q-54 11 -78.5 51t-24.5 123v156h-39v181h39v100h224v-100h81v-181h-81v-104q0 -25 6.5 -33.5t26.5 -8.5l45 1l3 -174q-83 -17 -129 -18
v-20q79 -1 108.5 -18.5z" />
    <glyph glyph-name="Tcaron" unicode="&#x164;" horiz-adv-x="519" 
d="M9 481v189h500v-189h-130v-481h-232v481h-138zM178 712l-101 136h169l14 -62l13 62h169l-112 -136h-152z" />
    <glyph glyph-name="tcaron" unicode="&#x165;" horiz-adv-x="371" 
d="M311 539l19 205h194l-59 -205h-154zM273 324v-104q0 -25 6.5 -33.5t26.5 -8.5l45 1l3 -174q-86 -18 -132 -18q-93 0 -133 38.5t-40 142.5v156h-39v181h39v100h224v-100h81v-181h-81z" />
    <glyph glyph-name="Tbar" unicode="&#x166;" horiz-adv-x="519" 
d="M9 481v189h500v-189h-130v-154h47v-137h-47v-190h-232v190h-47v137h47v154h-138z" />
    <glyph glyph-name="tbar" unicode="&#x167;" horiz-adv-x="370" 
d="M273 345v-34h64v-105h-64q0 -22 6.5 -30t26.5 -8l45 1l3 -164q-86 -18 -132 -18q-93 0 -133 38.5t-40 142.5v38h-37v105h37v34h-39v160h39v100h224v-100h81v-160h-81z" />
    <glyph glyph-name="Utilde" unicode="&#x168;" horiz-adv-x="641" 
d="M258 670v-439q0 -29 14.5 -41t48.5 -12t48 12t14 41v439h232v-426q0 -142 -71 -199.5t-223.5 -57.5t-223.5 56t-71 197v430h232zM448 728q-28 -16 -54 -16t-79.5 17t-66.5 17q-27 0 -67 -18l-14 -7l-29 106q17 20 50 39.5t62.5 19.5t80.5 -16t62 -16q20 0 67 18l14 5
l29 -107q-6 -6 -16.5 -16t-38.5 -26z" />
    <glyph glyph-name="utilde" unicode="&#x169;" horiz-adv-x="577" 
d="M325 505h224v-505h-222v24q-64 -37 -114 -37q-106 0 -148 61.5t-42 195.5v261h224v-246q0 -45 8 -62t26 -17l44 6v319zM365 547q-26 0 -79.5 22t-66.5 22q-25 0 -67 -30l-14 -10l-29 116q20 24 51.5 44t61 20t80.5 -21.5t62 -21.5q21 0 66 30l15 9l29 -117
q-21 -24 -52 -43.5t-57 -19.5z" />
    <glyph glyph-name="Umacron" unicode="&#x16a;" horiz-adv-x="641" 
d="M258 670v-439q0 -29 14.5 -41t48.5 -12t48 12t14 41v439h232v-426q0 -142 -71 -199.5t-223.5 -57.5t-223.5 56t-71 197v430h232zM160 713v136h321v-136h-321z" />
    <glyph glyph-name="umacron" unicode="&#x16b;" horiz-adv-x="577" 
d="M325 505h224v-505h-222v24q-64 -37 -114 -37q-106 0 -148 61.5t-42 195.5v261h224v-246q0 -45 8 -62t26 -17l44 6v319zM128 563v144h327v-144h-327z" />
    <glyph glyph-name="Ubreve" unicode="&#x16c;" horiz-adv-x="641" 
d="M258 670v-439q0 -29 14.5 -41t48.5 -12t48 12t14 41v439h232v-426q0 -142 -71 -199.5t-223.5 -57.5t-223.5 56t-71 197v430h232zM320 712q-86 0 -123 42.5t-37 107.5l116 10q5 -45 44 -45t44 45l116 -10q0 -65 -37 -107.5t-123 -42.5z" />
    <glyph glyph-name="ubreve" unicode="&#x16d;" horiz-adv-x="577" 
d="M325 505h224v-505h-222v24q-64 -37 -114 -37q-106 0 -148 61.5t-42 195.5v261h224v-246q0 -45 8 -62t26 -17l44 6v319zM286 548q-160 0 -160 160l116 10q5 -45 44 -45t44 45l116 -10q0 -160 -160 -160z" />
    <glyph glyph-name="Uring" unicode="&#x16e;" horiz-adv-x="641" 
d="M258 670v-439q0 -29 14.5 -41t48.5 -12t48 12t14 41v439h232v-426q0 -142 -71 -199.5t-223.5 -57.5t-223.5 56t-71 197v430h232zM183 798q0 96 137 96q62 0 99.5 -23.5t37.5 -71.5t-36.5 -72.5t-100.5 -24.5q-137 0 -137 96zM290 797.5q0 -21.5 30.5 -21.5t30.5 21.5
t-30.5 21.5t-30.5 -21.5z" />
    <glyph glyph-name="uring" unicode="&#x16f;" horiz-adv-x="577" 
d="M325 505h224v-505h-222v24q-64 -37 -114 -37q-106 0 -148 61.5t-42 195.5v261h224v-246q0 -45 8 -62t26 -17l44 6v319zM157 642q0 50 36 74.5t97.5 24.5t98 -24.5t36.5 -73.5t-35.5 -74.5t-98 -25.5t-98.5 24.5t-36 74.5zM261 641.5q0 -21.5 30.5 -21.5t30.5 21.5
t-30.5 21.5t-30.5 -21.5z" />
    <glyph glyph-name="Uhungarumlaut" unicode="&#x170;" horiz-adv-x="641" 
d="M258 670v-439q0 -29 14.5 -41t48.5 -12t48 12t14 41v439h232v-426q0 -142 -71 -199.5t-223.5 -57.5t-223.5 56t-71 197v430h232zM146 849h187l-89 -136h-131zM361 849h187l-89 -136h-131z" />
    <glyph glyph-name="uhungarumlaut" unicode="&#x171;" horiz-adv-x="577" 
d="M325 505h224v-505h-222v24q-64 -37 -114 -37q-106 0 -148 61.5t-42 195.5v261h224v-246q0 -45 8 -62t26 -17l44 6v319zM116 725h192l-89 -166h-136zM336 725h192l-89 -166h-136z" />
    <glyph glyph-name="Uogonek" unicode="&#x172;" horiz-adv-x="641" 
d="M305 -220q-155 0 -155 116q0 59 54 101q-91 18 -134.5 75t-43.5 168v430h232v-439q0 -29 14.5 -41t48.5 -12t48 12t14 41v439h232v-426q0 -120 -50.5 -178.5t-155.5 -72.5q-49 -49 -49 -73.5t22 -24.5l46 4l13 -104q-49 -15 -136 -15z" />
    <glyph glyph-name="uogonek" unicode="&#x173;" horiz-adv-x="577" 
d="M412 -219q-155 0 -155 116q0 70 70 112v15q-64 -37 -114 -37q-106 0 -148 61.5t-42 195.5v261h224v-246q0 -45 8 -62t26 -17l44 6v319h224v-505h-2q-29 -14 -54.5 -40.5t-25.5 -41.5q0 -22 22 -22l46 4l13 -104q-49 -15 -136 -15z" />
    <glyph glyph-name="Wcircumflex" unicode="&#x174;" horiz-adv-x="915" 
d="M85 0l-79 670h231l32 -436h18l45 426h253l50 -426h18l20 436h233l-74 -670h-339l-33 412l-10 1l-34 -413h-331zM274 713l101 136h152l112 -136h-169l-15 62l-12 -62h-169z" />
    <glyph glyph-name="wcircumflex" unicode="&#x175;" horiz-adv-x="792" 
d="M10 505h247l10 -318h12l23 305h203l32 -305h12l11 318h221l-51 -505h-319l-17 218l-19 -218h-305zM220 557l91 166h158l102 -166h-162l-15 72l-12 -72h-162z" />
    <glyph glyph-name="Ycircumflex" unicode="&#x176;" horiz-adv-x="590" 
d="M410 0h-232v210l-191 460h246l63 -197l65 197h245l-196 -460v-210zM114 713l101 136h152l112 -136h-169l-15 62l-12 -62h-169z" />
    <glyph glyph-name="ycircumflex" unicode="&#x177;" horiz-adv-x="546" 
d="M86 0l-85 505h238l36 -318h14l32 318h225l-119 -700h-246l63 195h-158zM106 557l91 166h158l102 -166h-162l-15 72l-12 -72h-162z" />
    <glyph glyph-name="Ydieresis" unicode="&#x178;" horiz-adv-x="590" 
d="M410 0h-232v210l-191 460h246l63 -197l65 197h245l-196 -460v-210zM319 713v144h161v-144h-161zM112 713v144h161v-144h-161z" />
    <glyph glyph-name="Zacute" unicode="&#x179;" horiz-adv-x="569" 
d="M19 481v189h530v-189l-217 -275v-17h217v-189h-530v180l222 284v17h-222zM195 849h242l-109 -136h-176z" />
    <glyph glyph-name="zacute" unicode="&#x17a;" horiz-adv-x="500" 
d="M24 310v195h451v-173l-153 -137h156v-195h-454v183l148 127h-148zM189 723h237l-109 -166h-171z" />
    <glyph glyph-name="Zdotaccent" unicode="&#x17b;" horiz-adv-x="569" 
d="M19 481v189h530v-189l-217 -275v-17h217v-189h-530v180l222 284v17h-222zM194 713v143h180v-143h-180z" />
    <glyph glyph-name="zdotaccent" unicode="&#x17c;" horiz-adv-x="500" 
d="M24 310v195h451v-173l-153 -137h156v-195h-454v183l148 127h-148zM158 563v153h186v-153h-186z" />
    <glyph glyph-name="Zcaron" unicode="&#x17d;" horiz-adv-x="569" 
d="M19 481v189h530v-189l-217 -275v-17h217v-189h-530v180l222 284v17h-222zM203 712l-101 136h169l14 -62l13 62h169l-112 -136h-152z" />
    <glyph glyph-name="zcaron" unicode="&#x17e;" horiz-adv-x="500" 
d="M24 310v195h451v-173l-153 -137h156v-195h-454v183l148 127h-148zM166 557l-91 166h162l14 -72l13 72h162l-102 -166h-158z" />
    <glyph glyph-name="florin" unicode="&#x192;" horiz-adv-x="371" 
d="M370 326h-86l-15 -342q-5 -103 -37.5 -141t-127.5 -38l-128 12v147q52 0 65 6t14 30l14 326h-66v70h69l4 95q5 100 41 139.5t125 39.5l128 -12v-147q-49 0 -63.5 -6.5t-15.5 -29.5l-4 -79h83v-70z" />
    <glyph glyph-name="Aringacute" unicode="&#x1fa;" horiz-adv-x="639" 
d="M183 722q0 96 137 96q62 0 99.5 -23.5t37.5 -72.5q0 -30 -16 -52h53l151 -670h-234l-19 77h-153l-16 -77h-228l148 670h55q-15 19 -15 52zM241 984h242l-109 -136h-176zM307 488l-38 -234h99l-36 234h-25zM290 721.5q0 -21.5 30.5 -21.5t30.5 21.5t-30.5 21.5
t-30.5 -21.5z" />
    <glyph glyph-name="aringacute" unicode="&#x1fb;" horiz-adv-x="557" 
d="M518 342v-190q9 -7 24 -11l-3 -142q-78 -12 -107 -12t-53 8.5t-32 17.5l-8 9q-62 -35 -150.5 -35t-133.5 40.5t-45 130.5t51 120.5t161 34.5l72 3v9q0 19 -42 19q-91 0 -182 -10l-33 -3l-5 152q132 35 241 35q114 0 177 -34q68 -36 68 -142zM256 141q19 0 38 15v37
l-34 -2q-26 -2 -26 -26t22 -24zM138 637q0 50 36 74.5t97.5 24.5t98 -24.5t36.5 -73.5t-35.5 -74.5t-98 -25.5t-98.5 24.5t-36 74.5zM242 636.5q0 -21.5 30.5 -21.5t30.5 21.5t-30.5 21.5t-30.5 -21.5zM214 922h237l-109 -166h-171z" />
    <glyph glyph-name="AEacute" unicode="&#x1fc;" horiz-adv-x="882" 
d="M366 0v77h-127l-16 -77h-228l148 670h722v-185h-273v-60h213v-177h-213v-63h273v-185h-499zM366 256v229h-59l-37 -229h96zM391 849h242l-109 -136h-176z" />
    <glyph glyph-name="aeacute" unicode="&#x1fd;" horiz-adv-x="827" 
d="M514 187q1 -35 46 -35q99 0 200 6l38 3l5 -145q-133 -29 -244.5 -29t-172.5 35q-109 -35 -195.5 -35t-133.5 42t-47 128q0 75 33 111q35 39 177 45l68 3v9q0 19 -42 19q-90 0 -177 -10l-32 -3l-5 152q126 35 231.5 35t158.5 -25q56 25 130 25q131 0 196 -57t65 -175
l-10 -99h-289zM362 723h237l-109 -166h-171zM591 309q0 29 -9 41t-30.5 12t-29.5 -12t-9 -41h78zM250 141q19 0 38 15v37l-34 -2q-26 -2 -26 -26t22 -24z" />
    <glyph glyph-name="Oslashacute" unicode="&#x1fe;" horiz-adv-x="670" 
d="M83 -10q3 9 26 63q-93 83 -93 274t76 273.5t243 82.5l28 -1l18 42l217 -44l-29 -71q85 -82 85 -269.5t-76 -270t-243 -82.5h-19l-16 -41zM266.5 212.5q16.5 -37.5 69 -37.5t68.5 37t16 123.5t-15.5 123t-68.5 36.5t-69.5 -37.5t-16.5 -122.5t16.5 -122.5zM246 864h242
l-109 -136h-176z" />
    <glyph glyph-name="oslashacute" unicode="&#x1ff;" horiz-adv-x="564" 
d="M282 -13l-35 1l-35 -62l-217 44l62 108q-42 63 -42 175q0 140 66.5 202.5t200.5 62.5q17 0 26 -1l41 72l55 -11q54 -10 108 -21l54 -11l-64 -113q47 -64 47 -180q0 -142 -66.5 -204t-200.5 -62zM187 723h237l-109 -166h-171zM282 168q23 0 32 18t9 66.5t-9 66.5t-32 18
t-32 -18t-9 -66.5t9 -66.5t32 -18z" />
    <glyph glyph-name="Scommaaccent" unicode="&#x218;" horiz-adv-x="578" 
d="M180 -260l20 215h204l-62 -215h-162zM540 477q-141 15 -205 15t-74.5 -3.5t-10.5 -14.5t12 -17t75.5 -20t104 -27.5t73 -38t43 -60t10.5 -95.5q0 -124 -66 -177t-199 -53q-64 0 -134.5 9t-108.5 18l-39 9l10 177q153 -22 251 -22q52 0 52 23q0 10 -12 14.5t-65 12.5
q-140 22 -190.5 68.5t-50.5 152.5q0 135 65 185t200 50q95 0 223 -19l42 -7z" />
    <glyph glyph-name="scommaaccent" unicode="&#x219;" horiz-adv-x="489" 
d="M133 -260l20 215h204l-62 -215h-162zM457 335q-124 14 -169 14t-45 -8q0 -6 78.5 -14.5t114.5 -45t36 -124.5t-54.5 -129t-167.5 -41q-63 0 -120 6.5t-82 13.5l-26 7l5 151q124 -17 172.5 -17t48.5 9q0 5 -79 15.5t-114.5 47t-35.5 114.5q0 102 58.5 143t165.5 41
q114 0 195 -20l27 -6z" />
    <glyph glyph-name="Tcommaaccent" unicode="&#x21a;" horiz-adv-x="519" 
d="M141 -260l20 215h204l-62 -215h-162zM9 481v189h500v-189h-130v-481h-232v481h-138z" />
    <glyph glyph-name="tcommaaccent" unicode="&#x21b;" horiz-adv-x="371" 
d="M70 -260l20 215h204l-62 -215h-162zM273 324v-104q0 -25 6.5 -33.5t26.5 -8.5l45 1l3 -174q-86 -18 -132 -18q-93 0 -133 38.5t-40 142.5v156h-39v181h39v100h224v-100h81v-181h-81z" />
    <glyph glyph-name="circumflex" unicode="&#x2c6;" horiz-adv-x="833" 
d="M239 557l91 166h158l102 -166h-162l-15 72l-12 -72h-162z" />
    <glyph glyph-name="caron" unicode="&#x2c7;" horiz-adv-x="833" 
d="M326 557l-91 166h162l14 -72l13 72h162l-102 -166h-158z" />
    <glyph glyph-name="breve" unicode="&#x2d8;" horiz-adv-x="406" 
d="M204 548q-160 0 -160 160l116 10q5 -45 44 -45t44 45l116 -10q0 -160 -160 -160z" />
    <glyph glyph-name="dotaccent" unicode="&#x2d9;" horiz-adv-x="346" 
d="M80 563v153h186v-153h-186z" />
    <glyph glyph-name="ring" unicode="&#x2da;" horiz-adv-x="496" 
d="M134 642q0 50 36 74.5t97.5 24.5t98 -24.5t36.5 -73.5t-35.5 -74.5t-98 -25.5t-98.5 24.5t-36 74.5zM238 641.5q0 -21.5 30.5 -21.5t30.5 21.5t-30.5 21.5t-30.5 -21.5z" />
    <glyph glyph-name="ogonek" unicode="&#x2db;" horiz-adv-x="833" 
d="M344 -220q-155 0 -155 116q0 45 30.5 78.5t60.5 45.5l30 11l163 -15q-74 -64 -74 -99q0 -22 22 -22l46 4l13 -104q-49 -15 -136 -15z" />
    <glyph glyph-name="tilde" unicode="&#x2dc;" horiz-adv-x="481" 
d="M293 547q-26 0 -79.5 22t-66.5 22q-25 0 -67 -30l-14 -10l-29 116q20 24 51.5 44t61 20t80.5 -21.5t62 -21.5q21 0 66 30l15 9l29 -117q-21 -24 -52 -43.5t-57 -19.5z" />
    <glyph glyph-name="hungarumlaut" unicode="&#x2dd;" horiz-adv-x="463" 
d="M42 725h192l-89 -166h-136zM262 725h192l-89 -166h-136z" />
    <glyph glyph-name="pi" unicode="&#x3c0;" 
d="M269 295h-15l-18 -295h-175l18 291l-61 -9v205q44 9 125 12l25 1h216q95 0 144 16v-205q-34 -12 -104 -15v-32q0 -27 0.5 -43.5t6 -28.5t8.5 -17t17.5 -8t22.5 -3h34v-164q-132 0 -186 31.5t-58 122.5v141z" />
    <glyph glyph-name="Wgrave" unicode="&#x1e80;" horiz-adv-x="915" 
d="M85 0l-79 670h231l32 -436h18l45 426h253l50 -426h18l20 436h233l-74 -670h-339l-33 412l-10 1l-34 -413h-331zM298 849h242l34 -136h-172z" />
    <glyph glyph-name="wgrave" unicode="&#x1e81;" horiz-adv-x="792" 
d="M10 505h247l10 -318h12l23 305h203l32 -305h12l11 318h221l-51 -505h-319l-17 218l-19 -218h-305zM227 723h237l43 -166h-171z" />
    <glyph glyph-name="Wacute" unicode="&#x1e82;" horiz-adv-x="915" 
d="M85 0l-79 670h231l32 -436h18l45 426h253l50 -426h18l20 436h233l-74 -670h-339l-33 412l-10 1l-34 -413h-331zM377 849h242l-109 -136h-176z" />
    <glyph glyph-name="wacute" unicode="&#x1e83;" horiz-adv-x="792" 
d="M10 505h247l10 -318h12l23 305h203l32 -305h12l11 318h221l-51 -505h-319l-17 218l-19 -218h-305zM346 723h237l-109 -166h-171z" />
    <glyph glyph-name="Wdieresis" unicode="&#x1e84;" horiz-adv-x="915" 
d="M85 0l-79 670h231l32 -436h18l45 426h253l50 -426h18l20 436h233l-74 -670h-339l-33 412l-10 1l-34 -413h-331zM479 713v144h161v-144h-161zM272 713v144h161v-144h-161z" />
    <glyph glyph-name="wdieresis" unicode="&#x1e85;" horiz-adv-x="792" 
d="M10 505h247l10 -318h12l23 305h203l32 -305h12l11 318h221l-51 -505h-319l-17 218l-19 -218h-305zM418 559v154h164v-154h-164zM208 559v154h164v-154h-164z" />
    <glyph glyph-name="uni1EAB" unicode="&#x1eab;" horiz-adv-x="557" 
d="M518 342v-190q9 -7 24 -11l-3 -142q-78 -12 -107 -12t-53 8.5t-32 17.5l-8 9q-62 -35 -150.5 -35t-133.5 40.5t-45 130.5t51 120.5t161 34.5l72 3v9q0 19 -42 19q-91 0 -182 -10l-33 -3l-5 152q132 35 241 35q114 0 177 -34q68 -36 68 -142zM256 141q19 0 38 15v37
l-34 -2q-26 -2 -26 -26t22 -24zM101 557l91 166h158l102 -166h-162l-15 72l-12 -72h-162zM352 747q-26 0 -79.5 22t-66.5 22q-25 0 -67 -30l-14 -10l-29 116q20 24 51.5 44t61 20t80.5 -21.5t62 -21.5q21 0 67 30l14 9l29 -117q-21 -24 -52 -43.5t-57 -19.5z" />
    <glyph glyph-name="uni1EB0" unicode="&#x1eb0;" horiz-adv-x="639" 
d="M-5 0l148 670h351l151 -670h-234l-19 77h-153l-16 -77h-228zM307 488l-38 -234h99l-36 234h-25zM320 712q-86 0 -123 42.5t-37 107.5l116 10q5 -45 44 -45t44 45l116 -10q0 -65 -37 -107.5t-123 -42.5zM129 1081h237l43 -166h-171z" />
    <glyph glyph-name="uni1EC5" unicode="&#x1ec5;" horiz-adv-x="552" 
d="M239 187q1 -35 45 -35q100 0 200 6l39 3l5 -145q-133 -29 -264.5 -29t-190 60.5t-58.5 196t63 205t196.5 69.5t198.5 -57t65 -175l-10 -99h-289zM314 309q0 29 -8.5 41t-29.5 12t-29 -12t-9 -41h76zM101 557l91 166h158l102 -166h-162l-15 72l-12 -72h-162zM349 747
q-26 0 -79.5 22t-66.5 22q-25 0 -67 -30l-14 -10l-29 116q20 24 51.5 44t61 20t80.5 -21.5t62 -21.5q21 0 66 30l15 9l29 -117q-21 -24 -52 -43.5t-57 -19.5z" />
    <glyph glyph-name="uni1ED7" unicode="&#x1ed7;" horiz-adv-x="564" 
d="M282 518q134 0 200.5 -62.5t66.5 -203.5t-66.5 -203t-200.5 -62t-200.5 62t-66.5 203t66.5 203.5t200.5 62.5zM282 168q23 0 32 18t9 66.5t-9 66.5t-32 18t-32 -18t-9 -66.5t9 -66.5t32 -18zM107 557l91 166h158l102 -166h-162l-15 72l-12 -72h-162zM355 747
q-26 0 -79.5 22t-66.5 22q-25 0 -67 -30l-14 -10l-29 116q20 24 51.5 44t61 20t80.5 -21.5t62 -21.5q21 0 66 30l15 9l29 -117q-21 -24 -52 -43.5t-57 -19.5z" />
    <glyph glyph-name="Ygrave" unicode="&#x1ef2;" horiz-adv-x="590" 
d="M410 0h-232v210l-191 460h246l63 -197l65 197h245l-196 -460v-210zM128 849h242l34 -136h-172z" />
    <glyph glyph-name="ygrave" unicode="&#x1ef3;" horiz-adv-x="546" 
d="M86 0l-85 505h238l36 -318h14l32 318h225l-119 -700h-246l63 195h-158zM115 723h237l43 -166h-171z" />
    <glyph glyph-name="uni1EF8" unicode="&#x1ef8;" horiz-adv-x="590" 
d="M410 0h-232v210l-191 460h246l63 -197l65 197h245l-196 -460v-210zM368 712q-26 0 -79.5 22t-66.5 22q-25 0 -67 -30l-14 -10l-29 116q20 24 51.5 44t61 20t80.5 -21.5t62 -21.5t31.5 9.5t35.5 19.5l14 10l29 -117q-21 -24 -52 -43.5t-57 -19.5z" />
    <glyph glyph-name="uni1EF9" unicode="&#x1ef9;" horiz-adv-x="546" 
d="M86 0l-85 505h238l36 -318h14l32 318h225l-119 -700h-246l63 195h-158zM346 547q-26 0 -79.5 22t-66.5 22q-25 0 -67 -30l-14 -10l-29 116q20 24 51.5 44t61 20t80.5 -21.5t62 -21.5q21 0 67 30l14 9l29 -117q-21 -24 -52 -43.5t-57 -19.5z" />
    <glyph glyph-name="endash" unicode="&#x2013;" horiz-adv-x="560" 
d="M30 155v197h500v-197h-500z" />
    <glyph glyph-name="emdash" unicode="&#x2014;" horiz-adv-x="1060" 
d="M30 155v197h1000v-197h-1000z" />
    <glyph glyph-name="quoteleft" unicode="&#x2018;" horiz-adv-x="278" 
d="M259 670l-21 -281h-230l75 281h176z" />
    <glyph glyph-name="quoteright" unicode="&#x2019;" horiz-adv-x="275" 
d="M19 389l21 281h230l-75 -281h-176z" />
    <glyph glyph-name="quotesinglbase" unicode="&#x201a;" horiz-adv-x="274" 
d="M11 -108l21 281h230l-75 -281h-176z" />
    <glyph glyph-name="quotedblleft" unicode="&#x201c;" horiz-adv-x="544" 
d="M259 670l-21 -281h-230l75 281h176zM525 670l-21 -281h-230l75 281h176z" />
    <glyph glyph-name="quotedblright" unicode="&#x201d;" horiz-adv-x="541" 
d="M19 389l21 281h230l-75 -281h-176zM285 389l21 281h230l-75 -281h-176z" />
    <glyph glyph-name="quotedblbase" unicode="&#x201e;" horiz-adv-x="540" 
d="M11 -108l21 281h230l-75 -281h-176zM277 -108l21 281h230l-75 -281h-176z" />
    <glyph glyph-name="dagger" unicode="&#x2020;" horiz-adv-x="534" 
d="M17 294v198h137v178h226v-178h137v-198h-137v-489h-226v489h-137z" />
    <glyph glyph-name="daggerdbl" unicode="&#x2021;" horiz-adv-x="548" 
d="M161 -194v177h-137v198h137v113h-137v198h137v178h226v-178h137v-198h-137v-113h137v-198h-137v-177h-226z" />
    <glyph glyph-name="bullet" unicode="&#x2022;" horiz-adv-x="377" 
d="M51 140v270h275v-270h-275z" />
    <glyph glyph-name="ellipsis" unicode="&#x2026;" horiz-adv-x="876" 
d="M27 0v199h228v-199h-228zM324 0v199h228v-199h-228zM621 0v199h228v-199h-228z" />
    <glyph glyph-name="perthousand" unicode="&#x2030;" horiz-adv-x="978" 
d="M228 -59l158 760l44 -9l-159 -759zM49 627.5q32 40.5 113.5 40.5t112 -40t30.5 -138t-31 -138.5t-113 -40.5t-113 40.5t-31 138t32 138zM161 562q-12 0 -15 -11t-3 -53.5t2 -57.5t5 -18.5t13 -3.5t13 11t3 61.5t-3 61t-15 10.5zM393 304.5q32 40.5 113.5 40.5t112 -40
t30.5 -138t-31 -138.5t-113 -40.5t-113 40.5t-31 138t32 138zM505 239q-12 0 -15 -11t-3 -53.5t2 -57.5t5 -18.5t13 -3.5t13 11t3 61.5t-3 61t-15 10.5zM705 304.5q32 40.5 113.5 40.5t112 -40t30.5 -138t-31 -138.5t-113 -40.5t-113 40.5t-31 138t32 138zM817 239
q-12 0 -15 -11t-3 -53.5t2 -57.5t5 -18.5t13 -3.5t13 11t3 61.5t-3 61t-15 10.5z" />
    <glyph glyph-name="guilsinglleft" unicode="&#x2039;" horiz-adv-x="354" 
d="M335 426l-114 -169l114 -169l-162 -74l-159 230v21l161 235z" />
    <glyph glyph-name="guilsinglright" unicode="&#x203a;" horiz-adv-x="354" 
d="M19 80l114 169l-114 169l162 74l159 -230v-21l-161 -235z" />
    <glyph glyph-name="fraction" unicode="&#x2044;" horiz-adv-x="215" 
d="M-112 5l303 750l147 -64l-303 -750z" />
    <glyph glyph-name="zerosuperior" unicode="&#x2070;" horiz-adv-x="350" 
d="M49.5 625q35.5 45 126.5 45t125 -44.5t34 -153.5t-34.5 -154t-125.5 -45t-126 45t-35 153.5t35.5 153.5zM175 552q-7 0 -10.5 -1.5t-6.5 -9.5q-3 -11 -3 -67.5t3.5 -69t16.5 -12.5t16.5 12.5t3.5 55t-0.5 58t-3 23.5t-6 9.5t-10.5 1.5z" />
    <glyph glyph-name="foursuperior" unicode="&#x2074;" horiz-adv-x="350" 
d="M176 273v48h-163v98l54 251h158l-78 -236h29v55l147 18v-73h15v-113h-15v-48h-147z" />
    <glyph glyph-name="fivesuperior" unicode="&#x2075;" horiz-adv-x="350" 
d="M317 670v-118h-175l-3 -26q33 9 60 9q72 0 102 -26t30 -100.5t-39.5 -105t-114.5 -30.5q-50 0 -131 17l-26 6l11 97q79 -12 133 -12q27 0 27 16t-26 16l-47 -7l-87 11l8 253h278z" />
    <glyph glyph-name="sixsuperior" unicode="&#x2076;" horiz-adv-x="350" 
d="M144 525q30 10 48 10q71 0 105 -30.5t34 -100.5q0 -131 -155 -131q-83 0 -119 48t-36 153.5t43 150.5t119 45q37 0 107 -14l21 -5l-9 -96q-65 9 -100.5 9t-45.5 -9.5t-12 -29.5zM177 433q-19 0 -33 -7q0 -27 6 -38t26 -11q27 0 27 28t-26 28z" />
    <glyph glyph-name="sevensuperior" unicode="&#x2077;" horiz-adv-x="350" 
d="M42 536v134h267v-130l-104 -267l-132 27l98 221v15h-129z" />
    <glyph glyph-name="eightsuperior" unicode="&#x2078;" horiz-adv-x="350" 
d="M174 670q76 0 116 -21t40 -82q0 -38 -12.5 -56t-41.5 -36q34 -17 47 -34.5t13 -59.5t-24 -67.5t-57 -33t-81 -7.5q-162 0 -162 111q0 27 9 45t18 25.5t33 21.5q-29 17 -41 35t-12 56q0 103 155 103zM197 397q0 19 -15 34h-15q-16 -13 -16 -36.5t23 -23.5t23 26zM156 548
q0 -14 11 -29h15q11 11 11 33t-18.5 22t-18.5 -26z" />
    <glyph glyph-name="ninesuperior" unicode="&#x2079;" horiz-adv-x="350" 
d="M205 418q-30 -10 -48 -10q-67 0 -100.5 31.5t-33.5 99.5q0 131 150 131q82 0 118.5 -47.5t36.5 -153.5t-43 -151t-119 -45q-47 0 -110 14l-23 5l9 96q70 -9 105.5 -9t45.5 9.5t12 29.5zM172 510q14 0 33 7q0 27 -6 38t-26 11q-27 0 -27 -28t26 -28z" />
    <glyph glyph-name="zeroinferior" unicode="&#x2080;" horiz-adv-x="350" 
d="M49.5 342q35.5 45 126.5 45t125 -44.5t34 -153.5t-34.5 -154t-125.5 -45t-126 45t-35 153.5t35.5 153.5zM175 269q-7 0 -10.5 -1.5t-6.5 -9.5q-3 -11 -3 -67.5t3.5 -69t16.5 -12.5t16.5 12.5t3.5 55t-0.5 58t-3 23.5t-6 9.5t-10.5 1.5z" />
    <glyph glyph-name="oneinferior" unicode="&#x2081;" horiz-adv-x="350" 
d="M297 397v-397h-157v221l-83 -34l-36 128l141 82h135z" />
    <glyph glyph-name="twoinferior" unicode="&#x2082;" horiz-adv-x="350" 
d="M302 0h-258v112l55 50q12 12 29.5 28t25 23t15.5 17q14 18 14 34q0 23 -46 23l-85 -5l-6 103q66 16 131 16q132 0 132 -119q0 -27 -3 -38l-6 -16q-2 -6 -8.5 -15t-9.5 -13.5t-14 -15.5l-14 -14q-26 -26 -40 -38l-20 -15h108v-117z" />
    <glyph glyph-name="threeinferior" unicode="&#x2083;" horiz-adv-x="350" 
d="M148 139h-82v102h77q31 0 31 18t-40 18l-95 -5l-3 99q75 16 115 16q86 0 124.5 -24t38.5 -86q0 -31 -8 -48t-28 -31q22 -17 31.5 -33.5t9.5 -46.5q0 -72 -37.5 -100t-116.5 -28q-48 0 -111 12l-21 4l3 101q67 -6 92 -6t32 1q19 2 19 18.5t-31 18.5z" />
    <glyph glyph-name="fourinferior" unicode="&#x2084;" horiz-adv-x="350" 
d="M177 0v48h-163v98l54 251h158l-78 -236h29v55l147 18v-73h15v-113h-15v-48h-147z" />
    <glyph glyph-name="fiveinferior" unicode="&#x2085;" horiz-adv-x="350" 
d="M316 387v-118h-175l-3 -26q33 9 60 9q72 0 102 -26t30 -100.5t-39.5 -105t-114.5 -30.5q-50 0 -132 18l-25 5l11 97q79 -12 133 -12q27 0 27 16t-26 16l-47 -7l-87 11l8 253h278z" />
    <glyph glyph-name="sixinferior" unicode="&#x2086;" horiz-adv-x="350" 
d="M143 242q30 10 48 10q71 0 105 -30.5t34 -100.5q0 -131 -155 -131q-83 0 -119 48t-36 153.5t43 150.5t119 45q46 0 106 -14l22 -5l-9 -96q-65 9 -100.5 9t-45.5 -9.5t-12 -29.5zM176 150q-14 0 -33 -7q0 -27 6 -38t26 -11q27 0 27 28t-26 28z" />
    <glyph glyph-name="seveninferior" unicode="&#x2087;" horiz-adv-x="350" 
d="M41 253v134h267v-130l-104 -267l-132 27l98 221v15h-129z" />
    <glyph glyph-name="eightinferior" unicode="&#x2088;" horiz-adv-x="350" 
d="M174 387q76 0 116 -21t40 -82q0 -38 -12.5 -56t-41.5 -36q34 -17 47 -34.5t13 -59.5t-24 -67.5t-57 -33t-81 -7.5q-162 0 -162 111q0 27 9 45t18 25.5t33 21.5q-29 17 -41 35t-12 56q0 103 155 103zM197 114q0 19 -15 34h-15q-16 -13 -16 -36.5t23 -23.5t23 26zM156 265
q0 -14 11 -29h15q11 11 11 33t-18.5 22t-18.5 -26z" />
    <glyph glyph-name="nineinferior" unicode="&#x2089;" horiz-adv-x="350" 
d="M205 135q-30 -10 -48 -10q-67 0 -100.5 31.5t-33.5 99.5q0 131 150 131q82 0 118.5 -47.5t36.5 -153.5t-43 -151t-119 -45q-48 0 -110 14l-23 5l9 96q70 -9 105.5 -9t45.5 9.5t12 29.5zM172 227q19 0 33 7q0 27 -6 38t-26 11q-27 0 -27 -28t26 -28z" />
    <glyph glyph-name="Euro" unicode="&#x20ac;" 
d="M15 367v60h28q12 137 75.5 190t211.5 53q65 0 167 -20l34 -6l-6 -176q-81 10 -138.5 10t-79 -10t-30.5 -41h218v-60h-226v-62h226v-60h-221q8 -40 29.5 -52.5t71.5 -12.5l153 5l3 -172q-104 -26 -211 -26q-145 0 -206 55.5t-72 202.5h-27v60h25v62h-25z" />
    <glyph glyph-name="trademark" unicode="&#x2122;" horiz-adv-x="592" 
d="M112 565h-71v79h200v-79h-41v-233h-88v233zM348 331h-82v313h103l41 -158l45 158h102v-313h-82v174l-34 -153h-55l-38 153v-174z" />
    <glyph glyph-name="Omega" unicode="&#x2126;" 
d="M40 180h68q-5 3 -14 14t-21.5 60t-12.5 122q0 154 44 224t171 70q131 0 175 -77q22 -40 30.5 -90.5t8.5 -124.5t-12.5 -122.5t-21 -60t-15.5 -15.5h70v-180h-206v170q5 6 12 19t18.5 63.5t11.5 138.5t-11 117t-60.5 29t-60.5 -29t-11 -117t10.5 -137t20.5 -66l11 -18
v-170h-205v180z" />
    <glyph glyph-name="partialdiff" unicode="&#x2202;" 
d="M258 690q135 0 197.5 -88.5t62.5 -266t-62 -263t-197 -85.5q-117 0 -179 59.5t-62 171t59.5 171t167.5 59.5l73 -9q-6 43 -24.5 62t-49.5 19q-61 0 -146 -34l-30 -11l-5 162q104 53 195 53zM260 278q-47 0 -47 -57q0 -29 12 -47.5t34 -18.5q61 0 64 116q-23 7 -63 7z" />
    <glyph glyph-name="Delta" unicode="&#x2206;" 
d="M12 0l97 659h323l110 -659h-530zM263 477l-7 -298h39l-15 298h-17z" />
    <glyph glyph-name="product" unicode="&#x220f;" 
d="M307 -181v765h-66v-765h-190v765h-46v175h540v-175h-49v-765h-189z" />
    <glyph glyph-name="summation" unicode="&#x2211;" horiz-adv-x="568" 
d="M18 760h540v-200h-279l184 -214v-107l-186 -219h281v-200h-540v170l235 300l-235 296v174z" />
    <glyph glyph-name="minus" unicode="&#x2212;" 
d="M62 164v180h426v-180h-426z" />
    <glyph glyph-name="radical" unicode="&#x221a;" horiz-adv-x="690" 
d="M0 265v184h279l63 -321l116 663h232l-226 -920h-243l-121 394h-100z" />
    <glyph glyph-name="infinity" unicode="&#x221e;" horiz-adv-x="673" 
d="M167 126q-72 0 -107.5 56.5t-35.5 159t35.5 159t107.5 56.5q99 0 169 -91q72 91 169 91q72 0 108 -57t36 -159t-36.5 -158.5t-109.5 -56.5q-97 0 -167 90q-70 -90 -169 -90zM179 416q-42 0 -42 -75t42 -75q32 0 52.5 14.5t40.5 60.5q-20 46 -40.5 60.5t-52.5 14.5z
M494 266q42 0 42 75t-42 75q-32 0 -52 -14.5t-41 -60.5q21 -46 41 -60.5t52 -14.5z" />
    <glyph glyph-name="integral" unicode="&#x222b;" 
d="M477 531q-48 0 -63 -3t-16 -17l-32 -527q-8 -104 -39.5 -141.5t-125.5 -37.5l-128 12v147q68 0 75 9q4 4 4 11l32 527q8 104 39.5 141.5t125.5 37.5l128 -12v-147z" />
    <glyph glyph-name="approxequal" unicode="&#x2248;" 
d="M372 11q-29 0 -102 22t-92 22t-46.5 -10t-43.5 -20l-17 -10l-10 172q21 21 58 37t66 16t98.5 -22t90.5 -22q35 0 88 30l17 9l8 -171q-17 -20 -51.5 -36.5t-63.5 -16.5zM372 261q-29 0 -102 22t-92 22t-46.5 -10t-43.5 -20l-17 -10l-10 172q21 21 58 37t66 16t98.5 -22
t90.5 -22q35 0 88 30l17 9l8 -171q-17 -20 -51.5 -36.5t-63.5 -16.5z" />
    <glyph glyph-name="notequal" unicode="&#x2260;" 
d="M59 282v170h252l39 76h131l-39 -76h49v-170h-135l-28 -55h163v-170h-249l-40 -80h-134l41 80h-50v170h137l28 55h-165z" />
    <glyph glyph-name="lessequal" unicode="&#x2264;" 
d="M464 31h-376v160h191l-220 66v178l424 122v-181l-262 -26l262 -34v-186l-19 5v-104z" />
    <glyph glyph-name="greaterequal" unicode="&#x2265;" 
d="M106 191v-49l-42 -12v186l262 34l-262 26v181l424 -122v-178l-220 -66h-162zM106 31v111l162 49h214v-160h-376z" />
    <glyph glyph-name="lozenge" unicode="&#x25ca;" 
d="M158 0l-159 324l159 336h235l158 -336l-158 -324h-235zM284 174l54 150l-54 162h-17l-55 -162l55 -150h17z" />
    <glyph glyph-name="dotlessj" unicode="&#xf6be;" horiz-adv-x="280" 
d="M28 66v439h224v-432q0 -105 -15.5 -143t-30 -56t-45.5 -36q-48 -26 -150 -58l-72 170q62 29 75.5 46t13.5 70z" />
    <glyph glyph-name="commaaccent" unicode="&#xf6c3;" horiz-adv-x="215" 
d="M-24 -388l22 296h242l-79 -296h-185z" />
    <glyph glyph-name="questiondown.cap" horiz-adv-x="447" 
d="M4 174q0 74 18.5 108.5t69.5 70.5q77 55 79 81l1 19h175q23 -31 23 -73t-16.5 -65.5t-61 -56.5t-53.5 -44t-9 -30.5t14 -28t46 -8.5q62 0 125 11l21 3l7 -157q-113 -37 -223.5 -37t-163 47t-52.5 160zM372 670v-180h-228v180h228z" />
    <glyph glyph-name="endash.cap" horiz-adv-x="558" 
d="M29 239v197h500v-197h-500z" />
    <glyph glyph-name="emdash.cap" horiz-adv-x="1058" 
d="M29 237v201h1000v-201h-1000z" />
    <glyph glyph-name="periodcentered.cap" horiz-adv-x="263" 
d="M29 219v200h205v-200h-205z" />
    <glyph glyph-name="exclamdown.cap" horiz-adv-x="290" 
d="M259 670v-198h-228v198h228zM252 426l14 -426h-242l14 426h214z" />
    <glyph glyph-name="parenleft.cap" horiz-adv-x="326" 
d="M264 539q-21 -119 -21 -215.5t18.5 -203t37.5 -164.5l19 -59h-203q-63 111 -89 281q-10 72 -10 166.5t25 206.5t49 167l25 54h203q-8 -26 -20.5 -70t-33.5 -163z" />
    <glyph glyph-name="parenright.cap" horiz-adv-x="326" 
d="M62 130q21 119 21 215.5t-18.5 203t-37.5 165.5l-19 58h203q63 -111 89 -282q10 -71 10 -165.5t-25 -206.5t-49 -166l-25 -55h-203q8 26 20.5 70t33.5 163z" />
    <glyph glyph-name="bracketleft.cap" horiz-adv-x="341" 
d="M322 771v-181h-64v-510h64v-181h-289v872h289z" />
    <glyph glyph-name="bracketright.cap" horiz-adv-x="339" 
d="M17 590v181h289v-872h-289v181h64v510h-64z" />
    <glyph glyph-name="braceleft.cap" horiz-adv-x="360" 
d="M273 532l3 -81q0 -51 -11.5 -74.5t-44.5 -41.5q32 -18 44 -41.5t12 -68.5l-3 -98q0 -38 13 -50.5t58 -16.5v-180q-117 0 -169.5 13t-76.5 31q-52 42 -52 128q0 21 6.5 81t6.5 71q0 31 -44 40v169q44 8 44 34l-13 153q0 82 38 118q42 38 104 48q65 9 156 9v-180
q-46 -4 -58.5 -15t-12.5 -48z" />
    <glyph glyph-name="braceright.cap" horiz-adv-x="360" 
d="M87 138l-3 81q0 51 11.5 74.5t44.5 41.5q-32 18 -44 41.5t-12 68.5l3 98q0 38 -13 50.5t-58 16.5v180q117 0 169.5 -13t76.5 -31q52 -42 52 -128q0 -21 -6.5 -81t-6.5 -71q0 -31 44 -40v-169q-44 -8 -44 -34l13 -153q0 -82 -38 -118q-42 -38 -104 -48q-65 -9 -156 -9v180
q46 4 58.5 15t12.5 48z" />
    </font>
</defs>
</svg>
